osu file format v14

[General]
AudioFilename: Whatever I do.mp3
AudioLeadIn: 0
PreviewTime: 87518
Countdown: 0
SampleSet: Soft
StackLeniency: 0.7
Mode: 0
LetterboxInBreaks: 0
WidescreenStoryboard: 0

[Editor]
Bookmarks: 22346,44415,55449,66829,87518,88898,99587,99932,110622
DistanceSpacing: 1
BeatDivisor: 2
GridSize: 8
TimelineZoom: 1.7

[Metadata]
Title:Whatever I Do (feat. Kostja)
TitleUnicode:Whatever I Do (feat. Kóstja)
Artist:Cartoon
ArtistUnicode:Cartoon
Creator:SrSkyPlayer
Version:Hard
Source:
Tags:dnb drum and bass liquicity edm short ver. music eletronic cut. Giralda Harez wendao2000 wendao Tarrasky
BeatmapID:996639
BeatmapSetID:465545

[Difficulty]
HPDrainRate:5
CircleSize:4
OverallDifficulty:6
ApproachRate:8
SliderMultiplier:1.5
SliderTickRate:1

[Events]
//Background and Video events
0,0,"heya.jpg",0,0
//Break Periods
2,44615,54699
//Storyboard Layer 0 (Background)
//Storyboard Layer 1 (Fail)
//Storyboard Layer 2 (Pass)
//Storyboard Layer 3 (Foreground)
//Storyboard Sound Samples

[TimingPoints]
11312,344.827586206897,4,2,1,55,1,0
21311,-133.333333333333,4,2,1,55,0,0
27518,-133.333333333333,4,2,2,55,0,0
27605,-133.333333333333,4,2,1,55,0,0
33036,-133.333333333333,4,2,2,55,0,0
33122,-133.333333333333,4,2,1,55,0,0
38553,-133.333333333333,4,2,2,55,0,0
38639,-133.333333333333,4,2,1,55,0,0
55449,-100,4,2,1,30,0,0
60967,-100,4,2,1,35,0,0
61656,-100,4,2,1,40,0,0
62346,-100,4,2,1,45,0,0
62518,-100,4,2,1,50,0,0
62691,-100,4,2,1,55,0,0
63036,-100,4,2,1,60,0,0
63208,-100,4,2,1,65,0,0
63380,-100,4,2,1,70,0,0
63553,-100,4,2,1,75,0,0
66829,-100,4,2,1,75,0,0
88898,-100,4,2,1,75,0,1
99587,-100,4,2,1,75,0,0
99932,-100,4,2,1,75,0,1
110622,-100,4,2,1,40,0,0
112001,-100,4,2,1,20,0,0
113380,-100,4,2,1,15,0,0
114070,-100,4,2,1,5,0,0

[Colours]
Combo1 : 218,217,165
Combo2 : 0,128,192
Combo3 : 192,192,192

[HitObjects]
326,144,21312,6,0,P|404:138|447:137,2,112.500004291535,2|2|0,0:0|0:0|0:0,0:0:0:0:
243,220,22346,6,0,P|274:263|268:336,1,112.500004291535,4|0,0:0|0:0,0:0:0:0:
166,353,23036,2,0,P|135:310|141:237,1,112.500004291535,8|0,0:0|0:0,0:0:0:0:
157,119,23725,5,0,1:0:0:0:
157,119,24070,2,0,B|189:127|211:116|211:116|238:104|270:113,2,112.500004291535,2|8|2,0:0|0:0|0:0,0:0:0:0:
264,36,25105,6,0,P|316:55|343:110,1,112.500004291535,0|2,1:0|0:0,0:0:0:0:
364,213,25794,2,0,P|398:175|461:169,1,112.500004291535,8|2,0:0|0:0,0:0:0:0:
449,305,26484,5,0,0:0:0:0:
449,305,26829,2,0,B|419:296|392:308|392:308|370:319|338:311,2,112.500004291535,0|8|8,0:0|1:2|1:2,0:0:0:0:
347,215,27863,6,0,P|292:220|254:260,1,112.500004291535,0|0,1:0|0:0,0:0:0:0:
172,337,28553,2,0,P|118:318|56:306,1,112.500004291535,8|0,0:0|0:0,0:0:0:0:
21,202,29243,6,0,P|50:204|89:185,1,56.2500021457673,0|2,1:0|0:0,0:0:0:0:
119,160,29587,2,0,L|112:22,2,112.500004291535,0|8|2,0:0|0:0|0:0,0:0:0:0:
225,76,30622,6,0,P|251:67|279:69,1,56.2500021457673,0|2,1:0|0:0,0:0:0:0:
328,97,30967,2,0,P|382:91|420:51,2,112.500004291535,0|8|0,0:0|0:0|0:0,0:0:0:0:
266,217,32001,5,0,0:0:0:0:
266,217,32346,2,0,P|342:232|390:245,2,112.500004291535,0|8|8,0:0|1:2|1:2,0:0:0:0:
187,297,33380,6,0,P|138:323|83:318,1,112.500004291535,0|2,1:0|0:0,0:0:0:0:
58,208,34070,2,0,P|106:181|161:186,1,112.500004291535,8|2,0:0|0:0,0:0:0:0:
269,104,34760,5,0,1:0:0:0:
269,104,35105,2,0,B|299:111|321:100|321:100|348:88|378:97,2,112.500004291535,2|8|2,0:0|0:0|0:0,0:0:0:0:
378,182,36139,6,0,P|437:157|463:106,1,112.500004291535,0|2,1:0|0:0,0:0:0:0:
460,229,36829,2,0,P|469:292|513:329,1,112.500004291535,8|2,0:0|0:0,0:0:0:0:
390,317,37518,5,0,0:0:0:0:
390,317,37863,2,0,B|360:308|333:320|333:320|311:331|281:324,2,112.500004291535,0|8|8,0:0|1:2|1:2,0:0:0:0:
284,232,38898,6,0,P|219:257|194:300,1,112.500004291535,0|0,1:0|0:0,0:0:0:0:
113,366,39587,2,0,P|112:310|80:265,1,112.500004291535,8|0,0:0|0:0,0:0:0:0:
29,240,40105,1,0,0:0:0:0:
9,175,40277,6,0,P|36:173|64:182,1,56.2500021457673,0|2,1:0|0:0,0:0:0:0:
119,177,40622,2,0,L|107:42,2,112.500004291535,0|8|0,0:0|0:0|0:0,0:0:0:0:
248,139,41656,6,0,P|248:111|238:85,1,56.2500021457673,0|2,1:0|0:0,0:0:0:0:
209,36,42001,2,0,P|256:74|338:46,2,112.500004291535,0|8|0,0:0|0:0|0:0,0:0:0:0:
341,5,43036,6,0,L|406:23,1,56.2500021457673,0|2,1:0|0:0,0:0:0:0:
448,38,43380,2,0,P|465:76|446:152,2,112.500004291535,0|8|0,0:0|0:0|0:0,0:0:0:0:
349,93,44415,5,0,0:0:0:0:
433,48,55449,6,0,P|444:88|436:122,1,75,2|0,0:0|0:0,0:0:0:0:
367,164,55794,2,0,P|444:161|498:213,1,150,2|2,0:0|0:0,0:0:0:0:
444,273,56312,1,0,0:0:0:0:
386,332,56484,2,0,P|341:318|307:308,1,75,2|0,0:0|0:0,0:0:0:0:
224,319,56829,6,0,P|205:286|186:254,1,75,2|0,0:0|0:0,0:0:0:0:
103,252,57174,2,0,P|176:231|195:141,1,150,2|2,1:2|0:0,0:0:0:0:
118,170,57691,2,0,P|60:182|38:205,1,75,2|0,1:2|0:0,0:0:0:0:
16,267,58036,1,2,0:0:0:0:
75,334,58208,6,0,P|111:340|147:330,1,75,0|0,0:0|0:0,0:0:0:0:
218,288,58553,2,0,B|303:266|282:320|366:295,1,150,2|2,1:2|1:2,0:0:0:0:
426,241,59070,1,0,0:0:0:0:
486,184,59243,2,0,P|474:144|464:98,1,75,2|0,1:2|0:0,0:0:0:0:
403,47,59587,6,0,P|394:83|383:119,1,75,0|0,1:0|0:0,0:0:0:0:
319,171,59932,2,0,P|299:138|278:108,1,75,0|0,1:0|0:0,0:0:0:0:
200,79,60277,2,0,P|168:99|138:122,1,75,0|0,1:0|0:0,0:0:0:0:
86,186,60622,2,0,P|48:181|11:175,1,75,0|0,1:0|0:0,0:0:0:0:
23,265,60967,6,0,P|48:294|56:331,1,75,0|0,1:0|0:0,0:0:0:0:
134,301,61312,2,0,P|211:298|265:350,1,150,0|0,1:0|1:0,0:0:0:0:
335,304,61829,1,0,0:0:0:0:
406,263,62001,2,0,P|401:225|399:189,1,75,0|0,1:0|0:0,0:0:0:0:
469,131,62346,6,0,P|439:106|402:99,1,75,0|0,1:0|1:0,0:0:0:0:
322,137,62691,2,0,B|237:115|258:169|176:144,1,150,0|0,1:0|1:0,0:0:0:0:
96,88,63208,1,0,1:0:0:0:
67,180,63380,1,0,1:0:0:0:
147,236,63553,1,0,0:0:0:0:
437,303,64070,5,2,0:0:0:0:
437,303,64415,1,0,0:0:0:0:
256,192,65105,12,0,66484,1:0:0:0:
288,293,66829,6,0,P|361:296|448:305,1,150,0|2,1:0|0:0,0:0:0:0:
474,221,67346,1,2,0:0:0:0:
415,153,67518,2,0,P|406:124|420:79,1,75,0|0,1:0|0:0,0:0:0:0:
310,49,67863,6,0,B|230:78|241:19|153:46,1,150,0|2,1:0|0:0,0:0:0:0:
105,111,68380,1,2,0:0:0:0:
193,129,68553,1,0,0:0:0:0:
131,194,68725,2,0,P|94:186|44:178,1,75,2|0,1:2|0:0,0:0:0:0:
7,255,69070,1,2,0:0:0:0:
101,317,69243,6,0,B|147:339|186:311|186:311|221:320|201:364,1,150,0|2,1:0|1:2,0:0:0:0:
362,274,69932,1,0,1:0:0:0:
313,350,70105,1,0,0:0:0:0:
269,271,70277,2,0,P|277:218|280:192,1,75,0|0,1:0|1:0,0:0:0:0:
363,121,70622,6,0,P|421:159|497:137,1,150,0|0,1:0|1:0,0:0:0:0:
437,70,71139,1,2,0:0:0:0:
352,36,71312,2,0,P|303:60|281:98,1,75,8|2,1:2|0:0,0:0:0:0:
225,136,71656,2,0,P|198:109|163:96,1,75,0|2,1:0|0:0,0:0:0:0:
68,156,72001,6,0,P|30:214|52:290,2,150,0|2|2,1:0|0:0|0:0,0:0:0:0:
133,217,72863,1,0,0:0:0:0:
202,274,73036,2,0,P|193:324|191:356,1,75,0|0,1:0|0:0,0:0:0:0:
303,335,73380,6,0,B|379:311|368:370|448:341,1,150,2|2,1:2|0:0,0:0:0:0:
492,262,73897,1,2,0:0:0:0:
433,193,74070,1,2,0:0:0:0:
348,224,74243,2,0,P|309:218|266:212,1,75,2|0,0:0|1:0,0:0:0:0:
193,253,74587,1,2,0:0:0:0:
165,144,74760,6,0,B|171:93|145:55|145:55|181:66|219:40,1,150,0|0,1:0|1:0,0:0:0:0:
377,19,75449,1,2,0:2:0:0:
287,4,75622,1,0,1:0:0:0:
324,85,75794,2,0,P|328:140|328:175,1,75,2|2,1:2|0:0,0:0:0:0:
403,244,76139,6,0,P|410:194|416:164,1,75,0|2,1:0|0:0,0:0:0:0:
501,143,76484,2,0,P|481:214|476:296,1,150,0|2,1:0|0:0,0:0:0:0:
395,331,77001,1,0,1:0:0:0:
312,366,77174,2,0,P|269:361|230:358,1,75,2|0,1:2|0:0,0:0:0:0:
174,266,77518,5,0,1:0:0:0:
174,266,77863,2,0,P|104:286|42:248,1,150,0|2,1:2|0:0,0:0:0:0:
35,158,78380,1,0,0:0:0:0:
110,108,78553,1,0,1:0:0:0:
116,197,78725,1,2,0:0:0:0:
211,136,78898,6,0,B|287:112|276:171|356:142,1,150,0|2,1:0|1:2,0:0:0:0:
420,78,79415,1,2,0:0:0:0:
503,111,79587,1,2,0:0:0:0:
509,201,79760,2,0,P|497:246|492:278,1,75,2|0,0:0|1:0,0:0:0:0:
494,364,80105,1,2,0:0:0:0:
386,334,80277,6,0,B|355:324|327:335|327:335|301:319|301:319|273:334|242:326,1,150,2|2,1:2|1:2,0:0:0:0:
75,259,80967,1,0,1:0:0:0:
157,223,81139,1,0,0:0:0:0:
163,313,81312,1,0,1:0:0:0:
81,349,81484,1,0,1:0:0:0:
0,271,81656,6,0,P|16:212|104:188,1,150,0|0,1:0|1:0,0:0:0:0:
168,132,82174,1,2,0:0:0:0:
240,78,82346,2,0,P|273:86|314:93,1,75,0|0,1:0|0:0,0:0:0:0:
399,121,82691,2,0,P|435:114|472:106,1,75,0|0,1:0|0:0,0:0:0:0:
466,217,83036,6,0,P|396:211|340:262,2,150,0|2|2,1:0|1:2|1:2,0:0:0:0:
512,296,83898,1,0,0:0:0:0:
452,363,84070,2,0,P|430:333|423:296,1,75,0|0,1:0|0:0,0:0:0:0:
323,349,84415,6,0,P|250:360|194:314,1,150,0|2,1:0|1:2,0:0:0:0:
274,273,84932,1,0,0:0:0:0:
199,222,85105,1,2,0:0:0:0:
274,173,85277,2,0,P|270:133|270:88,1,75,2|0,1:2|1:0,0:0:0:0:
288,9,85622,1,2,0:0:0:0:
378,76,85794,6,0,B|418:89|478:63|478:63|485:95|447:124,1,150,0|2,1:0|1:2,0:0:0:0:
355,249,86484,1,2,0:0:0:0:
370,159,86656,1,0,1:0:0:0:
442,213,86829,1,0,1:0:0:0:
428,302,87001,1,2,0:0:0:0:
342,375,87174,5,2,0:0:0:0:
180,297,87518,5,0,1:0:0:0:
268,275,87691,1,0,1:0:0:0:
202,107,88036,5,0,1:0:0:0:
113,100,88208,1,0,1:0:0:0:
23,94,88380,1,0,0:0:0:0:
86,188,88553,5,0,1:0:0:0:
86,188,88898,2,0,P|40:242|53:325,1,150,4|2,1:2|0:0,0:0:0:0:
125,270,89415,1,0,0:0:0:0:
204,227,89587,2,0,P|247:237|296:246,1,75,0|0,1:0|0:0,0:0:0:0:
389,181,89932,6,0,P|316:172|272:114,1,150,0|0,1:0|1:0,0:0:0:0:
360,94,90449,1,0,0:0:0:0:
445,122,90622,2,0,P|468:165|466:197,1,75,2|0,0:0|1:0,0:0:0:0:
412,260,90967,2,0,P|456:281|488:277,1,75,0|0,1:0|0:0,0:0:0:0:
372,347,91312,6,0,B|297:373|305:312|221:340,1,150,0|0,1:0|1:0,0:0:0:0:
142,369,91829,1,0,0:0:0:0:
108,285,92001,2,0,P|103:241|117:208,1,75,2|0,0:0|0:0,0:0:0:0:
56,143,92346,2,0,P|95:122|131:123,1,75,0|0,1:0|0:0,0:0:0:0:
235,188,92691,6,0,P|304:206|364:161,2,150,2|0|2,1:2|1:0|0:0,0:0:0:0:
202,103,93553,1,0,1:0:0:0:
277,53,93725,2,0,P|290:87|289:124,1,75,0|0,1:0|0:0,0:0:0:0:
208,26,94070,6,0,B|283:52|275:-9|359:19,2,150,0|0|0,1:0|1:0|0:0,0:0:0:0:
120,46,94932,1,0,1:0:0:0:
33,71,95105,2,0,P|44:122|47:150,1,75,0|0,1:0|0:0,0:0:0:0:
138,233,95449,6,0,P|127:284|124:312,1,75,0|0,1:0|0:0,0:0:0:0:
199,356,95794,2,0,B|274:382|266:321|350:349,1,150,0|0,1:0|0:0,0:0:0:0:
430,373,96312,1,0,1:0:0:0:
493,309,96484,2,0,P|501:266|488:229,1,75,0|0,1:0|0:0,0:0:0:0:
394,155,96829,6,0,P|385:191|393:227,1,75,0|0,1:0|1:0,0:0:0:0:
308,258,97174,2,0,P|249:214|179:232,1,150,0|0,1:0|0:0,0:0:0:0:
92,207,97691,1,2,1:2:0:0:
5,181,97863,2,0,P|20:137|27:105,1,75,0|2,1:0|0:0,0:0:0:0:
133,39,98208,5,0,1:0:0:0:
133,39,98553,2,0,P|173:47|216:55,1,75,0|0,1:0|0:0,0:0:0:0:
295,35,98898,2,0,P|314:70|336:106,1,75,2|0,0:0|1:0,0:0:0:0:
407,150,99243,2,0,P|396:191|389:234,1,75,2|0,1:2|0:0,0:0:0:0:
422,346,99587,5,0,1:0:0:0:
422,346,99932,2,0,P|368:300|285:313,1,150,4|2,1:2|0:0,0:0:0:0:
223,364,100449,1,0,1:0:0:0:
139,330,100622,2,0,P|97:335|56:337,1,75,0|0,1:0|0:0,0:0:0:0:
4,224,100967,6,0,B|81:197|73:258|148:232,1,150,0|0,1:0|1:0,0:0:0:0:
216,174,101484,1,0,0:0:0:0:
301,199,101656,2,0,P|305:163|292:128,1,75,0|0,0:0|1:0,0:0:0:0:
245,51,102001,2,0,P|279:38|323:42,1,75,0|0,1:0|0:0,0:0:0:0:
435,90,102346,6,0,P|404:156|431:224,1,150,2|0,1:2|1:0,0:0:0:0:
493,159,102863,1,0,0:0:0:0:
511,247,103036,2,0,P|485:287|461:300,1,75,0|0,0:0|1:0,0:0:0:0:
372,287,103380,2,0,P|334:285|301:300,1,75,0|2,1:0|0:0,0:0:0:0:
192,367,103725,6,0,P|138:321|55:334,2,150,2|0|2,1:2|1:0|0:0,0:0:0:0:
229,285,104587,1,0,1:0:0:0:
168,217,104760,2,0,P|145:246|144:306,1,75,0|0,1:0|0:0,0:0:0:0:
239,203,105105,6,0,B|164:229|172:168|88:196,2,150,2|0|2,0:0|1:0|0:0,0:0:0:0:
296,133,105967,1,0,1:0:0:0:
385,140,106139,2,0,P|379:103|360:71,1,75,2|0,1:2|0:0,0:0:0:0:
234,67,106484,6,0,P|214:98|209:135,1,75,2|2,1:2|0:0,0:0:0:0:
121,114,106829,2,0,P|88:52|6:32,1,150,2|0,1:2|0:0,0:0:0:0:
33,118,107346,1,0,1:0:0:0:
48,206,107518,2,0,P|38:248|33:283,1,75,0|0,1:0|0:0,0:0:0:0:
140,350,107863,6,0,P|138:312|133:275,1,75,0|0,1:0|0:0,0:0:0:0:
221,295,108208,2,0,B|296:321|288:260|372:288,1,150,0|2,1:0|0:0,0:0:0:0:
439,338,108725,1,0,1:0:0:0:
499,271,108898,2,0,P|503:227|488:191,1,75,0|2,1:0|0:0,0:0:0:0:
409,103,109243,6,0,B|353:118|310:78|310:78|271:96|297:136,1,150,2|0,0:0|1:0,0:0:0:0:
320,194,109760,1,0,1:0:0:0:
147,140,110105,5,0,1:0:0:0:
194,22,110277,1,0,1:0:0:0:
286,110,110449,1,0,1:0:0:0:
234,227,110622,1,0,0:0:0:0:
256,192,110708,12,0,114760,0:0:0:0:
