osu file format v14

[General]
AudioFilename: Whatever I do.mp3
AudioLeadIn: 0
PreviewTime: 87518
Countdown: 0
SampleSet: Soft
StackLeniency: 0.4
Mode: 0
LetterboxInBreaks: 0
WidescreenStoryboard: 0

[Editor]
Bookmarks: 22346,44415,55449,66484,77518,87518,88898,99587,99932,110622
DistanceSpacing: 1
BeatDivisor: 4
GridSize: 16
TimelineZoom: 1.2

[Metadata]
Title:Whatever I Do (feat. Kostja)
TitleUnicode:Whatever I Do (feat. Kóstja)
Artist:Cartoon
ArtistUnicode:Cartoon
Creator:SrSkyPlayer
Version:Darling
Source:
Tags:dnb drum and bass liquicity edm short ver. music eletronic cut. Giralda Harez wendao2000 wendao Tarrasky
BeatmapID:996641
BeatmapSetID:465545

[Difficulty]
HPDrainRate:7
CircleSize:4
OverallDifficulty:9
ApproachRate:9.2
SliderMultiplier:1.7
SliderTickRate:1

[Events]
//Background and Video events
0,0,"heya.jpg",0,0
//Break Periods
//Storyboard Layer 0 (Background)
//Storyboard Layer 1 (Fail)
//Storyboard Layer 2 (Pass)
//Storyboard Layer 3 (Foreground)
//Storyboard Sound Samples

[TimingPoints]
11312,344.827586206897,4,2,1,55,1,0
21311,-133.333333333333,4,2,1,55,0,0
27518,-133.333333333333,4,2,2,55,0,0
27605,-133.333333333333,4,2,1,55,0,0
33036,-133.333333333333,4,2,2,55,0,0
33122,-133.333333333333,4,2,1,55,0,0
38553,-133.333333333333,4,2,2,55,0,0
38639,-133.333333333333,4,2,1,55,0,0
39846,-133.333333333333,4,2,1,25,0,0
39932,-133.333333333333,4,2,1,55,0,0
43639,-133.333333333333,4,2,1,25,0,0
43725,-133.333333333333,4,2,1,55,0,0
44415,-200,4,2,1,55,0,0
55449,-142.857142857143,4,2,1,30,0,0
56053,-142.857142857143,4,2,1,10,0,0
56139,-142.857142857143,4,2,1,30,0,0
57174,-133.333333333333,4,2,1,30,0,0
57432,-133.333333333333,4,2,1,10,0,0
57518,-133.333333333333,4,2,1,30,0,0
58553,-125,4,2,1,30,0,0
58812,-125,4,2,1,10,0,0
58898,-125,4,2,1,30,0,0
60967,-100,4,2,1,35,0,0
61656,-100,4,2,1,40,0,0
62346,-100,4,2,1,45,0,0
62518,-100,4,2,1,50,0,0
62691,-100,4,2,1,55,0,0
62863,-100,4,2,1,55,0,0
63036,-100,4,2,1,60,0,0
63208,-100,4,2,1,65,0,0
63380,-100,4,2,1,70,0,0
63553,-100,4,2,1,75,0,0
66484,-100,4,2,1,75,0,0
69501,-100,4,2,1,35,0,0
69587,-100,4,2,1,75,0,0
69846,-100,4,2,1,35,0,0
69932,-100,4,2,1,75,0,0
70880,-100,4,2,1,35,0,0
70967,-100,4,2,1,75,0,0
75018,-100,4,2,1,35,0,0
75105,-100,4,2,1,75,0,0
75363,-100,4,2,1,35,0,0
75449,-100,4,2,1,75,0,0
80536,-100,4,2,1,35,0,0
80622,-100,4,2,1,75,0,0
80880,-100,4,2,1,35,0,0
80967,-100,4,2,1,75,0,0
81915,-100,4,2,1,35,0,0
82001,-100,4,2,1,75,0,0
86053,-100,4,2,1,35,0,0
86139,-100,4,2,1,75,0,0
86398,-100,4,2,1,35,0,0
86484,-100,4,2,1,75,0,0
88553,-133.333333333333,4,2,1,75,0,0
88812,-133.333333333333,4,2,1,35,0,0
88898,-100,4,2,1,75,0,1
90191,-100,4,2,1,35,0,1
90277,-100,4,2,1,75,0,1
91570,-100,4,2,1,35,0,1
91656,-100,4,2,1,75,0,1
96053,-100,4,2,1,35,0,1
96139,-100,4,2,1,75,0,1
97432,-100,4,2,1,35,0,1
97518,-100,4,2,1,75,0,1
99587,-133.333333333333,4,2,1,75,0,0
99846,-133.333333333333,4,2,1,35,0,0
99932,-100,4,2,1,75,0,1
101225,-100,4,2,1,35,0,1
101312,-100,4,2,1,75,0,1
102605,-100,4,2,1,35,0,1
102691,-100,4,2,1,75,0,1
107087,-100,4,2,1,35,0,1
107174,-100,4,2,1,75,0,1
108467,-100,4,2,1,35,0,1
108553,-100,4,2,1,75,0,1
109501,-100,4,2,1,35,0,1
109587,-100,4,2,1,75,0,1
110622,-100,4,2,1,40,0,0
112001,-100,4,2,1,20,0,0
113380,-100,4,2,1,15,0,0
114070,-100,4,2,1,5,0,0

[Colours]
Combo1 : 218,217,165
Combo2 : 0,128,192
Combo3 : 192,192,192

[HitObjects]
204,50,21312,5,2,0:0:0:0:
203,62,21656,1,2,0:0:0:0:
202,74,22001,1,0,0:0:0:0:
201,85,22346,6,0,B|268:72|255:117|332:96,1,127.500004863739,4|0,0:0|0:0,0:0:0:0:
466,228,23036,2,0,P|484:289|460:350,1,127.500004863739,8|0,0:0|0:0,0:0:0:0:
215,285,23725,6,0,P|197:224|221:163,1,127.500004863739,0|2,1:0|0:0,0:0:0:0:
359,296,24415,1,8,0:0:0:0:
360,308,24760,1,2,0:0:0:0:
357,320,25105,6,0,B|287:339|300:294|233:307,1,127.500004863739,0|2,1:0|0:0,0:0:0:0:
48,355,25794,2,0,P|109:345|144:293,1,127.500004863739,8|2,0:0|0:0,0:0:0:0:
105,41,26484,5,0,0:0:0:0:
93,46,26829,2,2,P|57:97|59:152,1,95.6250036478044,0|0,0:0|0:0,0:0:0:0:
65,146,27174,2,0,P|34:72|-11:57,1,127.500004863739,8|8,1:2|1:2,0:0:0:0:
247,92,27863,6,0,B|302:122|308:72|369:101,1,127.500004863739,0|0,1:0|0:0,0:0:0:0:
484,255,28553,2,0,P|502:316|478:377,1,127.500004863739,8|0,0:0|0:0,0:0:0:0:
267,231,29243,6,0,P|262:194|273:162,1,63.7500024318696,0|2,1:0|0:0,0:0:0:0:
333,291,29587,2,0,P|300:313|214:301,2,127.500004863739,0|8|2,0:0|0:0|0:0,0:0:0:0:
86,224,30622,6,0,P|54:218|24:226,1,63.7500024318696,0|2,1:0|0:0,0:0:0:0:
141,299,30967,2,0,L|135:167,2,127.500004863739,0|8|0,0:0|0:0|0:0,0:0:0:0:
327,125,32001,5,0,0:0:0:0:
337,118,32346,2,2,P|349:67|333:25,1,95.6250036478044,0|0,0:0|0:0,0:0:0:0:
315,33,32691,2,0,P|332:66|421:95,1,127.500004863739,8|8,1:2|1:2,0:0:0:0:
157,98,33380,6,0,L|163:232,1,127.500004863739,0|2,1:0|0:0,0:0:0:0:
320,336,34070,2,0,B|387:323|374:368|451:347,1,127.500004863739,8|2,0:0|0:0,0:0:0:0:
356,109,34760,6,0,P|320:160|322:223,1,127.500004863739,0|2,1:0|0:0,0:0:0:0:
427,63,35449,1,8,0:0:0:0:
418,51,35794,1,2,0:0:0:0:
406,46,36139,6,0,B|336:65|349:20|282:33,1,127.500004863739,0|2,1:0|0:0,0:0:0:0:
101,95,36829,2,0,P|163:89|199:36,1,127.500004863739,8|2,0:0|0:0,0:0:0:0:
43,242,37518,5,0,0:0:0:0:
34,252,37863,2,2,P|19:312|35:347,1,95.6250036478044,0|0,0:0|0:0,0:0:0:0:
51,337,38208,2,0,L|34:193,1,127.500004863739,8|8,1:2|1:2,0:0:0:0:
269,316,38898,6,0,B|331:295|329:345|392:317,1,127.500004863739,0|0,1:0|0:0,0:0:0:0:
462,139,39587,2,0,P|475:97|461:45,1,95.6250036478044,8|0,0:0|0:0,0:0:0:0:
443,42,39932,2,0,L|374:44,1,63.7500024318696,0|0,0:0|0:0,0:0:0:0:
307,187,40277,6,0,P|299:217|304:248,1,63.7500024318696,0|2,1:0|0:0,0:0:0:0:
399,349,40622,2,0,P|453:309|516:324,2,127.500004863739,0|8|0,0:0|0:0|0:0,0:0:0:0:
149,297,41656,6,0,P|117:302|91:319,1,63.7500024318696,0|2,1:0|0:0,0:0:0:0:
9,209,42001,2,0,P|63:170|68:105,2,127.500004863739,0|8|0,0:0|0:0|0:0,0:0:0:0:
189,27,43036,6,0,P|177:56|178:88,1,63.7500024318696,0|2,1:0|0:0,0:0:0:0:
307,135,43380,2,0,P|329:98|321:37,1,95.6250036478044,0|0,0:0|0:0,0:0:0:0:
309,35,43725,2,0,B|313:164,1,127.500004863739,8|0,0:0|0:0,0:0:0:0:
199,245,44415,6,0,B|408:175|338:342|518:363|561:182|432:85|298:174|379:326|379:326|365:347|369:372|369:372|299:314|226:341|226:341|175:354|106:330|76:257|93:195|137:167,1,1020,0|0,0:0|0:0,0:0:0:0:
290,24,49932,6,0,B|306:78|280:123|280:123|397:80|467:209|413:282|341:270|341:270|284:150|472:127|472:127|500:162|529:268|469:351|377:374|274:340,1,1020,0|0,0:0|0:0,0:0:0:0:
153,138,55449,5,2,0:0:0:0:
60,131,55622,1,0,0:0:0:0:
208,215,55794,2,0,P|249:210|313:201,1,89.2499972763062,2|0,0:0|0:0,0:0:0:0:
339,199,56139,2,0,P|326:249|321:278,1,59.4999981842042,2|0,0:0|0:0,0:0:0:0:
354,345,56484,1,2,0:0:0:0:
441,313,56656,1,0,0:0:0:0:
424,210,56829,5,2,0:0:0:0:
324,256,57001,1,0,0:0:0:0:
184,125,57174,2,0,P|176:66|199:25,1,95.6250036478044,2|0,1:2|0:0,0:0:0:0:
228,15,57518,1,2,0:0:0:0:
425,78,57691,2,0,P|433:119|419:153,1,63.7500024318696,2|0,1:2|0:0,0:0:0:0:
350,274,58036,1,2,0:0:0:0:
291,133,58208,5,0,0:0:0:0:
392,206,58380,1,0,0:0:0:0:
302,341,58553,2,0,B|251:366|253:318|193:342,1,102,2|0,1:2|0:0,0:0:0:0:
170,347,58898,2,0,P|127:359|88:345,1,68,2|0,1:2|0:0,0:0:0:0:
15,209,59243,1,2,1:2:0:0:
178,255,59415,1,0,0:0:0:0:
0,311,59587,5,0,1:0:0:0:
116,155,59760,1,0,0:0:0:0:
170,347,59932,1,0,1:0:0:0:
15,209,60105,1,0,0:0:0:0:
213,114,60277,1,0,1:0:0:0:
76,271,60449,1,0,0:0:0:0:
68,41,60622,1,0,1:0:0:0:
234,198,60794,1,0,0:0:0:0:
0,114,60967,5,0,1:0:0:0:
174,23,61139,1,0,0:0:0:0:
324,185,61312,2,0,P|316:222|308:278,1,85,0|0,1:0|0:0,0:0:0:0:
486,107,61656,2,0,P|481:63|479:22,1,85,0|0,1:0|0:0,0:0:0:0:
244,100,62001,1,0,1:0:0:0:
410,272,62174,1,0,0:0:0:0:
342,20,62346,5,0,1:0:0:0:
204,240,62518,1,0,1:0:0:0:
512,173,62691,1,0,1:0:0:0:
258,29,62863,1,0,1:0:0:0:
331,311,63036,5,0,1:0:0:0:
481,60,63208,1,0,1:0:0:0:
163,139,63380,1,0,1:0:0:0:
390,363,63553,1,0,0:0:0:0:
231,187,64070,5,2,0:0:0:0:
231,187,64415,1,0,0:0:0:0:
256,192,65105,12,0,66484,1:0:0:0:
231,187,66829,6,0,P|235:227|238:283,1,85,0|2,1:0|0:0,0:0:0:0:
45,215,67174,1,2,0:0:0:0:
185,108,67346,1,2,0:0:0:0:
78,301,67518,1,0,1:0:0:0:
18,138,67691,1,0,0:0:0:0:
190,303,67863,6,0,B|246:330|292:280|292:280|318:295|310:336,1,170,0|2,1:0|0:0,0:0:0:0:
475,281,68380,1,2,0:0:0:0:
304,193,68553,1,0,0:0:0:0:
397,367,68725,2,0,P|439:361|481:358,1,85,2|0,1:2|0:0,0:0:0:0:
311,329,69070,1,2,0:0:0:0:
491,200,69243,6,0,P|480:144|466:66,1,127.5,0|0,1:0|0:0,0:0:0:0:
362,16,69587,2,0,P|375:67|382:156,1,127.5,2|0,1:2|0:0,0:0:0:0:
338,234,69932,2,0,P|334:189|335:140,1,85,0|0,1:0|0:0,0:0:0:0:
126,108,70277,1,0,1:0:0:0:
252,260,70449,1,0,1:0:0:0:
288,39,70622,6,0,B|231:11|228:70|167:37,1,127.5,0|0,1:0|0:0,0:0:0:0:
94,43,70967,2,0,P|58:83|55:121,1,85,0|2,1:0|0:0,0:0:0:0:
104,292,71312,1,8,1:2:0:0:
223,139,71484,1,2,0:0:0:0:
10,205,71656,1,0,1:0:0:0:
156,352,71829,1,2,0:0:0:0:
346,219,72001,5,0,1:0:0:0:
346,219,72346,1,2,0:0:0:0:
435,367,72518,1,0,0:0:0:0:
268,261,72691,1,2,0:0:0:0:
419,181,72863,1,0,0:0:0:0:
290,357,73036,1,0,1:0:0:0:
276,152,73208,1,0,0:0:0:0:
497,203,73380,6,0,B|536:261|494:313|494:313|515:333|512:372,1,170,2|2,1:2|0:0,0:0:0:0:
358,292,73898,1,2,0:0:0:0:
511,194,74070,1,2,0:0:0:0:
435,367,74243,1,2,0:0:0:0:
363,179,74415,1,0,1:0:0:0:
510,288,74587,1,2,0:0:0:0:
227,354,74760,6,0,P|234:298|241:222,1,127.5,0|0,1:0|0:0,0:0:0:0:
136,143,75105,2,0,P|153:198|159:277,1,127.5,0|0,1:0|0:0,0:0:0:0:
121,361,75449,2,0,P|120:314|127:266,1,85,2|0,0:2|1:0,0:0:0:0:
211,78,75794,1,2,1:2:0:0:
63,186,75967,1,2,0:0:0:0:
290,124,76139,5,0,1:0:0:0:
97,46,76312,2,0,P|139:45|202:34,1,85,2|0,0:0|1:0,0:0:0:0:
336,8,76656,1,2,0:0:0:0:
358,260,76829,1,2,0:0:0:0:
290,124,77001,1,0,1:0:0:0:
335,335,77174,1,2,1:2:0:0:
406,97,77346,1,0,0:0:0:0:
140,159,77518,5,0,1:0:0:0:
140,159,77863,2,0,P|146:196|147:252,1,85,0|0,1:2|0:0,0:0:0:0:
0,125,78208,1,2,0:0:0:0:
70,286,78380,1,0,0:0:0:0:
133,80,78553,1,0,1:0:0:0:
8,202,78725,1,2,0:0:0:0:
222,255,78898,6,0,B|276:236|336:263|336:263|307:273|285:309,1,170,0|2,1:0|1:2,0:0:0:0:
219,148,79415,1,2,0:0:0:0:
399,233,79587,1,2,0:0:0:0:
219,336,79760,2,0,P|209:295|221:255,1,85,2|0,0:0|1:0,0:0:0:0:
337,130,80105,1,2,0:0:0:0:
219,336,80277,6,0,P|173:324|103:362,1,127.5,2|0,1:2|0:0,0:0:0:0:
239,363,80622,2,0,P|199:319|128:315,1,127.5,2|0,1:2|0:0,0:0:0:0:
85,223,80967,2,0,P|76:177|90:143,1,85,0|0,1:0|0:0,0:0:0:0:
316,100,81312,1,0,1:0:0:0:
167,240,81484,1,0,1:0:0:0:
120,33,81656,6,0,B|165:29|165:29|200:45|200:45|245:40,1,127.5,0|0,1:0|0:0,0:0:0:0:
314,27,82001,2,0,P|354:38|384:74,1,85,0|2,1:0|0:0,0:0:0:0:
281,242,82346,1,0,1:0:0:0:
243,40,82518,1,0,0:0:0:0:
397,221,82691,1,0,1:0:0:0:
227,133,82863,1,0,0:0:0:0:
457,70,83036,5,0,1:0:0:0:
457,70,83380,1,2,1:2:0:0:
397,221,83553,1,0,0:0:0:0:
344,24,83725,1,2,1:2:0:0:
428,147,83898,1,0,0:0:0:0:
220,70,84070,1,0,1:0:0:0:
415,0,84243,1,0,0:0:0:0:
255,157,84415,6,0,B|171:187|182:118|92:147,1,170,0|2,1:0|1:2,0:0:0:0:
222,251,84932,1,0,0:0:0:0:
149,61,85105,1,2,0:0:0:0:
84,258,85277,1,2,1:2:0:0:
255,157,85449,1,0,1:0:0:0:
66,71,85622,1,2,0:0:0:0:
312,235,85794,6,0,P|357:219|429:252,1,127.5,0|0,1:0|0:0,0:0:0:0:
294,264,86139,2,0,P|322:225|401:212,1,127.5,2|0,1:2|0:0,0:0:0:0:
495,182,86484,2,0,P|511:137|500:98,1,85,0|0,1:0|0:0,0:0:0:0:
277,43,86829,1,0,1:0:0:0:
439,137,87001,1,2,0:0:0:0:
229,183,87174,5,2,0:0:0:0:
229,183,87518,5,0,1:0:0:0:
14,140,87691,1,0,1:0:0:0:
221,324,87863,5,2,0:0:0:0:
165,91,88036,1,0,1:0:0:0:
116,369,88208,5,0,1:0:0:0:
324,271,88380,1,0,0:0:0:0:
14,140,88553,6,0,P|17:188|18:245,1,95.6250036478044,0|0,1:0|0:0,0:0:0:0:
21,263,88898,5,4,1:2:0:0:
140,178,89070,1,0,0:0:0:0:
96,330,89243,1,2,0:0:0:0:
232,183,89415,1,0,0:0:0:0:
14,140,89587,1,0,1:0:0:0:
177,259,89760,1,0,0:0:0:0:
117,36,89932,6,0,B|129:79|109:114|109:114|124:137|118:178,1,127.5,0|0,1:0|0:0,0:0:0:0:
189,181,90277,2,0,P|228:159|297:187,1,85,0|0,1:0|0:0,0:0:0:0:
409,311,90622,2,0,P|373:283|372:209,1,85,2|0,0:0|1:0,0:0:0:0:
394,53,90967,2,0,P|403:96|356:154,1,85,0|0,1:0|0:0,0:0:0:0:
490,341,91312,6,0,P|486:278|442:235,1,127.5,0|0,1:0|0:0,0:0:0:0:
370,236,91656,1,0,1:0:0:0:
477,366,91829,1,0,0:0:0:0:
466,136,92001,1,2,0:0:0:0:
409,311,92174,1,0,0:0:0:0:
496,107,92346,1,0,1:0:0:0:
303,244,92518,1,0,0:0:0:0:
215,10,92691,6,0,P|256:8|292:30,1,85,2|2,1:2|0:0,0:0:0:0:
409,255,93036,1,0,1:0:0:0:
435,60,93208,1,0,0:0:0:0:
221,175,93380,1,2,0:0:0:0:
369,343,93553,1,0,1:0:0:0:
236,106,93725,1,0,1:0:0:0:
156,321,93898,1,0,0:0:0:0:
0,120,94070,6,0,B|87:151|81:84|176:121,1,170,0|0,1:0|1:0,0:0:0:0:
287,167,94587,1,0,0:0:0:0:
183,45,94760,1,0,0:0:0:0:
127,205,94932,1,0,1:0:0:0:
325,88,95105,2,0,P|334:49|321:2,1,85,0|0,1:0|0:0,0:0:0:0:
389,232,95449,6,0,P|413:263|457:284,1,85,0|0,1:0|0:0,0:0:0:0:
275,341,95794,2,0,B|209:317|216:373|136:337,1,127.5,0|0,1:0|0:0,0:0:0:0:
82,320,96139,1,0,0:0:0:0:
182,155,96312,1,0,1:0:0:0:
353,301,96484,2,0,P|363:341|354:382,1,85,0|0,1:0|0:0,0:0:0:0:
476,188,96829,6,0,P|465:147|474:106,1,85,0|0,1:0|1:0,0:0:0:0:
270,100,97174,2,0,P|326:111|396:56,1,127.5,0|0,1:0|0:0,0:0:0:0:
393,5,97518,1,0,0:0:0:0:
193,89,97691,1,2,1:2:0:0:
399,196,97863,1,0,1:0:0:0:
308,13,98036,1,2,0:0:0:0:
211,229,98208,5,0,1:0:0:0:
211,229,98553,5,0,1:0:0:0:
384,76,98725,1,0,0:0:0:0:
121,152,98898,5,2,0:0:0:0:
298,308,99070,1,0,1:0:0:0:
167,51,99243,5,2,1:2:0:0:
74,268,99415,1,0,0:0:0:0:
398,321,99587,6,0,P|393:269|390:200,1,95.6250036478044,0|0,1:0|0:0,0:0:0:0:
397,199,99932,5,4,1:2:0:0:
473,326,100105,1,0,0:0:0:0:
501,161,100277,1,2,0:0:0:0:
314,249,100449,1,0,1:0:0:0:
512,149,100622,1,0,1:0:0:0:
398,321,100794,1,0,0:0:0:0:
280,112,100967,6,0,B|211:89|224:143|142:107,1,127.5,0|0,1:0|0:0,0:0:0:0:
92,78,101312,2,0,P|76:45|98:-12,1,85,0|0,1:0|0:0,0:0:0:0:
24,172,101656,2,0,P|40:205|18:262,1,85,0|0,0:0|1:0,0:0:0:0:
203,350,102001,2,0,P|215:315|271:291,1,85,0|0,1:0|0:0,0:0:0:0:
466,342,102346,6,0,P|403:344|356:303,1,127.5,2|0,1:2|0:0,0:0:0:0:
339,233,102691,1,0,1:0:0:0:
511,270,102863,1,0,0:0:0:0:
308,362,103036,1,0,0:0:0:0:
421,204,103208,1,0,1:0:0:0:
292,377,103380,1,0,1:0:0:0:
266,141,103553,1,2,0:0:0:0:
56,293,103725,6,0,P|59:340|59:382,1,85,2|2,1:2|0:0,0:0:0:0:
276,220,104070,1,0,1:0:0:0:
146,364,104243,1,0,0:0:0:0:
124,124,104415,1,2,0:0:0:0:
240,322,104587,1,0,1:0:0:0:
17,197,104760,1,0,1:0:0:0:
207,65,104932,1,0,0:0:0:0:
421,204,105105,6,0,B|429:243|410:271|410:271|426:304|426:304|411:330|420:371,1,170,2|0,0:0|1:0,0:0:0:0:
498,267,105622,1,0,0:0:0:0:
332,327,105794,1,2,0:0:0:0:
512,360,105967,1,0,1:0:0:0:
338,220,106139,2,0,P|339:178|367:140,1,85,2|0,1:2|0:0,0:0:0:0:
185,14,106484,6,0,P|213:43|221:91,1,85,2|2,1:2|0:0,0:0:0:0:
193,288,106829,2,0,B|127:264|134:320|54:284,1,127.5,2|0,1:2|0:0,0:0:0:0:
2,262,107174,1,0,0:0:0:0:
156,157,107346,1,0,1:0:0:0:
83,381,107518,2,0,P|35:372|-18:365,1,85,0|0,1:0|0:0,0:0:0:0:
0,140,107863,6,0,P|42:133|83:125,1,85,0|0,1:0|0:0,0:0:0:0:
271,181,108208,2,0,P|215:192|145:137,1,127.5,0|0,1:0|0:0,0:0:0:0:
148,86,108552,1,2,0:0:0:0:
359,186,108725,1,0,1:0:0:0:
156,283,108898,1,0,1:0:0:0:
230,90,109070,1,2,0:0:0:0:
353,279,109243,5,2,0:0:0:0:
353,279,109587,5,0,1:0:0:0:
156,157,109760,1,0,1:0:0:0:
156,157,110105,5,0,1:0:0:0:
391,109,110278,1,0,1:0:0:0:
322,380,110449,5,0,1:0:0:0:
228,167,110622,1,0,0:0:0:0:
256,192,110708,12,0,114760,0:0:0:0:
