osu file format v14

[General]
AudioFilename: Cartoon - Whatever I do (feat. Kostja).mp3
AudioLeadIn: 0
PreviewTime: 87519
Countdown: 0
SampleSet: Normal
StackLeniency: 0.7
Mode: 1
LetterboxInBreaks: 0
WidescreenStoryboard: 1

[Editor]
DistanceSpacing: 1
BeatDivisor: 4
GridSize: 32
TimelineZoom: 3.199999

[Metadata]
Title:Whatever I Do (feat. Kostja)
TitleUnicode:Whatever I Do (feat. Kóstja)
Artist:Cartoon
ArtistUnicode:Cartoon
Creator:Skull Kid
Version:Oni
Source:
Tags:dnb drum and bass
BeatmapID:1175132
BeatmapSetID:555196

[Difficulty]
HPDrainRate:5
CircleSize:4
OverallDifficulty:6
ApproachRate:9
SliderMultiplier:1.4
SliderTickRate:1

[Events]
//Background and Video events
0,0,"BG.jpg",0,0
//Break Periods
2,44615,54850
//Storyboard Layer 0 (Background)
//Storyboard Layer 1 (Fail)
//Storyboard Layer 2 (Pass)
//Storyboard Layer 3 (Foreground)
//Storyboard Sound Samples

[TimingPoints]
278,344.827586206897,4,1,0,40,1,0
278,-125,4,1,0,40,0,0
795,-125,4,1,0,5,0,0
5450,-125,4,1,0,40,0,0
6312,-125,4,1,0,5,0,0
6829,-125,4,1,0,40,0,0
7691,-125,4,1,0,5,0,0
8209,-125,4,1,0,40,0,0
8438,-123.456790123457,4,1,0,40,0,0
8496,-121.951219512195,4,1,0,40,0,0
8553,-120.481927710843,4,1,0,40,0,0
9071,-119.047619047619,4,1,0,5,0,0
9933,-116.279069767442,4,1,0,5,0,0
10622,-113.636363636364,4,1,0,5,0,0
11140,-111.111111111111,4,1,0,50,0,0
11829,-111.111111111111,4,1,0,5,0,0
16484,-111.111111111111,4,1,0,50,0,0
17346,-111.111111111111,4,1,0,15,0,0
17864,-111.111111111111,4,1,0,50,0,0
18726,-111.111111111111,4,1,0,25,0,0
19243,-111.111111111111,4,1,0,50,0,0
19933,-109.89010989011,4,1,0,30,0,0
20795,-108.695652173913,4,1,0,40,0,0
21140,-106.382978723404,4,1,0,50,0,0
21657,-104.166666666667,4,1,0,50,0,0
22002,-102.040816326531,4,1,0,50,0,0
22174,-100,4,1,0,60,0,0
55278,-100,4,1,0,65,0,0
60881,-100,4,1,0,70,0,0
61140,-98.0392156862745,4,1,0,70,0,0
61312,-96.1538461538461,4,1,0,70,0,0
61484,-94.3396226415094,4,1,0,70,0,0
61657,-92.5925925925926,4,1,0,70,0,0
61829,-90.9090909090909,4,1,0,70,0,0
62002,-89.2857142857143,4,1,0,70,0,0
62174,-87.719298245614,4,1,0,70,0,0
62346,-86.2068965517241,4,1,0,70,0,0
62519,-84.7457627118644,4,1,0,70,0,0
62691,-83.3333333333333,4,1,0,70,0,0
62864,-81.9672131147541,4,1,0,70,0,0
63036,-80.6451612903226,4,1,0,70,0,0
63209,-79.3650793650794,4,1,0,70,0,0
63381,-78.125,4,1,0,70,0,0
63553,-76.9230769230769,4,1,0,70,0,0
63726,-100,4,1,0,40,0,0
64933,-100,4,1,0,5,0,0
66398,-100,4,1,0,40,0,0
66657,-100,4,1,0,80,0,0
66829,-95.2380952380952,4,1,0,80,0,1
77519,-95.2380952380952,4,1,0,80,0,0
77864,-95.2380952380952,4,1,0,80,0,1
87174,-95.2380952380952,4,1,0,80,0,0
88898,-95.2380952380952,4,1,0,80,0,1
99588,-95.2380952380952,4,1,0,80,0,0
99933,-95.2380952380952,4,1,0,80,0,1
109243,-95.2380952380952,4,1,0,80,0,0

[HitObjects]
256,192,278,5,8,0:0:0:0:
256,192,967,1,0,0:0:0:0:
256,192,1657,1,0,0:0:0:0:
256,192,2346,1,0,0:0:0:0:
256,192,3036,1,0,0:0:0:0:
256,192,3726,1,0,0:0:0:0:
256,192,4415,1,0,0:0:0:0:
256,192,5105,1,0,0:0:0:0:
256,192,5622,1,0,0:0:0:0:
256,192,5680,1,0,0:0:0:0:
256,192,5737,1,0,0:0:0:0:
256,192,5795,1,8,0:0:0:0:
256,192,6484,1,0,0:0:0:0:
256,192,7002,1,8,0:0:0:0:
256,192,7174,1,0,0:0:0:0:
256,192,7864,1,0,0:0:0:0:
256,192,8381,1,8,0:0:0:0:
256,192,8438,1,8,0:0:0:0:
256,192,8496,1,8,0:0:0:0:
256,192,8553,1,0,0:0:0:0:
256,192,9243,1,0,0:0:0:0:
256,192,9933,1,0,0:0:0:0:
256,192,10622,1,0,0:0:0:0:
256,192,11312,1,8,0:0:0:0:
256,192,12002,1,0,0:0:0:0:
256,192,12691,1,0,0:0:0:0:
256,192,13381,1,0,0:0:0:0:
256,192,14071,1,0,0:0:0:0:
256,192,14760,1,0,0:0:0:0:
256,192,15450,1,0,0:0:0:0:
256,192,16140,1,0,0:0:0:0:
256,192,16657,1,0,0:0:0:0:
256,192,16714,1,0,0:0:0:0:
256,192,16772,1,0,0:0:0:0:
256,192,16829,1,8,0:0:0:0:
256,192,17519,1,0,0:0:0:0:
256,192,18036,1,8,0:0:0:0:
256,192,18209,1,0,0:0:0:0:
256,192,18898,1,0,0:0:0:0:
256,192,19415,1,8,0:0:0:0:
256,192,19473,1,8,0:0:0:0:
256,192,19530,1,8,0:0:0:0:
256,192,19588,1,0,0:0:0:0:
256,192,20278,1,0,0:0:0:0:
256,192,20967,1,0,0:0:0:0:
256,192,21312,1,8,0:0:0:0:
256,192,21657,1,8,0:0:0:0:
256,192,22002,1,8,0:0:0:0:
256,192,22346,1,4,0:0:0:0:
256,192,23036,1,8,0:0:0:0:
256,192,23553,1,0,0:0:0:0:
256,192,23726,1,0,0:0:0:0:
256,192,24071,1,0,0:0:0:0:
256,192,24415,1,8,0:0:0:0:
256,192,24760,1,8,0:0:0:0:
256,192,24933,1,8,0:0:0:0:
256,192,25105,1,0,0:0:0:0:
256,192,25450,1,0,0:0:0:0:
256,192,25795,1,8,0:0:0:0:
256,192,26140,1,8,0:0:0:0:
256,192,26484,1,0,0:0:0:0:
256,192,27059,1,0,0:0:0:0:
256,192,27117,1,0,0:0:0:0:
256,192,27174,1,8,0:0:0:0:
256,192,27519,1,8,0:0:0:0:
256,192,27864,1,0,0:0:0:0:
256,192,28553,1,8,0:0:0:0:
256,192,29243,1,0,0:0:0:0:
256,192,29415,1,8,0:0:0:0:
256,192,29588,1,0,0:0:0:0:
256,192,29933,1,8,0:0:0:0:
256,192,30278,1,8,0:0:0:0:
256,192,30622,1,0,0:0:0:0:
256,192,30795,1,0,0:0:0:0:
256,192,30967,1,8,0:0:0:0:
256,192,31312,1,8,0:0:0:0:
256,192,31657,1,0,0:0:0:0:
256,192,32002,1,0,0:0:0:0:
256,192,32576,1,0,0:0:0:0:
256,192,32634,1,0,0:0:0:0:
256,192,32691,1,8,0:0:0:0:
256,192,33036,1,8,0:0:0:0:
256,192,33381,1,4,0:0:0:0:
256,192,34071,1,8,0:0:0:0:
256,192,34588,1,0,0:0:0:0:
256,192,34760,1,0,0:0:0:0:
256,192,35105,1,0,0:0:0:0:
256,192,35450,1,8,0:0:0:0:
256,192,35795,1,8,0:0:0:0:
256,192,35967,1,8,0:0:0:0:
256,192,36140,1,0,0:0:0:0:
256,192,36484,1,0,0:0:0:0:
256,192,36829,1,8,0:0:0:0:
256,192,37174,1,8,0:0:0:0:
256,192,37519,1,0,0:0:0:0:
256,192,38094,1,0,0:0:0:0:
256,192,38151,1,0,0:0:0:0:
256,192,38209,1,8,0:0:0:0:
256,192,38553,1,8,0:0:0:0:
256,192,38898,1,0,0:0:0:0:
256,192,39588,1,8,0:0:0:0:
256,192,39933,1,0,0:0:0:0:
256,192,40105,1,0,0:0:0:0:
256,192,40278,1,8,0:0:0:0:
256,192,40450,1,8,0:0:0:0:
256,192,40622,1,0,0:0:0:0:
256,192,40967,1,8,0:0:0:0:
256,192,41312,1,0,0:0:0:0:
256,192,41657,1,8,0:0:0:0:
256,192,41829,1,8,0:0:0:0:
256,192,42002,1,0,0:0:0:0:
256,192,42346,1,8,0:0:0:0:
256,192,43036,1,0,0:0:0:0:
256,192,43209,1,0,0:0:0:0:
256,192,43381,1,0,0:0:0:0:
256,192,43726,1,8,0:0:0:0:
256,192,44415,1,4,0:0:0:0:
256,192,55450,5,0,0:0:0:0:
256,192,55795,1,8,0:0:0:0:
256,192,56140,1,8,0:0:0:0:
256,192,56829,1,0,0:0:0:0:
256,192,57174,1,8,0:0:0:0:
256,192,57346,1,0,0:0:0:0:
256,192,57519,1,8,0:0:0:0:
256,192,57691,1,8,0:0:0:0:
256,192,57864,1,0,0:0:0:0:
256,192,58036,1,8,0:0:0:0:
256,192,58381,1,0,0:0:0:0:
256,192,58553,1,8,0:0:0:0:
256,192,58898,1,8,0:0:0:0:
256,192,59243,1,0,0:0:0:0:
256,192,59415,1,8,0:0:0:0:
256,192,59588,1,0,0:0:0:0:
256,192,59933,1,0,0:0:0:0:
256,192,60105,1,0,0:0:0:0:
256,192,60278,1,8,0:0:0:0:
256,192,60450,1,0,0:0:0:0:
256,192,60622,1,8,0:0:0:0:
256,192,60795,1,8,0:0:0:0:
256,192,60967,1,0,0:0:0:0:
256,192,61140,1,0,0:0:0:0:
256,192,61312,1,8,0:0:0:0:
256,192,61484,1,0,0:0:0:0:
256,192,61657,1,0,0:0:0:0:
256,192,61829,1,0,0:0:0:0:
256,192,62002,1,8,0:0:0:0:
256,192,62174,1,8,0:0:0:0:
256,192,62346,1,0,0:0:0:0:
256,192,62519,1,0,0:0:0:0:
256,192,62691,1,8,0:0:0:0:
256,192,62864,1,0,0:0:0:0:
256,192,63036,1,8,0:0:0:0:
256,192,63209,1,8,0:0:0:0:
256,192,63381,1,8,0:0:0:0:
256,192,63553,1,0,0:0:0:0:
256,192,64071,1,8,0:0:0:0:
256,192,64415,1,8,0:0:0:0:
256,192,65105,12,8,66312,0:0:0:0:
256,192,66484,5,0,0:0:0:0:
256,192,66829,1,12,0:0:0:0:
256,192,67002,1,0,0:0:0:0:
256,192,67174,1,8,0:0:0:0:
256,192,67346,1,8,0:0:0:0:
256,192,67433,1,8,0:0:0:0:
256,192,67519,1,0,0:0:0:0:
256,192,67691,1,8,0:0:0:0:
256,192,67864,1,0,0:0:0:0:
256,192,68036,1,0,0:0:0:0:
256,192,68209,1,8,0:0:0:0:
256,192,68381,1,0,0:0:0:0:
256,192,68467,1,0,0:0:0:0:
256,192,68553,1,8,0:0:0:0:
256,192,68640,1,8,0:0:0:0:
256,192,68726,1,0,0:0:0:0:
256,192,68898,1,0,0:0:0:0:
256,192,69071,1,8,0:0:0:0:
256,192,69243,1,0,0:0:0:0:
256,192,69415,1,8,0:0:0:0:
256,192,69502,1,8,0:0:0:0:
256,192,69588,1,0,0:0:0:0:
256,192,69760,1,0,0:0:0:0:
256,192,69933,1,8,0:0:0:0:
256,192,70105,1,0,0:0:0:0:
256,192,70191,1,0,0:0:0:0:
256,192,70278,1,8,0:0:0:0:
256,192,70364,1,0,0:0:0:0:
256,192,70450,1,8,0:0:0:0:
256,192,70536,1,8,0:0:0:0:
256,192,70622,1,0,0:0:0:0:
256,192,70795,1,8,0:0:0:0:
256,192,70967,1,0,0:0:0:0:
256,192,71140,1,8,0:0:0:0:
256,192,71226,1,8,0:0:0:0:
256,192,71312,1,8,0:0:0:0:
256,192,71484,1,0,0:0:0:0:
256,192,71657,1,8,0:0:0:0:
256,192,71743,1,8,0:0:0:0:
256,192,71829,1,8,0:0:0:0:
256,192,71915,1,8,0:0:0:0:
256,192,72002,1,0,0:0:0:0:
256,192,72346,1,8,0:0:0:0:
256,192,72519,1,0,0:0:0:0:
256,192,72691,1,8,0:0:0:0:
256,192,72864,1,8,0:0:0:0:
256,192,72950,1,8,0:0:0:0:
256,192,73036,1,0,0:0:0:0:
256,192,73209,1,8,0:0:0:0:
256,192,73381,1,0,0:0:0:0:
256,192,73553,1,0,0:0:0:0:
256,192,73726,1,8,0:0:0:0:
256,192,73898,1,0,0:0:0:0:
256,192,73984,1,0,0:0:0:0:
256,192,74071,1,8,0:0:0:0:
256,192,74157,1,8,0:0:0:0:
256,192,74243,1,0,0:0:0:0:
256,192,74415,1,0,0:0:0:0:
256,192,74588,1,8,0:0:0:0:
256,192,74760,1,0,0:0:0:0:
256,192,74933,1,8,0:0:0:0:
256,192,75019,1,0,0:0:0:0:
256,192,75105,1,8,0:0:0:0:
256,192,75278,1,0,0:0:0:0:
256,192,75450,1,8,0:0:0:0:
256,192,75622,1,0,0:0:0:0:
256,192,75709,1,0,0:0:0:0:
256,192,75795,1,0,0:0:0:0:
256,192,75967,1,8,0:0:0:0:
256,192,76140,1,0,0:0:0:0:
256,192,76312,1,8,0:0:0:0:
256,192,76398,1,8,0:0:0:0:
256,192,76484,1,0,0:0:0:0:
256,192,76657,1,0,0:0:0:0:
256,192,76829,1,8,0:0:0:0:
256,192,76915,1,8,0:0:0:0:
256,192,77002,1,0,0:0:0:0:
256,192,77088,1,0,0:0:0:0:
256,192,77174,1,8,0:0:0:0:
256,192,77346,1,8,0:0:0:0:
256,192,77519,1,0,0:0:0:0:
256,192,77864,1,12,0:0:0:0:
256,192,78036,1,0,0:0:0:0:
256,192,78209,1,8,0:0:0:0:
256,192,78381,1,8,0:0:0:0:
256,192,78467,1,8,0:0:0:0:
256,192,78553,1,0,0:0:0:0:
256,192,78726,1,8,0:0:0:0:
256,192,78898,1,0,0:0:0:0:
256,192,79071,1,0,0:0:0:0:
256,192,79243,1,8,0:0:0:0:
256,192,79415,1,0,0:0:0:0:
256,192,79502,1,0,0:0:0:0:
256,192,79588,1,8,0:0:0:0:
256,192,79674,1,8,0:0:0:0:
256,192,79760,1,0,0:0:0:0:
256,192,79933,1,0,0:0:0:0:
256,192,80105,1,8,0:0:0:0:
256,192,80278,1,0,0:0:0:0:
256,192,80450,1,8,0:0:0:0:
256,192,80536,1,8,0:0:0:0:
256,192,80622,1,0,0:0:0:0:
256,192,80795,1,0,0:0:0:0:
256,192,80967,1,8,0:0:0:0:
256,192,81140,1,0,0:0:0:0:
256,192,81226,1,0,0:0:0:0:
256,192,81312,1,8,0:0:0:0:
256,192,81398,1,0,0:0:0:0:
256,192,81484,1,8,0:0:0:0:
256,192,81571,1,8,0:0:0:0:
256,192,81657,1,0,0:0:0:0:
256,192,81829,1,8,0:0:0:0:
256,192,82002,1,0,0:0:0:0:
256,192,82174,1,8,0:0:0:0:
256,192,82260,1,8,0:0:0:0:
256,192,82346,1,8,0:0:0:0:
256,192,82519,1,0,0:0:0:0:
256,192,82691,1,8,0:0:0:0:
256,192,82778,1,8,0:0:0:0:
256,192,82864,1,8,0:0:0:0:
256,192,82950,1,8,0:0:0:0:
256,192,83036,1,0,0:0:0:0:
256,192,83381,1,8,0:0:0:0:
256,192,83553,1,0,0:0:0:0:
256,192,83726,1,8,0:0:0:0:
256,192,83898,1,8,0:0:0:0:
256,192,83984,1,8,0:0:0:0:
256,192,84071,1,0,0:0:0:0:
256,192,84243,1,8,0:0:0:0:
256,192,84415,1,0,0:0:0:0:
256,192,84588,1,0,0:0:0:0:
256,192,84760,1,8,0:0:0:0:
256,192,84933,1,0,0:0:0:0:
256,192,85019,1,0,0:0:0:0:
256,192,85105,1,8,0:0:0:0:
256,192,85191,1,8,0:0:0:0:
256,192,85278,1,0,0:0:0:0:
256,192,85450,1,0,0:0:0:0:
256,192,85622,1,8,0:0:0:0:
256,192,85795,1,0,0:0:0:0:
256,192,85967,1,8,0:0:0:0:
256,192,86053,1,0,0:0:0:0:
256,192,86140,1,8,0:0:0:0:
256,192,86312,1,0,0:0:0:0:
256,192,86484,1,8,0:0:0:0:
256,192,86657,1,0,0:0:0:0:
256,192,86743,1,0,0:0:0:0:
256,192,86829,1,0,0:0:0:0:
256,192,87002,1,8,0:0:0:0:
256,192,87174,1,0,0:0:0:0:
256,192,87519,1,8,0:0:0:0:
256,192,87691,1,0,0:0:0:0:
256,192,88036,1,8,0:0:0:0:
256,192,88209,1,0,0:0:0:0:
256,192,88381,1,8,0:0:0:0:
256,192,88553,1,0,0:0:0:0:
256,192,88898,1,12,0:0:0:0:
256,192,89071,1,0,0:0:0:0:
256,192,89243,1,0,0:0:0:0:
256,192,89415,1,8,0:0:0:0:
256,192,89502,1,8,0:0:0:0:
256,192,89588,1,0,0:0:0:0:
256,192,89760,1,8,0:0:0:0:
256,192,89933,1,0,0:0:0:0:
256,192,90105,1,8,0:0:0:0:
256,192,90191,1,0,0:0:0:0:
256,192,90278,1,8,0:0:0:0:
256,192,90450,1,0,0:0:0:0:
256,192,90536,1,0,0:0:0:0:
256,192,90622,1,8,0:0:0:0:
256,192,90709,1,0,0:0:0:0:
256,192,90795,1,8,0:0:0:0:
256,192,90881,1,8,0:0:0:0:
256,192,90967,1,0,0:0:0:0:
256,192,91140,1,8,0:0:0:0:
256,192,91312,1,0,0:0:0:0:
256,192,91398,1,0,0:0:0:0:
256,192,91484,1,8,0:0:0:0:
256,192,91571,1,8,0:0:0:0:
256,192,91657,1,0,0:0:0:0:
256,192,91829,1,8,0:0:0:0:
256,192,92002,1,0,0:0:0:0:
256,192,92174,1,8,0:0:0:0:
256,192,92260,1,0,0:0:0:0:
256,192,92346,1,8,0:0:0:0:
256,192,92519,1,0,0:0:0:0:
256,192,92605,1,0,0:0:0:0:
256,192,92691,1,8,0:0:0:0:
256,192,92778,1,0,0:0:0:0:
256,192,92864,1,8,0:0:0:0:
256,192,92950,1,8,0:0:0:0:
256,192,93036,1,0,0:0:0:0:
256,192,93209,1,8,0:0:0:0:
256,192,93381,1,0,0:0:0:0:
256,192,93553,1,0,0:0:0:0:
256,192,93640,1,0,0:0:0:0:
256,192,93726,1,8,0:0:0:0:
256,192,93898,1,8,0:0:0:0:
256,192,94071,1,0,0:0:0:0:
256,192,94415,1,8,0:0:0:0:
256,192,94588,1,0,0:0:0:0:
256,192,94760,1,0,0:0:0:0:
256,192,94933,1,8,0:0:0:0:
256,192,95019,1,8,0:0:0:0:
256,192,95105,1,0,0:0:0:0:
256,192,95278,1,0,0:0:0:0:
256,192,95450,1,8,0:0:0:0:
256,192,95622,1,0,0:0:0:0:
256,192,95709,1,0,0:0:0:0:
256,192,95795,1,0,0:0:0:0:
256,192,95967,1,8,0:0:0:0:
256,192,96140,1,0,0:0:0:0:
256,192,96312,1,8,0:0:0:0:
256,192,96398,1,8,0:0:0:0:
256,192,96484,1,0,0:0:0:0:
256,192,96657,1,0,0:0:0:0:
256,192,96829,1,8,0:0:0:0:
256,192,97002,1,0,0:0:0:0:
256,192,97088,1,0,0:0:0:0:
256,192,97174,1,0,0:0:0:0:
256,192,97260,1,0,0:0:0:0:
256,192,97346,1,8,0:0:0:0:
256,192,97519,1,0,0:0:0:0:
256,192,97691,1,8,0:0:0:0:
256,192,97778,1,8,0:0:0:0:
256,192,97864,1,0,0:0:0:0:
256,192,98036,1,0,0:0:0:0:
256,192,98209,1,8,0:0:0:0:
256,192,98295,1,8,0:0:0:0:
256,192,98381,1,0,0:0:0:0:
256,192,98467,1,0,0:0:0:0:
256,192,98553,1,8,0:0:0:0:
256,192,98726,1,8,0:0:0:0:
256,192,98898,1,0,0:0:0:0:
256,192,99071,1,8,0:0:0:0:
256,192,99157,1,8,0:0:0:0:
256,192,99243,1,0,0:0:0:0:
256,192,99415,1,8,0:0:0:0:
256,192,99588,1,0,0:0:0:0:
256,192,99933,1,12,0:0:0:0:
256,192,100105,1,0,0:0:0:0:
256,192,100278,1,0,0:0:0:0:
256,192,100450,1,8,0:0:0:0:
256,192,100536,1,8,0:0:0:0:
256,192,100622,1,0,0:0:0:0:
256,192,100795,1,8,0:0:0:0:
256,192,100967,1,0,0:0:0:0:
256,192,101140,1,8,0:0:0:0:
256,192,101226,1,0,0:0:0:0:
256,192,101312,1,8,0:0:0:0:
256,192,101484,1,0,0:0:0:0:
256,192,101571,1,0,0:0:0:0:
256,192,101657,1,8,0:0:0:0:
256,192,101743,1,0,0:0:0:0:
256,192,101829,1,8,0:0:0:0:
256,192,101915,1,8,0:0:0:0:
256,192,102002,1,0,0:0:0:0:
256,192,102174,1,8,0:0:0:0:
256,192,102346,1,0,0:0:0:0:
256,192,102433,1,0,0:0:0:0:
256,192,102519,1,8,0:0:0:0:
256,192,102605,1,8,0:0:0:0:
256,192,102691,1,0,0:0:0:0:
256,192,102864,1,8,0:0:0:0:
256,192,103036,1,0,0:0:0:0:
256,192,103209,1,8,0:0:0:0:
256,192,103295,1,0,0:0:0:0:
256,192,103381,1,8,0:0:0:0:
256,192,103553,1,0,0:0:0:0:
256,192,103640,1,0,0:0:0:0:
256,192,103726,1,8,0:0:0:0:
256,192,103812,1,0,0:0:0:0:
256,192,103898,1,8,0:0:0:0:
256,192,103984,1,8,0:0:0:0:
256,192,104071,1,0,0:0:0:0:
256,192,104243,1,8,0:0:0:0:
256,192,104415,1,0,0:0:0:0:
256,192,104588,1,0,0:0:0:0:
256,192,104674,1,0,0:0:0:0:
256,192,104760,1,8,0:0:0:0:
256,192,104933,1,8,0:0:0:0:
256,192,105105,1,0,0:0:0:0:
256,192,105450,1,8,0:0:0:0:
256,192,105622,1,0,0:0:0:0:
256,192,105795,1,0,0:0:0:0:
256,192,105967,1,8,0:0:0:0:
256,192,106053,1,8,0:0:0:0:
256,192,106140,1,0,0:0:0:0:
256,192,106312,1,0,0:0:0:0:
256,192,106484,1,8,0:0:0:0:
256,192,106657,1,0,0:0:0:0:
256,192,106743,1,0,0:0:0:0:
256,192,106829,1,0,0:0:0:0:
256,192,107002,1,8,0:0:0:0:
256,192,107174,1,0,0:0:0:0:
256,192,107346,1,8,0:0:0:0:
256,192,107433,1,8,0:0:0:0:
256,192,107519,1,0,0:0:0:0:
256,192,107691,1,0,0:0:0:0:
256,192,107864,1,8,0:0:0:0:
256,192,108036,1,0,0:0:0:0:
256,192,108122,1,0,0:0:0:0:
256,192,108209,1,0,0:0:0:0:
256,192,108295,1,0,0:0:0:0:
256,192,108381,1,8,0:0:0:0:
256,192,108553,1,0,0:0:0:0:
256,192,108726,1,8,0:0:0:0:
256,192,108812,1,8,0:0:0:0:
256,192,108898,1,0,0:0:0:0:
256,192,109071,1,8,0:0:0:0:
256,192,109243,1,0,0:0:0:0:
256,192,109415,1,0,0:0:0:0:
256,192,109588,1,8,0:0:0:0:
256,192,109760,1,0,0:0:0:0:
256,192,110105,1,8,0:0:0:0:
256,192,110278,1,0,0:0:0:0:
256,192,110450,1,8,0:0:0:0:
256,192,110622,1,4,0:0:0:0:
