osu file format v14

[General]
AudioFilename: Cartoon - Whatever I do (feat. Kostja).mp3
AudioLeadIn: 0
PreviewTime: 87519
Countdown: 0
SampleSet: Normal
StackLeniency: 0.7
Mode: 1
LetterboxInBreaks: 0
WidescreenStoryboard: 1

[Editor]
DistanceSpacing: 1
BeatDivisor: 4
GridSize: 32
TimelineZoom: 3.199999

[Metadata]
Title:Whatever I Do (feat. Kostja)
TitleUnicode:Whatever I Do (feat. Kóstja)
Artist:Cartoon
ArtistUnicode:Cartoon
Creator:Skull Kid
Version:Muzukashii
Source:
Tags:dnb drum and bass
BeatmapID:1658258
BeatmapSetID:555196

[Difficulty]
HPDrainRate:6
CircleSize:4
OverallDifficulty:5
ApproachRate:9
SliderMultiplier:1.4
SliderTickRate:1

[Events]
//Background and Video events
0,0,"BG.jpg",0,0
//Break Periods
2,44615,54850
//Storyboard Layer 0 (Background)
//Storyboard Layer 1 (Fail)
//Storyboard Layer 2 (Pass)
//Storyboard Layer 3 (Foreground)
//Storyboard Sound Samples

[TimingPoints]
278,344.827586206897,4,1,0,40,1,0
622,-100,4,1,0,5,0,0
5450,-100,4,1,0,40,0,0
6140,-100,4,1,0,5,0,0
6829,-100,4,1,0,40,0,0
7519,-100,4,1,0,5,0,0
8209,-100,4,1,0,40,0,0
8898,-100,4,1,0,5,0,0
11140,-100,4,1,0,50,0,0
11657,-100,4,1,0,5,0,0
16484,-100,4,1,0,50,0,0
17174,-100,4,1,0,15,0,0
17864,-100,4,1,0,50,0,0
18553,-100,4,1,0,25,0,0
19243,-100,4,1,0,50,0,0
19933,-100,4,1,0,35,0,0
20622,-100,4,1,0,40,0,0
21140,-100,4,1,0,50,0,0
22174,-100,4,1,0,60,0,0
55278,-100,4,1,0,65,0,0
60967,-100,4,1,0,70,0,0
63726,-100,4,1,0,40,0,0
64933,-100,4,1,0,5,0,0
66398,-100,4,1,0,40,0,0
66657,-100,4,1,0,80,0,0
66829,-100,4,1,0,80,0,1
77519,-100,4,1,0,80,0,0
77864,-100,4,1,0,80,0,1
87174,-100,4,1,0,80,0,0
88898,-100,4,1,0,80,0,1
99588,-100,4,1,0,80,0,0
99933,-100,4,1,0,80,0,1
109243,-100,4,1,0,80,0,0

[HitObjects]
256,192,278,5,8,0:0:0:0:
256,192,967,1,0,0:0:0:0:
256,192,1657,1,0,0:0:0:0:
256,192,2346,1,0,0:0:0:0:
256,192,3036,1,0,0:0:0:0:
256,192,3726,1,0,0:0:0:0:
256,192,4415,1,0,0:0:0:0:
256,192,5105,1,0,0:0:0:0:
256,192,5622,1,0,0:0:0:0:
256,192,5709,1,0,0:0:0:0:
256,192,5795,1,8,0:0:0:0:
256,192,6484,1,0,0:0:0:0:
256,192,7002,1,8,0:0:0:0:
256,192,7174,1,0,0:0:0:0:
256,192,7864,1,0,0:0:0:0:
256,192,8381,1,8,0:0:0:0:
256,192,8467,1,8,0:0:0:0:
256,192,8553,1,0,0:0:0:0:
256,192,9243,1,0,0:0:0:0:
256,192,9933,1,0,0:0:0:0:
256,192,10622,1,0,0:0:0:0:
256,192,11312,1,8,0:0:0:0:
256,192,12002,1,0,0:0:0:0:
256,192,12691,1,0,0:0:0:0:
256,192,13381,1,0,0:0:0:0:
256,192,14071,1,0,0:0:0:0:
256,192,14760,1,0,0:0:0:0:
256,192,15450,1,0,0:0:0:0:
256,192,16140,1,0,0:0:0:0:
256,192,16657,1,0,0:0:0:0:
256,192,16743,1,0,0:0:0:0:
256,192,16829,1,8,0:0:0:0:
256,192,17519,1,0,0:0:0:0:
256,192,18036,1,8,0:0:0:0:
256,192,18209,1,0,0:0:0:0:
256,192,18898,1,0,0:0:0:0:
256,192,19415,1,8,0:0:0:0:
256,192,19502,1,8,0:0:0:0:
256,192,19588,1,0,0:0:0:0:
256,192,20278,1,0,0:0:0:0:
256,192,20967,1,0,0:0:0:0:
256,192,21312,1,8,0:0:0:0:
256,192,21657,1,8,0:0:0:0:
256,192,22002,1,8,0:0:0:0:
256,192,22346,1,4,0:0:0:0:
256,192,23036,1,8,0:0:0:0:
256,192,23726,1,0,0:0:0:0:
256,192,24071,1,0,0:0:0:0:
256,192,24415,1,8,0:0:0:0:
256,192,24760,1,8,0:0:0:0:
256,192,24933,1,8,0:0:0:0:
256,192,25105,1,0,0:0:0:0:
256,192,25450,1,0,0:0:0:0:
256,192,25795,1,8,0:0:0:0:
256,192,26140,1,8,0:0:0:0:
256,192,26484,1,0,0:0:0:0:
256,192,27174,1,8,0:0:0:0:
256,192,27519,1,8,0:0:0:0:
256,192,27864,1,0,0:0:0:0:
256,192,28553,1,8,0:0:0:0:
256,192,29243,1,0,0:0:0:0:
256,192,29415,1,8,0:0:0:0:
256,192,29588,1,0,0:0:0:0:
256,192,29933,1,8,0:0:0:0:
256,192,30278,1,8,0:0:0:0:
256,192,30622,1,0,0:0:0:0:
256,192,30795,1,0,0:0:0:0:
256,192,30967,1,8,0:0:0:0:
256,192,31312,1,8,0:0:0:0:
256,192,32002,1,0,0:0:0:0:
256,192,32691,1,8,0:0:0:0:
256,192,33036,1,8,0:0:0:0:
256,192,33381,1,4,0:0:0:0:
256,192,34071,1,8,0:0:0:0:
256,192,34760,1,0,0:0:0:0:
256,192,35105,1,0,0:0:0:0:
256,192,35450,1,8,0:0:0:0:
256,192,35795,1,8,0:0:0:0:
256,192,35967,1,8,0:0:0:0:
256,192,36140,1,0,0:0:0:0:
256,192,36484,1,0,0:0:0:0:
256,192,36829,1,8,0:0:0:0:
256,192,37174,1,8,0:0:0:0:
256,192,37519,1,0,0:0:0:0:
256,192,38209,1,8,0:0:0:0:
256,192,38553,1,8,0:0:0:0:
256,192,38898,1,0,0:0:0:0:
256,192,39588,1,8,0:0:0:0:
256,192,39933,1,0,0:0:0:0:
256,192,40278,1,8,0:0:0:0:
256,192,40450,1,8,0:0:0:0:
256,192,40622,1,0,0:0:0:0:
256,192,40967,1,8,0:0:0:0:
256,192,41312,1,0,0:0:0:0:
256,192,41657,1,8,0:0:0:0:
256,192,41829,1,8,0:0:0:0:
256,192,42002,1,0,0:0:0:0:
256,192,42346,1,8,0:0:0:0:
256,192,43036,1,0,0:0:0:0:
256,192,43209,1,0,0:0:0:0:
256,192,43381,1,0,0:0:0:0:
256,192,43726,1,8,0:0:0:0:
256,192,44415,1,4,0:0:0:0:
256,192,55450,5,0,0:0:0:0:
256,192,55795,1,8,0:0:0:0:
256,192,56140,1,8,0:0:0:0:
256,192,56829,1,0,0:0:0:0:
256,192,57174,1,8,0:0:0:0:
256,192,57346,1,0,0:0:0:0:
256,192,57519,1,8,0:0:0:0:
256,192,57691,1,8,0:0:0:0:
256,192,57864,1,0,0:0:0:0:
256,192,58036,1,8,0:0:0:0:
256,192,58381,1,0,0:0:0:0:
256,192,58553,1,8,0:0:0:0:
256,192,58898,1,8,0:0:0:0:
256,192,59243,1,0,0:0:0:0:
256,192,59415,1,8,0:0:0:0:
256,192,59588,1,0,0:0:0:0:
256,192,59933,1,0,0:0:0:0:
256,192,60105,1,8,0:0:0:0:
256,192,60278,1,8,0:0:0:0:
256,192,60622,1,8,0:0:0:0:
256,192,60967,1,0,0:0:0:0:
256,192,61140,1,0,0:0:0:0:
256,192,61312,1,8,0:0:0:0:
256,192,61484,1,8,0:0:0:0:
256,192,61657,1,0,0:0:0:0:
256,192,62002,1,8,0:0:0:0:
256,192,62174,1,8,0:0:0:0:
256,192,62346,1,0,0:0:0:0:
256,192,62519,1,0,0:0:0:0:
256,192,62691,1,8,0:0:0:0:
256,192,63036,1,8,0:0:0:0:
256,192,63209,1,8,0:0:0:0:
256,192,63381,1,8,0:0:0:0:
256,192,63553,1,0,0:0:0:0:
256,192,64071,1,8,0:0:0:0:
256,192,64415,1,8,0:0:0:0:
256,192,65105,12,8,66312,0:0:0:0:
256,192,66484,5,0,0:0:0:0:
256,192,66829,1,12,0:0:0:0:
256,192,67174,1,8,0:0:0:0:
256,192,67519,1,0,0:0:0:0:
256,192,67691,1,8,0:0:0:0:
256,192,67864,1,0,0:0:0:0:
256,192,68209,1,8,0:0:0:0:
256,192,68381,1,0,0:0:0:0:
256,192,68467,1,0,0:0:0:0:
256,192,68553,1,0,0:0:0:0:
256,192,68726,1,8,0:0:0:0:
256,192,68898,1,0,0:0:0:0:
256,192,69071,1,8,0:0:0:0:
256,192,69588,1,8,0:0:0:0:
256,192,69933,1,8,0:0:0:0:
256,192,70278,1,0,0:0:0:0:
256,192,70450,1,8,0:0:0:0:
256,192,70622,1,0,0:0:0:0:
256,192,70795,1,0,0:0:0:0:
256,192,70967,1,8,0:0:0:0:
256,192,71140,1,0,0:0:0:0:
256,192,71226,1,0,0:0:0:0:
256,192,71312,1,0,0:0:0:0:
256,192,71484,1,0,0:0:0:0:
256,192,71657,1,8,0:0:0:0:
256,192,71743,1,8,0:0:0:0:
256,192,71829,1,8,0:0:0:0:
256,192,72002,1,0,0:0:0:0:
256,192,72346,1,8,0:0:0:0:
256,192,72691,1,8,0:0:0:0:
256,192,73036,1,0,0:0:0:0:
256,192,73209,1,8,0:0:0:0:
256,192,73381,1,0,0:0:0:0:
256,192,73726,1,8,0:0:0:0:
256,192,73898,1,0,0:0:0:0:
256,192,73984,1,0,0:0:0:0:
256,192,74071,1,0,0:0:0:0:
256,192,74243,1,8,0:0:0:0:
256,192,74415,1,0,0:0:0:0:
256,192,74588,1,8,0:0:0:0:
256,192,75105,1,8,0:0:0:0:
256,192,75450,1,8,0:0:0:0:
256,192,75622,1,0,0:0:0:0:
256,192,75795,1,0,0:0:0:0:
256,192,75967,1,8,0:0:0:0:
256,192,76312,1,8,0:0:0:0:
256,192,76484,1,0,0:0:0:0:
256,192,76657,1,0,0:0:0:0:
256,192,76829,1,8,0:0:0:0:
256,192,77002,1,0,0:0:0:0:
256,192,77088,1,0,0:0:0:0:
256,192,77174,1,8,0:0:0:0:
256,192,77519,1,0,0:0:0:0:
256,192,77864,1,12,0:0:0:0:
256,192,78209,1,8,0:0:0:0:
256,192,78553,1,0,0:0:0:0:
256,192,78726,1,8,0:0:0:0:
256,192,78898,1,0,0:0:0:0:
256,192,79243,1,8,0:0:0:0:
256,192,79415,1,0,0:0:0:0:
256,192,79502,1,0,0:0:0:0:
256,192,79588,1,0,0:0:0:0:
256,192,79760,1,8,0:0:0:0:
256,192,79933,1,0,0:0:0:0:
256,192,80105,1,8,0:0:0:0:
256,192,80622,1,8,0:0:0:0:
256,192,80967,1,8,0:0:0:0:
256,192,81312,1,0,0:0:0:0:
256,192,81484,1,8,0:0:0:0:
256,192,81657,1,0,0:0:0:0:
256,192,81829,1,0,0:0:0:0:
256,192,82002,1,8,0:0:0:0:
256,192,82174,1,0,0:0:0:0:
256,192,82260,1,0,0:0:0:0:
256,192,82346,1,0,0:0:0:0:
256,192,82519,1,0,0:0:0:0:
256,192,82691,1,8,0:0:0:0:
256,192,82778,1,8,0:0:0:0:
256,192,82864,1,8,0:0:0:0:
256,192,83036,1,0,0:0:0:0:
256,192,83381,1,8,0:0:0:0:
256,192,83726,1,8,0:0:0:0:
256,192,84071,1,0,0:0:0:0:
256,192,84243,1,8,0:0:0:0:
256,192,84415,1,0,0:0:0:0:
256,192,84760,1,8,0:0:0:0:
256,192,84933,1,0,0:0:0:0:
256,192,85019,1,0,0:0:0:0:
256,192,85105,1,0,0:0:0:0:
256,192,85278,1,8,0:0:0:0:
256,192,85450,1,0,0:0:0:0:
256,192,85622,1,8,0:0:0:0:
256,192,86140,1,8,0:0:0:0:
256,192,86484,1,8,0:0:0:0:
256,192,86657,1,0,0:0:0:0:
256,192,86829,1,0,0:0:0:0:
256,192,87002,1,8,0:0:0:0:
256,192,87174,1,0,0:0:0:0:
256,192,87519,1,8,0:0:0:0:
256,192,87691,1,0,0:0:0:0:
256,192,88036,1,8,0:0:0:0:
256,192,88209,1,0,0:0:0:0:
256,192,88381,1,8,0:0:0:0:
256,192,88553,1,0,0:0:0:0:
256,192,88898,1,12,0:0:0:0:
256,192,89415,1,0,0:0:0:0:
256,192,89588,1,8,0:0:0:0:
256,192,89760,1,8,0:0:0:0:
256,192,89933,1,0,0:0:0:0:
256,192,90278,1,8,0:0:0:0:
256,192,90450,1,0,0:0:0:0:
256,192,90622,1,8,0:0:0:0:
256,192,90795,1,0,0:0:0:0:
256,192,90881,1,0,0:0:0:0:
256,192,90967,1,0,0:0:0:0:
256,192,91140,1,0,0:0:0:0:
256,192,91312,1,8,0:0:0:0:
256,192,91657,1,0,0:0:0:0:
256,192,91829,1,0,0:0:0:0:
256,192,92002,1,8,0:0:0:0:
256,192,92346,1,0,0:0:0:0:
256,192,92519,1,8,0:0:0:0:
256,192,92691,1,0,0:0:0:0:
256,192,92864,1,8,0:0:0:0:
256,192,92950,1,8,0:0:0:0:
256,192,93036,1,8,0:0:0:0:
256,192,93209,1,0,0:0:0:0:
256,192,93381,1,8,0:0:0:0:
256,192,93553,1,8,0:0:0:0:
256,192,93726,1,8,0:0:0:0:
256,192,93898,1,8,0:0:0:0:
256,192,94071,1,0,0:0:0:0:
256,192,94415,1,8,0:0:0:0:
256,192,94933,1,0,0:0:0:0:
256,192,95105,1,8,0:0:0:0:
256,192,95450,1,0,0:0:0:0:
256,192,95795,1,8,0:0:0:0:
256,192,95967,1,0,0:0:0:0:
256,192,96140,1,0,0:0:0:0:
256,192,96312,1,0,0:0:0:0:
256,192,96484,1,8,0:0:0:0:
256,192,96657,1,0,0:0:0:0:
256,192,96829,1,0,0:0:0:0:
256,192,97174,1,8,0:0:0:0:
256,192,97346,1,0,0:0:0:0:
256,192,97519,1,0,0:0:0:0:
256,192,97691,1,0,0:0:0:0:
256,192,97864,1,8,0:0:0:0:
256,192,98036,1,8,0:0:0:0:
256,192,98209,1,0,0:0:0:0:
256,192,98553,1,8,0:0:0:0:
256,192,98726,1,0,0:0:0:0:
256,192,98898,1,8,0:0:0:0:
256,192,99243,1,8,0:0:0:0:
256,192,99588,1,0,0:0:0:0:
256,192,99933,1,12,0:0:0:0:
256,192,100450,1,0,0:0:0:0:
256,192,100622,1,8,0:0:0:0:
256,192,100795,1,8,0:0:0:0:
256,192,100967,1,0,0:0:0:0:
256,192,101312,1,8,0:0:0:0:
256,192,101484,1,0,0:0:0:0:
256,192,101657,1,8,0:0:0:0:
256,192,101829,1,0,0:0:0:0:
256,192,101915,1,0,0:0:0:0:
256,192,102002,1,0,0:0:0:0:
256,192,102174,1,0,0:0:0:0:
256,192,102346,1,8,0:0:0:0:
256,192,102691,1,0,0:0:0:0:
256,192,102864,1,0,0:0:0:0:
256,192,103036,1,8,0:0:0:0:
256,192,103381,1,0,0:0:0:0:
256,192,103553,1,8,0:0:0:0:
256,192,103726,1,0,0:0:0:0:
256,192,103898,1,8,0:0:0:0:
256,192,103984,1,8,0:0:0:0:
256,192,104071,1,8,0:0:0:0:
256,192,104243,1,0,0:0:0:0:
256,192,104415,1,8,0:0:0:0:
256,192,104588,1,8,0:0:0:0:
256,192,104760,1,8,0:0:0:0:
256,192,104933,1,8,0:0:0:0:
256,192,105105,1,0,0:0:0:0:
256,192,105450,1,8,0:0:0:0:
256,192,105967,1,0,0:0:0:0:
256,192,106140,1,8,0:0:0:0:
256,192,106312,1,8,0:0:0:0:
256,192,106484,1,0,0:0:0:0:
256,192,106829,1,8,0:0:0:0:
256,192,107002,1,0,0:0:0:0:
256,192,107174,1,0,0:0:0:0:
256,192,107346,1,0,0:0:0:0:
256,192,107519,1,8,0:0:0:0:
256,192,107691,1,0,0:0:0:0:
256,192,107864,1,0,0:0:0:0:
256,192,108209,1,8,0:0:0:0:
256,192,108381,1,0,0:0:0:0:
256,192,108553,1,0,0:0:0:0:
256,192,108726,1,0,0:0:0:0:
256,192,108898,1,8,0:0:0:0:
256,192,109071,1,8,0:0:0:0:
256,192,109243,1,0,0:0:0:0:
256,192,109588,1,8,0:0:0:0:
256,192,109760,1,0,0:0:0:0:
256,192,110105,1,8,0:0:0:0:
256,192,110278,1,0,0:0:0:0:
256,192,110450,1,8,0:0:0:0:
256,192,110622,1,4,0:0:0:0:
