osu file format v14

[General]
AudioFilename: Cartoon - Whatever I do (feat. Kostja).mp3
AudioLeadIn: 0
PreviewTime: 87519
Countdown: 0
SampleSet: Normal
StackLeniency: 0.7
Mode: 1
LetterboxInBreaks: 0
WidescreenStoryboard: 1

[Editor]
DistanceSpacing: 1
BeatDivisor: 4
GridSize: 32
TimelineZoom: 3.199999

[Metadata]
Title:Whatever I Do (feat. Kostja)
TitleUnicode:Whatever I Do (feat. Kóstja)
Artist:Cartoon
ArtistUnicode:Cartoon
Creator:Skull Kid
Version:Futsuu
Source:
Tags:dnb drum and bass
BeatmapID:1658257
BeatmapSetID:555196

[Difficulty]
HPDrainRate:7
CircleSize:4
OverallDifficulty:4
ApproachRate:9
SliderMultiplier:1.4
SliderTickRate:1

[Events]
//Background and Video events
0,0,"BG.jpg",0,0
//Break Periods
2,44615,54850
//Storyboard Layer 0 (Background)
//Storyboard Layer 1 (Fail)
//Storyboard Layer 2 (Pass)
//Storyboard Layer 3 (Foreground)
//Storyboard Sound Samples

[TimingPoints]
278,344.827586206897,4,1,0,40,1,0
622,-100,4,1,0,5,0,0
5450,-100,4,1,0,40,0,0
8898,-100,4,1,0,5,0,0
11140,-100,4,1,0,50,0,0
11657,-100,4,1,0,5,0,0
16484,-100,4,1,0,50,0,0
22174,-100,4,1,0,60,0,0
42864,-100,4,1,0,40,0,0
55278,-100,4,1,0,65,0,0
60967,-100,4,1,0,70,0,0
63726,-100,4,1,0,40,0,0
64933,-100,4,1,0,5,0,0
66657,-100,4,1,0,80,0,0
66829,-100,4,1,0,80,0,1
77519,-100,4,1,0,80,0,0
77864,-100,4,1,0,80,0,1
87174,-100,4,1,0,40,0,0
88726,-100,4,1,0,80,0,0
88898,-100,4,1,0,80,0,1
99588,-100,4,1,0,80,0,0
99933,-100,4,1,0,80,0,1
109243,-100,4,1,0,40,0,0

[HitObjects]
256,192,278,5,8,0:0:0:0:
256,192,1657,1,0,0:0:0:0:
256,192,3036,1,0,0:0:0:0:
256,192,4415,1,0,0:0:0:0:
256,192,5795,1,8,0:0:0:0:
256,192,7002,1,8,0:0:0:0:
256,192,7174,1,0,0:0:0:0:
256,192,8381,1,8,0:0:0:0:
256,192,8553,1,0,0:0:0:0:
256,192,9933,1,0,0:0:0:0:
256,192,11312,1,8,0:0:0:0:
256,192,12691,1,0,0:0:0:0:
256,192,14071,1,0,0:0:0:0:
256,192,15450,1,0,0:0:0:0:
256,192,16829,1,8,0:0:0:0:
256,192,18036,1,8,0:0:0:0:
256,192,18209,1,0,0:0:0:0:
256,192,19415,1,8,0:0:0:0:
256,192,19588,1,0,0:0:0:0:
256,192,21312,1,8,0:0:0:0:
256,192,21657,1,8,0:0:0:0:
256,192,22002,1,8,0:0:0:0:
256,192,22346,1,4,0:0:0:0:
256,192,23036,1,8,0:0:0:0:
256,192,23726,1,0,0:0:0:0:
256,192,24415,1,8,0:0:0:0:
256,192,24760,1,0,0:0:0:0:
256,192,25105,1,0,0:0:0:0:
256,192,25795,1,8,0:0:0:0:
256,192,26484,1,0,0:0:0:0:
256,192,27174,1,8,0:0:0:0:
256,192,27519,1,8,0:0:0:0:
256,192,27864,1,0,0:0:0:0:
256,192,28553,1,8,0:0:0:0:
256,192,29243,1,0,0:0:0:0:
256,192,29588,1,8,0:0:0:0:
256,192,29933,1,8,0:0:0:0:
256,192,30622,1,0,0:0:0:0:
256,192,30967,1,8,0:0:0:0:
256,192,31312,1,8,0:0:0:0:
256,192,32691,1,8,0:0:0:0:
256,192,33036,1,8,0:0:0:0:
256,192,33381,1,4,0:0:0:0:
256,192,34071,1,8,0:0:0:0:
256,192,34760,1,0,0:0:0:0:
256,192,35450,1,8,0:0:0:0:
256,192,35795,1,0,0:0:0:0:
256,192,36140,1,8,0:0:0:0:
256,192,36829,1,8,0:0:0:0:
256,192,37519,1,0,0:0:0:0:
256,192,38209,1,8,0:0:0:0:
256,192,38553,1,8,0:0:0:0:
256,192,38898,1,0,0:0:0:0:
256,192,39588,1,8,0:0:0:0:
256,192,40278,1,0,0:0:0:0:
256,192,40622,1,8,0:0:0:0:
256,192,40967,1,8,0:0:0:0:
256,192,41657,1,0,0:0:0:0:
256,192,42002,1,8,0:0:0:0:
256,192,42346,1,0,0:0:0:0:
256,192,43036,1,0,0:0:0:0:
256,192,43726,1,8,0:0:0:0:
256,192,44415,1,4,0:0:0:0:
256,192,55450,5,0,0:0:0:0:
256,192,55795,1,8,0:0:0:0:
256,192,56140,1,8,0:0:0:0:
256,192,56829,1,0,0:0:0:0:
256,192,57174,1,8,0:0:0:0:
256,192,57519,1,8,0:0:0:0:
256,192,57691,1,0,0:0:0:0:
256,192,58036,1,8,0:0:0:0:
256,192,58553,1,8,0:0:0:0:
256,192,58898,1,8,0:0:0:0:
256,192,59588,1,0,0:0:0:0:
256,192,60105,1,8,0:0:0:0:
256,192,60278,1,8,0:0:0:0:
256,192,60622,1,8,0:0:0:0:
256,192,60967,1,0,0:0:0:0:
256,192,61312,1,8,0:0:0:0:
256,192,61657,1,8,0:0:0:0:
256,192,62346,1,0,0:0:0:0:
256,192,62691,1,8,0:0:0:0:
256,192,63036,1,8,0:0:0:0:
256,192,63209,1,0,0:0:0:0:
256,192,63553,1,0,0:0:0:0:
256,192,64071,1,8,0:0:0:0:
256,192,64415,1,8,0:0:0:0:
256,192,65105,12,0,66484,0:0:0:0:
256,192,66829,5,12,0:0:0:0:
256,192,67174,1,8,0:0:0:0:
256,192,67864,1,0,0:0:0:0:
256,192,68209,1,8,0:0:0:0:
256,192,68553,1,8,0:0:0:0:
256,192,68726,1,0,0:0:0:0:
256,192,69071,1,8,0:0:0:0:
256,192,69588,1,8,0:0:0:0:
256,192,69933,1,8,0:0:0:0:
256,192,70622,1,0,0:0:0:0:
256,192,71140,1,8,0:0:0:0:
256,192,71312,1,8,0:0:0:0:
256,192,71657,1,8,0:0:0:0:
256,192,72002,1,0,0:0:0:0:
256,192,72346,1,8,0:0:0:0:
256,192,72691,1,8,0:0:0:0:
256,192,73381,1,0,0:0:0:0:
256,192,73726,1,8,0:0:0:0:
256,192,74071,1,8,0:0:0:0:
256,192,74243,1,0,0:0:0:0:
256,192,74588,1,8,0:0:0:0:
256,192,75105,1,8,0:0:0:0:
256,192,75450,1,8,0:0:0:0:
256,192,75967,1,8,0:0:0:0:
256,192,76312,1,8,0:0:0:0:
256,192,76829,1,8,0:0:0:0:
256,192,77174,1,8,0:0:0:0:
256,192,77519,1,0,0:0:0:0:
256,192,77864,1,12,0:0:0:0:
256,192,78209,1,8,0:0:0:0:
256,192,78898,1,0,0:0:0:0:
256,192,79243,1,8,0:0:0:0:
256,192,79588,1,8,0:0:0:0:
256,192,79760,1,0,0:0:0:0:
256,192,80105,1,8,0:0:0:0:
256,192,80622,1,8,0:0:0:0:
256,192,80967,1,8,0:0:0:0:
256,192,81657,1,0,0:0:0:0:
256,192,82174,1,8,0:0:0:0:
256,192,82346,1,8,0:0:0:0:
256,192,82691,1,8,0:0:0:0:
256,192,83036,1,0,0:0:0:0:
256,192,83381,1,8,0:0:0:0:
256,192,83726,1,8,0:0:0:0:
256,192,84415,1,0,0:0:0:0:
256,192,84760,1,8,0:0:0:0:
256,192,85105,1,8,0:0:0:0:
256,192,85278,1,0,0:0:0:0:
256,192,85622,1,8,0:0:0:0:
256,192,86140,1,8,0:0:0:0:
256,192,86484,1,8,0:0:0:0:
256,192,87174,12,0,88553,0:0:0:0:
256,192,88898,5,12,0:0:0:0:
256,192,89415,1,0,0:0:0:0:
256,192,89760,1,0,0:0:0:0:
256,192,89933,1,0,0:0:0:0:
256,192,90278,1,8,0:0:0:0:
256,192,90622,1,8,0:0:0:0:
256,192,90967,1,8,0:0:0:0:
256,192,91312,1,0,0:0:0:0:
256,192,91657,1,0,0:0:0:0:
256,192,92002,1,8,0:0:0:0:
256,192,92346,1,0,0:0:0:0:
256,192,92691,1,8,0:0:0:0:
256,192,93036,1,8,0:0:0:0:
256,192,93381,1,0,0:0:0:0:
256,192,93726,1,0,0:0:0:0:
256,192,94071,1,8,0:0:0:0:
256,192,94760,1,0,0:0:0:0:
256,192,95105,1,0,0:0:0:0:
256,192,95450,1,8,0:0:0:0:
256,192,95622,1,8,0:0:0:0:
256,192,95795,1,8,0:0:0:0:
256,192,96140,1,0,0:0:0:0:
256,192,96484,1,0,0:0:0:0:
256,192,96829,1,8,0:0:0:0:
256,192,97002,1,0,0:0:0:0:
256,192,97174,1,8,0:0:0:0:
256,192,97519,1,0,0:0:0:0:
256,192,98209,1,8,0:0:0:0:
256,192,98553,1,0,0:0:0:0:
256,192,98898,1,8,0:0:0:0:
256,192,99243,1,8,0:0:0:0:
256,192,99588,1,0,0:0:0:0:
256,192,99933,1,12,0:0:0:0:
256,192,100450,1,0,0:0:0:0:
256,192,100795,1,0,0:0:0:0:
256,192,100967,1,0,0:0:0:0:
256,192,101312,1,8,0:0:0:0:
256,192,101657,1,8,0:0:0:0:
256,192,102002,1,8,0:0:0:0:
256,192,102346,1,0,0:0:0:0:
256,192,102691,1,0,0:0:0:0:
256,192,103036,1,8,0:0:0:0:
256,192,103381,1,0,0:0:0:0:
256,192,103726,1,8,0:0:0:0:
256,192,104071,1,8,0:0:0:0:
256,192,104415,1,0,0:0:0:0:
256,192,104760,1,0,0:0:0:0:
256,192,105105,1,8,0:0:0:0:
256,192,105795,1,0,0:0:0:0:
256,192,106140,1,0,0:0:0:0:
256,192,106484,1,8,0:0:0:0:
256,192,106657,1,8,0:0:0:0:
256,192,106829,1,8,0:0:0:0:
256,192,107174,1,0,0:0:0:0:
256,192,107519,1,0,0:0:0:0:
256,192,107864,1,8,0:0:0:0:
256,192,108036,1,0,0:0:0:0:
256,192,108209,1,8,0:0:0:0:
256,192,108553,1,0,0:0:0:0:
256,192,109243,12,0,110622,0:0:0:0:
