osu file format v14

[General]
AudioFilename: audio.mp3
AudioLeadIn: 0
PreviewTime: 21313
Countdown: 0
SampleSet: None
StackLeniency: 0.9
Mode: 0
LetterboxInBreaks: 0
WidescreenStoryboard: 0

[Editor]
DistanceSpacing: 1
BeatDivisor: 4
GridSize: 32
TimelineZoom: 1

[Metadata]
Title:Whatever I Do (feat. Kostja)
TitleUnicode:Whatever I Do (feat. Kóstja)
Artist:Cartoon
ArtistUnicode:Cartoon
Creator:HighTec
Version:LowTec's Insane
Source:
Tags:dnb drum and bass edm featuring lowcombofc
BeatmapID:1324387
BeatmapSetID:628149

[Difficulty]
HPDrainRate:6.9
CircleSize:3.9
OverallDifficulty:7.9
ApproachRate:9
SliderMultiplier:1.99
SliderTickRate:1

[Events]
//Background and Video events
0,0,"611616-1920x1080-[DesktopNexus.com].jpg",0,0
//Break Periods
//Storyboard Layer 0 (Background)
//Storyboard Layer 1 (Fail)
//Storyboard Layer 2 (Pass)
//Storyboard Layer 3 (Foreground)
//Storyboard Sound Samples

[TimingPoints]
279,344.827586206897,4,3,2,59,1,0
22347,-144.927536231884,4,3,2,59,0,0
22951,-144.927536231884,4,3,2,9,0,0
23037,-144.927536231884,4,3,2,59,0,0
24330,-144.927536231884,4,3,2,9,0,0
24416,-144.927536231884,4,3,2,59,0,0
25365,-144.927536231884,4,3,2,9,0,0
25451,-144.927536231884,4,3,2,59,0,0
25710,-144.927536231884,4,3,2,9,0,0
25796,-144.927536231884,4,3,2,59,0,0
26054,-144.927536231884,4,3,2,9,0,0
26140,-144.927536231884,4,3,2,59,0,0
26399,-144.927536231884,4,3,2,9,0,0
26485,-144.927536231884,4,3,2,59,0,0
28468,-144.927536231884,4,3,2,9,0,0
28554,-144.927536231884,4,3,2,59,0,0
32606,-144.927536231884,4,3,2,9,0,0
32692,-144.927536231884,4,3,2,59,0,0
32951,-144.927536231884,4,3,2,9,0,0
33037,-144.927536231884,4,3,2,59,0,0
33296,-144.927536231884,4,3,2,9,0,0
33382,-144.927536231884,4,3,2,59,0,0
33985,-144.927536231884,4,3,2,9,0,0
34071,-144.927536231884,4,3,2,59,0,0
35365,-144.927536231884,4,3,2,9,0,0
35451,-144.927536231884,4,3,2,59,0,0
35710,-144.927536231884,4,3,2,9,0,0
35796,-144.927536231884,4,3,2,59,0,0
36399,-144.927536231884,4,3,2,9,0,0
36485,-144.927536231884,4,3,2,59,0,0
36744,-144.927536231884,4,3,2,9,0,0
36830,-144.927536231884,4,3,2,59,0,0
37089,-144.927536231884,4,3,2,9,0,0
37175,-144.927536231884,4,3,2,59,0,0
37434,-144.927536231884,4,3,2,9,0,0
37520,-144.927536231884,4,3,2,59,0,0
39503,-144.927536231884,4,3,2,9,0,0
39589,-144.927536231884,4,3,2,59,0,0
43037,-204.081632653061,4,3,2,39,0,0
44416,-344.827586206897,4,2,1,59,0,0
44503,-344.827586206897,4,2,1,29,0,0
48554,-344.827586206897,4,2,1,9,0,0
50279,-344.827586206897,4,2,1,29,0,0
54072,-344.827586206897,4,2,1,9,0,0
55451,-344.827586206897,4,2,1,49,0,0
58210,-204.081632653061,4,2,1,69,0,0
64072,-204.081632653061,4,2,1,49,0,0
65106,-204.081632653061,4,2,1,29,0,0
66141,-204.081632653061,4,2,1,19,0,0
66485,-204.081632653061,4,3,2,49,0,0
66830,-101.010101010101,4,3,1,79,0,1
77520,-101.010101010101,4,3,1,59,0,0
77865,-101.010101010101,4,3,1,79,0,1
87175,-101.010101010101,4,3,1,79,0,0
88899,-101.010101010101,4,3,2,69,0,0

[Colours]
Combo1 : 167,167,167
Combo2 : 0,179,179
Combo3 : 0,0,138
Combo4 : 62,62,255

[HitObjects]
78,129,22347,6,0,B|207:76|207:190|331:107,1,240.292500366657,2|0,0:0|0:0,0:0:0:0:
342,107,23037,1,8,0:0:0:0:
144,241,23727,6,0,P|91:279|194:295,1,240.292500366657,2|0,0:0|0:0,0:0:0:0:
206,274,24416,1,8,0:0:0:0:
191,233,24761,1,0,0:0:0:0:
169,201,25106,6,0,L|269:178,1,102.982500157139,2|0,0:0|0:0,0:0:0:0:
169,201,25451,2,0,L|69:178,1,102.982500157139,0|0,0:0|0:0,0:0:0:0:
170,115,25796,2,0,L|270:92,1,102.982500157139,8|0,0:0|0:0,0:0:0:0:
170,115,26141,2,0,L|70:92,1,102.982500157139,0|0,0:0|0:0,0:0:0:0:
171,29,26485,5,2,0:0:0:0:
270,91,26830,1,0,0:0:0:0:
169,201,27175,1,8,0:0:0:0:
170,115,27520,1,0,0:0:0:0:
168,287,27865,6,0,B|240:283|240:283|322:325|322:325|417:317,1,240.292500366657,2|0,0:0|0:0,0:0:0:0:
430,314,28554,1,8,0:0:0:0:
289,228,29244,6,0,P|239:209|198:216,2,68.6550001047592,2|0|0,0:0|0:0|0:0,0:0:0:0:
146,189,29934,1,8,0:0:0:0:
367,248,30279,1,0,0:0:0:0:
146,189,30623,6,0,P|127:139|134:98,2,68.6550001047592,2|0|0,0:0|0:0|0:0,0:0:0:0:
107,46,31313,1,8,0:0:0:0:
166,267,31658,1,0,0:0:0:0:
137,157,32003,1,2,0:0:0:0:
334,255,32347,6,0,L|357:155,1,102.982500157139,0|0,0:0|0:0,0:0:0:0:
334,255,32692,2,0,L|357:355,1,102.982500157139,8|0,0:0|0:0,0:0:0:0:
420,254,33037,2,0,L|443:154,1,102.982500157139,0|0,0:0|0:0,0:0:0:0:
453,116,33382,6,0,B|324:63|324:177|200:94,1,240.292500366657,2|0,0:0|0:0,0:0:0:0:
189,94,34072,1,8,0:0:0:0:
392,259,34761,5,2,0:0:0:0:
358,350,35106,2,0,L|243:322,1,102.982500157139,0|0,0:0|0:0,0:0:0:0:
229,319,35451,2,0,L|114:291,1,102.982500157139,8|0,0:0|0:0,0:0:0:0:
100,288,35796,1,0,0:0:0:0:
51,84,36141,6,0,P|127:88|165:54,1,102.982500157139,2|0,0:0|0:0,0:0:0:0:
157,104,36485,2,0,P|153:180|187:218,1,102.982500157139,0|0,0:0|0:0,0:0:0:0:
191,225,36830,2,0,P|267:229|305:195,1,102.982500157139,8|0,0:0|0:0,0:0:0:0:
297,245,37175,2,0,P|293:321|327:359,1,102.982500157139,0|0,0:0|0:0,0:0:0:0:
367,285,37520,5,2,0:0:0:0:
287,216,37865,1,0,0:0:0:0:
147,75,38210,1,8,0:0:0:0:
165,200,38554,1,0,0:0:0:0:
269,91,38899,6,0,B|347:101|347:101|378:164|378:164|491:181,1,240.292500366657,2|0,0:0|0:0,0:0:0:0:
500,182,39589,1,8,0:0:0:0:
292,169,39934,6,0,L|225:160,2,68.6550001047592,0|0|2,0:0|0:0|0:0,0:0:0:0:
376,183,40451,1,0,0:0:0:0:
376,183,40623,1,0,0:0:0:0:
242,294,40968,1,8,0:0:0:0:
212,122,41313,1,0,0:0:0:0:
79,234,41658,6,0,L|69:301,2,68.6550001047592,2|0|0,0:0|0:0|0:0,0:0:0:0:
92,150,42347,1,8,0:0:0:0:
143,312,43037,6,0,L|135:359,2,48.7549995536346,2|0|0,0:0|0:0|0:0,0:0:0:0:
152,252,43726,1,8,0:0:0:0:
410,205,44416,6,0,B|358:230|288:187|278:119|301:61|381:20|453:61|453:61|507:157|516:241|488:319|377:356,1,692.520021134034,4|0,0:0|0:0,0:0:0:0:
148,195,50279,6,0,B|101:218|36:179|27:116|48:63|122:26|188:63|188:63|237:151|245:228|220:300|118:334,1,634.810019372864,0|0,0:0|0:0,0:0:0:0:
158,59,55451,6,0,P|186:55|212:67,1,57.7100017611695,0|2,0:0|0:0,0:0:0:0:
212,67,56141,1,0,0:0:0:0:
329,124,56313,2,0,L|272:133,1,57.7100017611695,2|0,0:0|0:0,0:0:0:0:
147,239,56830,6,0,P|143:210|155:184,1,57.7100017611695,0|2,0:0|0:0,0:0:0:0:
155,185,57520,1,0,0:0:0:0:
212,67,57692,2,0,L|220:124,1,57.7100017611695,2|2,0:0|0:0,0:0:0:0:
59,202,58210,5,0,0:0:0:0:
86,124,58382,1,0,0:0:0:0:
71,47,58554,2,0,P|44:48|18:56,1,48.7549995536346,2|0,0:0|0:0,0:0:0:0:
154,265,58899,5,2,0:0:0:0:
138,183,59071,1,0,0:0:0:0:
86,124,59243,2,0,P|63:138|44:158,1,48.7549995536346,0|0,0:0|0:0,0:0:0:0:
209,328,59589,5,2,0:0:0:0:
154,265,59761,1,0,0:0:0:0:
80,240,59934,2,0,P|67:263|61:290,1,48.7549995536346,0|2,0:0|0:0,0:0:0:0:
311,277,60278,5,2,0:0:0:0:
232,250,60450,1,2,0:0:0:0:
154,265,60623,2,0,P|155:292|163:318,1,48.7549995536346,2|0,0:0|0:0,0:0:0:0:
390,323,60968,6,0,L|400:266,1,48.7549995536346,2|0,0:0|0:0,0:0:0:0:
245,217,61313,2,0,L|235:160,1,48.7549995536346,0|2,0:0|0:0,0:0:0:0:
449,57,61658,1,0,0:0:0:0:
420,162,61830,1,0,0:0:0:0:
315,133,62003,1,2,0:0:0:0:
344,28,62175,1,0,0:0:0:0:
327,227,62347,6,0,L|270:237,1,48.7549995536346,2|0,0:0|0:0,0:0:0:0:
221,82,62692,2,0,L|164:72,1,48.7549995536346,0|2,0:0|0:0,0:0:0:0:
61,286,63037,1,0,0:0:0:0:
166,257,63209,1,0,0:0:0:0:
137,152,63382,1,2,0:0:0:0:
32,181,63554,1,2,0:0:0:0:
256,192,64072,12,0,66141,0:0:0:0:
95,16,66485,5,8,0:0:0:0:
95,16,66830,6,0,P|139:37|187:46,1,98.5049996993866,14|0,0:0|0:0,0:0:0:0:
393,67,67175,1,2,0:0:0:0:
204,146,67347,2,0,P|182:190|173:238,1,98.5049996993866,0|8,0:0|0:0,0:0:0:0:
278,83,67692,1,2,0:0:0:0:
424,246,67865,6,0,P|445:201|454:153,1,98.5049996993866,0|0,0:0|0:0,0:0:0:0:
300,217,68210,2,0,L|321:313,1,98.5049996993866,10|0,0:0|0:0,0:0:0:0:
278,83,68554,1,2,0:0:0:0:
173,238,68727,2,0,L|194:334,1,98.5049996993866,2|8,0:0|0:0,0:0:0:0:
151,104,69072,1,2,0:0:0:0:
105,316,69244,6,0,P|56:306|12:285,1,98.5049996993866,0|0,0:0|0:0,0:0:0:0:
58,73,69589,2,0,P|106:82|151:104,1,98.5049996993866,10|0,0:0|0:0,0:0:0:0:
173,238,69934,1,2,0:0:0:0:
263,43,70106,2,0,P|307:22|356:14,1,98.5049996993866,0|8,0:0|0:0,0:0:0:0:
183,260,70451,1,2,0:0:0:0:
348,343,70623,6,0,B|289:331|289:331|243:271|243:271|183:260,1,197.009999398773,0|10,0:0|0:0,0:0:0:0:
184,364,71141,1,0,0:0:0:0:
349,243,71313,1,2,0:0:0:0:
349,243,71485,1,2,0:0:0:0:
162,161,71658,2,0,L|65:182,1,98.5049996993866,8|2,0:0|0:0,0:0:0:0:
343,144,72003,6,0,P|364:99|373:51,1,98.5049996993866,0|0,0:0|0:0,0:0:0:0:
144,0,72347,2,0,P|122:44|113:92,1,98.5049996993866,10|0,0:0|0:0,0:0:0:0:
284,269,72692,1,2,0:0:0:0:
257,172,72865,2,0,L|235:75,1,98.5049996993866,0|8,0:0|0:0,0:0:0:0:
373,51,73210,1,2,0:0:0:0:
473,198,73382,6,0,L|451:294,1,98.5049996993866,0|0,0:0|0:0,0:0:0:0:
187,241,73727,2,0,L|208:337,1,98.5049996993866,10|0,0:0|0:0,0:0:0:0:
348,198,74072,1,2,0:0:0:0:
301,367,74244,2,0,P|252:357|208:336,1,98.5049996993866,2|8,0:0|0:0,0:0:0:0:
65,182,74589,1,2,0:0:0:0:
187,241,74761,6,0,P|235:231|279:210,1,98.5049996993866,0|0,0:0|0:0,0:0:0:0:
215,6,75106,2,0,P|166:15|122:36,1,98.5049996993866,10|0,0:0|0:0,0:0:0:0:
401,72,75451,2,0,P|450:82|494:103,1,98.5049996993866,2|0,0:0|0:0,0:0:0:0:
203,121,75795,1,8,0:0:0:0:
249,303,75968,6,0,P|258:254|279:210,1,98.5049996993866,2|0,0:0|0:0,0:0:0:0:
495,274,76313,2,0,P|485:322|464:366,1,98.5049996993866,2|8,0:0|0:0,0:0:0:0:
372,286,76658,1,0,0:0:0:0:
402,109,76830,2,0,P|451:118|495:139,1,98.5049996993866,2|0,0:0|0:0,0:0:0:0:
203,121,77175,2,0,P|155:111|111:90,1,98.5049996993866,10|0,0:0|0:0,0:0:0:0:
302,127,77520,5,4,0:0:0:0:
302,127,77865,6,0,P|280:171|271:219,1,98.5049996993866,14|0,0:0|0:0,0:0:0:0:
345,372,78210,1,2,0:0:0:0:
130,330,78382,2,0,P|108:285|99:237,1,98.5049996993866,0|8,0:0|0:0,0:0:0:0:
259,40,78727,1,2,0:0:0:0:
110,151,78899,6,0,L|13:129,1,98.5049996993866,0|0,0:0|0:0,0:0:0:0:
259,40,79244,2,0,L|355:18,1,98.5049996993866,10|0,0:0|0:0,0:0:0:0:
160,62,79589,1,2,0:0:0:0:
424,86,79761,2,0,L|402:182,1,98.5049996993866,2|8,0:0|0:0,0:0:0:0:
368,339,80106,1,2,0:0:0:0:
302,127,80279,6,0,P|253:136|209:157,1,98.5049996993866,0|0,0:0|0:0,0:0:0:0:
408,263,80623,2,0,P|456:253|500:232,1,98.5049996993866,10|0,0:0|0:0,0:0:0:0:
195,261,80968,1,2,0:0:0:0:
302,127,81141,2,0,P|292:78|271:34,1,98.5049996993866,0|8,0:0|0:0,0:0:0:0:
110,151,81485,1,2,0:0:0:0:
297,304,81658,6,0,B|198:256|199:342|101:295,1,197.009999398773,0|10,0:0|0:0,0:0:0:0:
242,378,82175,1,0,0:0:0:0:
154,223,82347,1,2,0:0:0:0:
154,223,82520,1,2,0:0:0:0:
413,291,82692,2,0,P|403:339|382:383,1,98.5049996993866,8|2,0:0|0:0,0:0:0:0:
302,127,83037,6,0,L|280:30,1,98.5049996993866,0|0,0:0|0:0,0:0:0:0:
483,144,83382,2,0,L|504:240,1,98.5049996993866,10|0,0:0|0:0,0:0:0:0:
400,62,83727,1,2,0:0:0:0:
189,105,83899,2,0,L|92:83,1,98.5049996993866,0|8,0:0|0:0,0:0:0:0:
280,30,84244,1,2,0:0:0:0:
183,222,84416,6,0,P|192:270|213:314,1,98.5049996993866,0|0,0:0|0:0,0:0:0:0:
401,260,84761,2,0,P|391:211|370:167,1,98.5049996993866,10|0,0:0|0:0,0:0:0:0:
295,243,85106,1,2,0:0:0:0:
114,342,85279,2,0,P|65:332|21:311,1,98.5049996993866,2|8,0:0|0:0,0:0:0:0:
2,168,85623,1,2,0:0:0:0:
213,129,85796,6,0,P|204:177|183:222,1,98.5049996993866,0|0,0:0|0:0,0:0:0:0:
2,168,86141,2,0,P|11:119|32:75,1,98.5049996993866,10|0,0:0|0:0,0:0:0:0:
340,63,86485,2,0,P|295:41|247:32,1,98.5049996993866,2|0,0:0|0:0,0:0:0:0:
141,56,86830,1,8,0:0:0:0:
256,252,87003,1,2,0:0:0:0:
374,97,87175,6,0,L|362:201,1,98.5049996993866,8|0,0:0|0:0,0:0:0:0:
341,326,87520,1,8,0:0:0:0:
268,155,87692,2,0,L|256:259,1,98.5049996993866,8|0,0:0|0:0,0:0:0:0:
235,384,88037,1,8,0:0:0:0:
341,326,88210,1,0,0:0:0:0:
129,326,88382,1,8,0:0:0:0:
129,114,88554,5,4,0:0:0:0:
129,114,88899,6,0,P|176:92|258:85,1,98.5049996993866,12|0,0:0|0:0,0:0:0:0:
158,246,89244,2,0,P|111:268|29:275,1,98.5049996993866,2|0,0:0|0:0,0:0:0:0:
250,215,89589,1,8,0:0:0:0:
138,341,89761,1,0,0:0:0:0:
85,180,89934,6,0,P|63:133|56:51,1,98.5049996993866,2|0,0:0|0:0,0:0:0:0:
250,215,90279,2,0,P|272:262|279:344,1,98.5049996993866,8|0,0:0|0:0,0:0:0:0:
349,110,90623,2,0,P|327:63|320:-19,1,98.5049996993866,2|0,0:0|0:0,0:0:0:0:
260,112,90968,2,0,P|213:134|131:141,1,98.5049996993866,8|0,0:0|0:0,0:0:0:0:
365,186,91312,6,0,L|494:157,1,98.5049996993866,2|0,0:0|0:0,0:0:0:0:
280,307,91658,2,0,L|151:336,1,98.5049996993866,8|0,0:0|0:0,0:0:0:0:
385,288,92003,2,0,L|414:417,1,98.5049996993866,2|0,0:0|0:0,0:0:0:0:
263,199,92347,2,0,L|234:70,1,98.5049996993866,0|0,0:0|0:0,0:0:0:0:
280,307,92692,6,0,L|151:336,1,98.5049996993866,2|0,0:0|0:0,0:0:0:0:
47,359,93037,1,8,0:0:0:0:
89,226,93210,1,0,3:0:0:0:
183,328,93382,1,2,0:0:0:0:
191,132,93554,1,0,3:0:0:0:
329,328,93727,1,8,0:0:0:0:
321,132,93899,1,0,3:0:0:0:
423,226,94072,6,0,B|471:127|385:128|432:30,1,197.009999398773,2|8,0:0|0:0,0:0:0:0:
506,88,94589,1,0,0:0:0:0:
321,132,94761,2,0,B|222:180|223:94|125:141,1,197.009999398773,2|8,0:0|0:0,0:0:0:0:
183,215,95278,1,0,0:0:0:0:
264,63,95451,5,2,0:0:0:0:
355,209,95623,1,0,0:0:0:0:
264,63,95796,2,0,P|215:53|171:32,1,98.5049996993866,8|0,0:0|0:0,0:0:0:0:
355,209,96141,2,0,P|403:218|447:239,1,98.5049996993866,2|0,0:0|0:0,0:0:0:0:
382,105,96485,2,0,P|391:56|412:12,1,98.5049996993866,8|0,0:0|0:0,0:0:0:0:
341,290,96830,5,2,0:0:0:0:
211,256,97003,1,0,0:0:0:0:
341,290,97175,2,0,P|389:299|433:320,1,98.5049996993866,8|0,0:0|0:0,0:0:0:0:
211,256,97520,2,0,P|163:247|119:226,1,98.5049996993866,2|0,0:0|0:0,0:0:0:0:
305,160,97865,1,8,0:0:0:0:
268,355,98037,1,0,0:0:0:0:
73,318,98210,5,2,0:0:0:0:
110,123,98382,1,0,0:0:0:0:
305,160,98554,2,0,L|434:189,1,98.5049996993866,8|0,0:0|0:0,0:0:0:0:
187,241,98899,2,0,L|91:220,1,98.5049996993866,2|0,0:0|0:0,0:0:0:0:
175,98,99244,1,8,0:0:0:0:
305,160,99416,1,2,0:0:0:0:
212,354,99589,5,6,0:0:0:0:
212,354,99934,6,0,P|256:375|304:384,1,98.5049996993866,12|0,0:0|0:0,0:0:0:0:
442,354,100279,1,2,0:0:0:0:
347,249,100451,1,0,0:0:0:0:
304,384,100623,1,8,0:0:0:0:
485,219,100796,1,0,0:0:0:0:
252,145,100968,6,0,L|223:274,1,98.5049996993866,2|0,0:0|0:0,0:0:0:0:
69,384,101313,2,0,P|78:335|99:291,1,98.5049996993866,8|0,0:0|0:0,0:0:0:0:
30,93,101657,2,0,P|20:141|0:185,1,98.5049996993866,2|0,0:0|0:0,0:0:0:0:
159,114,102003,2,0,P|207:123|251:144,1,98.5049996993866,8|0,0:0|0:0,0:0:0:0:
154,322,102347,6,0,L|175:225,1,98.5049996993866,2|0,0:0|0:0,0:0:0:0:
273,48,102692,2,0,L|251:144,1,98.5049996993866,8|0,0:0|0:0,0:0:0:0:
79,125,103037,2,0,L|175:146,1,98.5049996993866,2|0,0:0|0:0,0:0:0:0:
353,244,103382,2,0,L|256:222,1,98.5049996993866,8|0,0:0|0:0,0:0:0:0:
273,48,103727,6,0,L|251:144,1,98.5049996993866,2|0,0:0|0:0,0:0:0:0:
261,300,104072,1,8,0:0:0:0:
417,290,104244,1,0,0:0:0:0:
251,144,104416,1,2,0:0:0:0:
407,134,104589,1,0,0:0:0:0:
239,324,104761,1,8,0:0:0:0:
428,109,104933,1,0,0:0:0:0:
148,52,105106,6,0,B|136:111|136:111|76:157|76:157|56:261,1,197.009999398773,2|8,0:0|0:0,0:0:0:0:
56,61,105623,1,0,0:0:0:0:
161,200,105796,2,0,B|220:212|220:212|266:272|266:272|370:292,1,197.009999398773,2|8,0:0|0:0,0:0:0:0:
170,292,106313,1,0,0:0:0:0:
319,207,106485,5,2,0:0:0:0:
184,121,106658,1,0,0:0:0:0:
319,207,106830,2,0,P|367:216|411:237,1,98.5049996993866,8|0,0:0|0:0,0:0:0:0:
184,121,107175,2,0,P|135:111|91:90,1,98.5049996993866,2|0,0:0|0:0,0:0:0:0:
161,225,107520,2,0,P|151:273|130:317,1,98.5049996993866,8|0,0:0|0:0,0:0:0:0:
206,44,107865,5,2,0:0:0:0:
319,207,108037,1,0,0:0:0:0:
206,44,108210,2,0,P|157:34|113:13,1,98.5049996993866,8|0,0:0|0:0,0:0:0:0:
319,207,108554,2,0,P|367:216|411:237,1,98.5049996993866,2|0,0:0|0:0,0:0:0:0:
263,126,108899,1,8,0:0:0:0:
434,54,109072,1,0,0:0:0:0:
411,237,109244,6,0,L|389:333,1,98.5049996993866,2|0,0:0|0:0,0:0:0:0:
434,159,109589,1,8,0:0:0:0:
316,265,109761,2,0,L|294:361,1,98.5049996993866,2|0,0:0|0:0,0:0:0:0:
339,187,110106,1,8,0:0:0:0:
505,227,110279,1,2,0:0:0:0:
389,333,110451,1,8,0:0:0:0:
362,90,110623,5,6,0:0:0:0:
