osu file format v14

[General]
AudioFilename: audio.mp3
AudioLeadIn: 0
PreviewTime: 21313
Countdown: 0
SampleSet: None
StackLeniency: 0.6
Mode: 0
LetterboxInBreaks: 0
WidescreenStoryboard: 0

[Editor]
DistanceSpacing: 1.2
BeatDivisor: 4
GridSize: 16
TimelineZoom: 1

[Metadata]
Title:Whatever I Do (feat. Kostja)
TitleUnicode:Whatever I Do (feat. Kóstja)
Artist:Cartoon
ArtistUnicode:Cartoon
Creator:HighTec
Version:Hard
Source:
Tags:dnb drum and bass edm featuring lowcombofc
BeatmapID:1324455
BeatmapSetID:628149

[Difficulty]
HPDrainRate:6
CircleSize:3.6
OverallDifficulty:6.6
ApproachRate:7.6
SliderMultiplier:1.46
SliderTickRate:1

[Events]
//Background and Video events
0,0,"611616-1920x1080-[DesktopNexus.com].jpg",0,0
//Break Periods
2,48753,49469
//Storyboard Layer 0 (Background)
//Storyboard Layer 1 (Fail)
//Storyboard Layer 2 (Pass)
//Storyboard Layer 3 (Foreground)
//Storyboard Sound Samples

[TimingPoints]
279,344.827586206897,4,3,2,59,1,0
22347,-151.515151515152,4,3,2,59,0,0
22951,-151.515151515152,4,3,2,9,0,0
23037,-151.515151515152,4,3,2,59,0,0
24330,-151.515151515152,4,3,2,9,0,0
24416,-151.515151515152,4,3,2,59,0,0
25365,-151.515151515152,4,3,2,9,0,0
25451,-151.515151515152,4,3,2,59,0,0
25710,-151.515151515152,4,3,2,9,0,0
25796,-151.515151515152,4,3,2,59,0,0
26054,-151.515151515152,4,3,2,9,0,0
26140,-151.515151515152,4,3,2,59,0,0
26399,-151.515151515152,4,3,2,9,0,0
26485,-151.515151515152,4,3,2,59,0,0
28468,-151.515151515152,4,3,2,9,0,0
28554,-151.515151515152,4,3,2,59,0,0
32606,-151.515151515152,4,3,2,9,0,0
32692,-151.515151515152,4,3,2,59,0,0
32951,-151.515151515152,4,3,2,9,0,0
33037,-151.515151515152,4,3,2,59,0,0
33296,-151.515151515152,4,3,2,9,0,0
33382,-151.515151515152,4,3,2,59,0,0
33985,-151.515151515152,4,3,2,9,0,0
34071,-151.515151515152,4,3,2,59,0,0
35365,-151.515151515152,4,3,2,9,0,0
35451,-151.515151515152,4,3,2,59,0,0
35710,-151.515151515152,4,3,2,9,0,0
35796,-151.515151515152,4,3,2,59,0,0
36399,-151.515151515152,4,3,2,9,0,0
36485,-151.515151515152,4,3,2,59,0,0
36744,-151.515151515152,4,3,2,9,0,0
36830,-151.515151515152,4,3,2,59,0,0
37089,-151.515151515152,4,3,2,9,0,0
37175,-151.515151515152,4,3,2,59,0,0
37434,-151.515151515152,4,3,2,9,0,0
37520,-151.515151515152,4,3,2,59,0,0
39503,-151.515151515152,4,3,2,9,0,0
39589,-151.515151515152,4,3,2,59,0,0
43037,-151.515151515152,4,3,2,39,0,0
44416,-384.615384615385,4,2,1,59,0,0
44503,-384.615384615385,4,2,1,29,0,0
48554,-384.615384615385,4,2,1,9,0,0
50279,-384.615384615385,4,2,1,29,0,0
54072,-384.615384615385,4,2,1,9,0,0
55451,-151.515151515152,4,2,1,49,0,0
58210,-151.515151515152,4,2,1,69,0,0
64072,-151.515151515152,4,2,1,49,0,0
65106,-151.515151515152,4,2,1,29,0,0
66141,-151.515151515152,4,2,1,19,0,0
66485,-151.515151515152,4,3,2,49,0,0
66830,-104.166666666667,4,3,1,79,0,1
77520,-104.166666666667,4,3,1,59,0,0
77865,-104.166666666667,4,3,1,79,0,1
87175,-104.166666666667,4,3,1,79,0,0
88899,-104.166666666667,4,3,2,69,0,0

[Colours]
Combo1 : 167,167,167
Combo2 : 0,179,179
Combo3 : 0,0,138
Combo4 : 62,62,255

[HitObjects]
141,156,22347,6,0,L|347:128,1,192.719999411865,2|8,0:0|0:0,0:0:0:0:
418,206,23382,1,0,0:0:0:0:
309,244,23727,2,0,L|103:272,1,192.719999411865,2|8,0:0|0:0,0:0:0:0:
32,194,24762,1,0,0:0:0:0:
103,68,25106,6,0,L|120:186,1,96.3599997059326,2|0,0:0|0:0,0:0:0:0:
198,80,25796,2,0,L|215:198,1,96.3599997059326,8|0,0:0|0:0,0:0:0:0:
306,241,26485,2,0,L|292:145,1,96.3599997059326,2|0,0:0|0:0,0:0:0:0:
401,253,27175,2,0,L|387:157,1,96.3599997059326,8|0,0:0|0:0,0:0:0:0:
285,53,27865,6,0,B|197:22|197:110|82:61,1,192.719999411865,2|8,0:0|0:0,0:0:0:0:
178,151,28899,1,0,0:0:0:0:
102,238,29244,2,0,B|190:207|190:295|305:246,1,192.719999411865,2|8,0:0|0:0,0:0:0:0:
209,336,30278,1,0,0:0:0:0:
241,184,30623,6,0,L|254:88,1,96.3599997059326,2|0,0:0|0:0,0:0:0:0:
347,31,31313,2,0,L|333:126,1,96.3599997059326,8|0,0:0|0:0,0:0:0:0:
398,222,32003,2,0,L|411:126,1,96.3599997059326,2|0,0:0|0:0,0:0:0:0:
512,74,32693,2,0,L|498:169,1,96.3599997059326,8|0,0:0|0:0,0:0:0:0:
426,296,33382,6,0,B|361:282|361:282|313:321|313:321|240:305,1,192.719999411865,2|8,0:0|0:0,0:0:0:0:
138,276,34416,1,0,0:0:0:0:
212,187,34761,2,0,B|277:173|277:173|325:212|325:212|398:196,1,192.719999411865,2|8,0:0|0:0,0:0:0:0:
500,167,35795,1,0,0:0:0:0:
416,48,36141,6,0,L|320:61,1,96.3599997059326,2|0,0:0|0:0,0:0:0:0:
206,78,36830,2,0,L|110:91,1,96.3599997059326,8|0,0:0|0:0,0:0:0:0:
126,205,37520,2,0,L|222:192,1,96.3599997059326,2|0,0:0|0:0,0:0:0:0:
336,175,38209,2,0,L|432:162,1,96.3599997059326,8|0,0:0|0:0,0:0:0:0:
424,306,38899,6,0,P|377:287|249:339,1,192.719999411865,2|8,0:0|0:0,0:0:0:0:
138,359,39934,1,0,0:0:0:0:
174,250,40279,2,0,L|182:186,2,48.1799998529663,2|0|0,0:0|0:0|0:0,0:0:0:0:
138,359,40968,1,8,0:0:0:0:
29,323,41313,1,0,0:0:0:0:
65,214,41658,6,0,L|73:150,2,48.1799998529663,2|0|0,0:0|0:0|0:0,0:0:0:0:
174,250,42347,2,0,P|221:231|349:283,1,192.719999411865,8|2,0:0|0:0,0:0:0:0:
245,356,43727,1,8,0:0:0:0:
176,85,44416,6,0,B|105:109|87:160|93:214|128:277|128:277|174:303|226:277|241:239|235:195|189:167|156:183,1,455.519997219727,4|0,0:0|0:0,0:0:0:0:
389,86,50279,6,0,B|323:108|307:155|312:206|345:264|345:264|388:289|436:264|450:229|444:188|402:162|371:177,1,417.559997451416,0|0,0:0|0:0,0:0:0:0:
418,75,55451,6,0,L|405:171,1,96.3599997059326,0|2,0:0|0:0,0:0:0:0:
386,285,56141,2,0,L|373:381,1,96.3599997059326,0|0,0:0|0:0,0:0:0:0:
285,304,56830,2,0,L|298:208,1,96.3599997059326,0|2,0:0|0:0,0:0:0:0:
317,94,57520,2,0,L|330:-2,1,96.3599997059326,0|0,0:0|0:0,0:0:0:0:
228,102,58210,6,0,L|241:198,1,96.3599997059326,0|2,0:0|0:0,0:0:0:0:
251,255,58727,1,0,0:0:0:0:
261,311,58899,2,0,P|325:297|356:263,1,96.3599997059326,2|0,0:0|0:0,0:0:0:0:
326,163,59589,2,0,P|262:177|231:211,1,96.3599997059326,2|0,0:0|0:0,0:0:0:0:
223,252,60106,1,2,0:0:0:0:
212,309,60279,2,0,P|173:337|126:342,1,96.3599997059326,2|2,0:0|0:0,0:0:0:0:
72,320,60796,1,0,0:0:0:0:
19,230,60968,6,0,L|14:161,1,48.1799998529663,2|0,0:0|0:0,0:0:0:0:
13,123,61313,2,0,L|8:54,1,48.1799998529663,0|2,0:0|0:0,0:0:0:0:
43,27,61658,2,0,L|112:22,1,48.1799998529663,0|0,0:0|0:0,0:0:0:0:
150,21,62003,2,0,L|219:16,1,48.1799998529663,2|0,0:0|0:0,0:0:0:0:
207,89,62347,5,2,0:0:0:0:
213,146,62520,1,0,0:0:0:0:
219,203,62692,2,0,L|224:272,1,48.1799998529663,0|2,0:0|0:0,0:0:0:0:
299,224,63037,5,0,0:0:0:0:
293,167,63210,1,0,0:0:0:0:
287,110,63382,1,2,0:0:0:0:
281,54,63555,1,2,0:0:0:0:
256,192,64072,12,0,66141,0:0:0:0:
392,49,66485,5,8,0:0:0:0:
392,49,66830,6,0,L|378:148,1,70.0800017109376,14|0,0:0|0:0,0:0:0:0:
368,201,67175,1,2,0:0:0:0:
284,212,67347,2,0,L|298:113,1,70.0800017109376,0|8,0:0|0:0,0:0:0:0:
308,60,67692,1,2,0:0:0:0:
204,78,67865,6,0,L|134:87,1,70.0800017109376,0|0,0:0|0:0,0:0:0:0:
79,151,68210,2,0,L|9:160,1,70.0800017109376,10|0,0:0|0:0,0:0:0:0:
36,239,68554,1,2,0:0:0:0:
119,227,68727,2,0,L|189:218,1,70.0800017109376,2|8,0:0|0:0,0:0:0:0:
271,205,69072,1,2,0:0:0:0:
374,188,69244,6,0,L|388:287,1,70.0800017109376,0|0,0:0|0:0,0:0:0:0:
322,315,69589,2,0,L|336:414,1,70.0800017109376,10|0,0:0|0:0,0:0:0:0:
250,361,69934,1,2,0:0:0:0:
250,277,70106,2,0,L|236:178,1,70.0800017109376,0|8,0:0|0:0,0:0:0:0:
231,123,70451,1,2,0:0:0:0:
161,201,70623,6,0,P|162:256|89:341,1,140.160003421875,0|10,0:0|0:0,0:0:0:0:
32,333,71141,1,0,0:0:0:0:
69,258,71313,2,0,P|58:218|34:180,1,70.0800017109376,2|2,0:0|0:0,0:0:0:0:
161,201,71658,2,0,P|171:240|195:278,1,70.0800017109376,8|2,0:0|0:0,0:0:0:0:
236,338,72003,6,0,L|305:328,1,70.0800017109376,0|0,0:0|0:0,0:0:0:0:
388,316,72347,2,0,L|457:306,1,70.0800017109376,10|0,0:0|0:0,0:0:0:0:
504,236,72692,1,2,0:0:0:0:
419,228,72865,2,0,L|349:237,1,70.0800017109376,0|8,0:0|0:0,0:0:0:0:
265,249,73210,1,2,0:0:0:0:
317,158,73382,6,0,L|307:88,1,70.0800017109376,0|0,0:0|0:0,0:0:0:0:
250,26,73727,2,0,L|180:35,1,70.0800017109376,10|0,0:0|0:0,0:0:0:0:
131,104,74072,1,2,0:0:0:0:
146,186,74244,2,0,L|155:255,1,70.0800017109376,2|8,0:0|0:0,0:0:0:0:
170,338,74589,1,2,0:0:0:0:
256,279,74761,6,0,L|246:209,1,70.0800017109376,0|0,0:0|0:0,0:0:0:0:
234,104,75106,2,0,L|304:94,1,70.0800017109376,10|0,0:0|0:0,0:0:0:0:
385,75,75451,2,0,L|455:65,1,70.0800017109376,2|0,0:0|0:0,0:0:0:0:
394,158,75796,1,8,0:0:0:0:
405,241,75968,2,0,L|415:311,1,70.0800017109376,2|0,0:0|0:0,0:0:0:0:
323,248,76313,6,0,L|313:178,1,70.0800017109376,2|8,0:0|0:0,0:0:0:0:
303,94,76658,1,0,0:0:0:0:
210,159,76830,2,0,L|140:169,1,70.0800017109376,2|0,0:0|0:0,0:0:0:0:
104,267,77175,2,0,L|34:277,1,70.0800017109376,10|0,0:0|0:0,0:0:0:0:
8,379,77520,5,4,0:0:0:0:
8,379,77865,6,0,P|43:366|100:372,1,70.0800017109376,14|0,0:0|0:0,0:0:0:0:
158,377,78210,1,2,0:0:0:0:
123,300,78382,2,0,P|110:265|116:208,1,70.0800017109376,0|8,0:0|0:0,0:0:0:0:
121,150,78727,1,2,0:0:0:0:
209,205,78899,6,0,P|243:203|276:191,1,70.0800017109376,0|0,0:0|0:0,0:0:0:0:
314,116,79244,2,0,P|346:103|381:102,1,70.0800017109376,10|0,0:0|0:0,0:0:0:0:
449,151,79589,1,2,0:0:0:0:
408,224,79761,2,0,P|409:258|421:291,1,70.0800017109376,2|8,0:0|0:0,0:0:0:0:
476,355,80106,1,2,0:0:0:0:
370,357,80279,6,0,P|336:359|303:371,1,70.0800017109376,0|0,0:0|0:0,0:0:0:0:
228,330,80623,2,0,P|215:297|213:262,1,70.0800017109376,10|0,0:0|0:0,0:0:0:0:
269,199,80968,1,2,0:0:0:0:
317,130,81141,2,0,P|329:97|331:62,1,70.0800017109376,0|8,0:0|0:0,0:0:0:0:
269,18,81485,1,2,0:0:0:0:
169,54,81658,6,0,L|191:205,1,140.160003421875,0|10,0:0|0:0,0:0:0:0:
231,266,82175,1,0,0:0:0:0:
311,251,82347,2,0,L|381:241,1,70.0800017109376,2|2,0:0|0:0,0:0:0:0:
392,324,82692,2,0,L|322:334,1,70.0800017109376,8|2,0:0|0:0,0:0:0:0:
223,369,83037,6,0,P|190:382|155:384,1,70.0800017109376,0|0,0:0|0:0,0:0:0:0:
179,303,83382,2,0,P|177:269|165:236,1,70.0800017109376,10|0,0:0|0:0,0:0:0:0:
90,198,83727,1,2,0:0:0:0:
17,155,83899,2,0,P|4:122|2:87,1,70.0800017109376,0|8,0:0|0:0,0:0:0:0:
55,22,84244,1,2,0:0:0:0:
132,93,84416,6,0,P|166:90|199:77,1,70.0800017109376,0|0,0:0|0:0,0:0:0:0:
254,14,84761,2,0,P|286:1|321:-1,1,70.0800017109376,10|0,0:0|0:0,0:0:0:0:
399,30,85106,1,2,0:0:0:0:
368,108,85279,2,0,P|370:142|383:175,1,70.0800017109376,2|8,0:0|0:0,0:0:0:0:
445,230,85623,1,2,0:0:0:0:
383,315,85796,6,0,P|350:327|315:330,1,70.0800017109376,0|0,0:0|0:0,0:0:0:0:
247,379,86141,2,0,P|234:346|231:311,1,70.0800017109376,10|0,0:0|0:0,0:0:0:0:
291,253,86485,1,2,0:0:0:0:
345,188,86658,2,0,P|357:155|360:120,1,70.0800017109376,0|8,0:0|0:0,0:0:0:0:
302,58,87003,1,2,0:0:0:0:
213,188,87175,5,8,0:0:0:0:
213,176,87520,1,8,0:0:0:0:
331,196,87692,1,8,0:0:0:0:
342,187,88037,1,8,0:0:0:0:
382,303,88209,1,0,0:0:0:0:
353,178,88382,1,8,0:0:0:0:
287,340,88554,5,4,0:0:0:0:
287,340,88899,6,0,L|217:330,1,70.0800017109376,12|0,0:0|0:0,0:0:0:0:
134,314,89244,2,0,L|64:304,1,70.0800017109376,2|0,0:0|0:0,0:0:0:0:
120,214,89589,1,8,0:0:0:0:
120,214,89761,1,0,0:0:0:0:
224,230,89934,6,0,L|294:240,1,70.0800017109376,2|0,0:0|0:0,0:0:0:0:
311,157,90279,2,0,P|313:122|326:89,1,70.0800017109376,8|0,0:0|0:0,0:0:0:0:
394,168,90623,2,0,P|392:203|379:236,1,70.0800017109376,2|0,0:0|0:0,0:0:0:0:
478,199,90968,2,0,P|480:164|493:131,1,70.0800017109376,8|0,0:0|0:0,0:0:0:0:
465,286,91313,6,0,P|463:321|450:354,1,70.0800017109376,2|0,0:0|0:0,0:0:0:0:
379,235,91658,2,0,P|381:200|394:167,1,70.0800017109376,8|0,0:0|0:0,0:0:0:0:
308,79,92003,2,0,P|306:114|293:147,1,70.0800017109376,2|0,0:0|0:0,0:0:0:0:
209,69,92347,2,0,P|211:34|224:1,1,70.0800017109376,0|0,0:0|0:0,0:0:0:0:
354,12,92692,6,0,L|424:22,1,70.0800017109376,2|0,0:0|0:0,0:0:0:0:
459,98,93037,2,0,L|449:168,1,70.0800017109376,8|0,0:0|3:0,0:0:0:0:
436,250,93382,2,0,L|426:320,1,70.0800017109376,2|0,0:0|3:0,0:0:0:0:
358,370,93727,2,0,L|288:360,1,70.0800017109376,8|0,0:0|3:0,0:0:0:0:
238,267,94072,6,0,B|166:232|166:305|84:237,1,140.160003421875,2|8,0:0|0:0,0:0:0:0:
54,183,94589,1,0,0:0:0:0:
101,113,94761,2,0,B|173:148|173:75|255:143,1,140.160003421875,2|8,0:0|0:0,0:0:0:0:
285,197,95278,1,0,0:0:0:0:
309,299,95451,5,2,0:0:0:0:
411,275,95623,1,0,0:0:0:0:
387,173,95796,2,0,P|385:138|372:105,1,70.0800017109376,8|0,0:0|0:0,0:0:0:0:
294,73,96141,2,0,P|281:40|279:5,1,70.0800017109376,2|0,0:0|0:0,0:0:0:0:
197,25,96485,2,0,P|209:57|211:92,1,70.0800017109376,8|0,0:0|0:0,0:0:0:0:
130,160,96830,5,2,0:0:0:0:
47,225,97003,1,0,0:0:0:0:
112,308,97175,2,0,P|147:306|180:293,1,70.0800017109376,8|0,0:0|0:0,0:0:0:0:
212,215,97520,2,0,P|244:202|279:200,1,70.0800017109376,2|0,0:0|0:0,0:0:0:0:
346,250,97865,2,0,P|380:248|413:235,1,70.0800017109376,8|0,0:0|0:0,0:0:0:0:
483,314,98210,6,0,L|363:330,1,105.120002566406,2|0,0:0|0:0,0:0:0:0:
330,333,98554,2,0,L|260:343,1,70.0800017109376,8|0,0:0|0:0,0:0:0:0:
287,240,98899,2,0,L|277:170,1,70.0800017109376,2|0,0:0|0:0,0:0:0:0:
379,197,99244,2,0,L|449:187,1,70.0800017109376,8|2,0:0|0:0,0:0:0:0:
428,290,99589,5,6,0:0:0:0:
428,290,99934,6,0,P|393:292|360:305,1,70.0800017109376,12|0,0:0|0:0,0:0:0:0:
294,356,100279,2,0,P|261:368|226:370,1,70.0800017109376,2|0,0:0|0:0,0:0:0:0:
241,266,100623,1,8,0:0:0:0:
241,266,100796,1,0,0:0:0:0:
327,207,100968,6,0,P|339:174|341:139,1,70.0800017109376,2|0,0:0|0:0,0:0:0:0:
279,54,101313,2,0,P|266:86|264:121,1,70.0800017109376,8|0,0:0|0:0,0:0:0:0:
204,34,101658,2,0,P|171:21|136:19,1,70.0800017109376,2|0,0:0|0:0,0:0:0:0:
78,107,102003,2,0,P|110:119|145:121,1,70.0800017109376,8|0,0:0|0:0,0:0:0:0:
251,212,102347,6,0,P|218:199|183:197,1,70.0800017109376,2|0,0:0|0:0,0:0:0:0:
49,241,102692,2,0,P|81:253|116:255,1,70.0800017109376,8|0,0:0|0:0,0:0:0:0:
198,189,103037,2,0,P|232:190|265:203,1,70.0800017109376,2|0,0:0|0:0,0:0:0:0:
306,277,103382,2,0,P|338:289|373:291,1,70.0800017109376,8|0,0:0|0:0,0:0:0:0:
437,207,103727,6,0,L|427:137,1,70.0800017109376,2|0,0:0|0:0,0:0:0:0:
362,82,104072,2,0,L|292:92,1,70.0800017109376,8|0,0:0|0:0,0:0:0:0:
209,101,104416,2,0,L|139:111,1,70.0800017109376,2|0,0:0|0:0,0:0:0:0:
93,181,104761,2,0,L|103:251,1,70.0800017109376,8|0,0:0|0:0,0:0:0:0:
177,324,105106,6,0,B|224:319|224:319|266:345|266:345|326:339,1,140.160003421875,2|8,0:0|0:0,0:0:0:0:
372,284,105623,1,0,0:0:0:0:
316,220,105796,2,0,B|269:215|269:215|227:241|227:241|167:235,1,140.160003421875,2|8,0:0|0:0,0:0:0:0:
80,214,106313,1,0,0:0:0:0:
102,111,106485,5,2,0:0:0:0:
205,133,106658,1,0,0:0:0:0:
183,236,106830,2,0,P|171:268|169:303,1,70.0800017109376,8|0,0:0|0:0,0:0:0:0:
260,251,107175,2,0,P|272:219|274:184,1,70.0800017109376,2|0,0:0|0:0,0:0:0:0:
356,202,107520,2,0,P|344:234|342:269,1,70.0800017109376,8|0,0:0|0:0,0:0:0:0:
383,343,107865,5,2,0:0:0:0:
280,364,108037,1,0,0:0:0:0:
260,251,108210,2,0,P|258:216|246:183,1,70.0800017109376,8|0,0:0|0:0,0:0:0:0:
167,153,108554,2,0,P|154:120|153:85,1,70.0800017109376,2|0,0:0|0:0,0:0:0:0:
210,23,108899,1,8,0:0:0:0:
257,92,109072,1,0,0:0:0:0:
293,17,109244,5,2,0:0:0:0:
293,6,109589,1,8,0:0:0:0:
399,24,109761,1,2,0:0:0:0:
408,16,110106,1,8,0:0:0:0:
444,120,110278,1,2,0:0:0:0:
418,8,110451,1,8,0:0:0:0:
338,112,110623,5,6,0:0:0:0:
