osu file format v14

[General]
AudioFilename: audio.mp3
AudioLeadIn: 0
PreviewTime: 66463
Countdown: 0
SampleSet: None
StackLeniency: 0.3
Mode: 0
LetterboxInBreaks: 0
WidescreenStoryboard: 0

[Editor]
Bookmarks: 20967
DistanceSpacing: 1.5
BeatDivisor: 4
GridSize: 4
TimelineZoom: 2.7

[Metadata]
Title:Whatever I Do (feat. Kostja)
TitleUnicode:Whatever I Do (feat. Kóstja)
Artist:Cartoon
ArtistUnicode:Cartoon
Creator:BoatKrab
Version:Normal
Source:
Tags:dnb drum and bass edm liquicity 2015 alchemy cut short ver Plaudible
BeatmapID:1417186
BeatmapSetID:659040

[Difficulty]
HPDrainRate:5
CircleSize:3
OverallDifficulty:4
ApproachRate:5
SliderMultiplier:1.5
SliderTickRate:1

[Events]
//Background and Video events
0,0,"kid_play_kite_fantasy-1366x768.jpg",0,0
//Break Periods
2,44615,54250
//Storyboard Layer 0 (Background)
//Storyboard Layer 1 (Fail)
//Storyboard Layer 2 (Pass)
//Storyboard Layer 3 (Foreground)
//Storyboard Sound Samples

[TimingPoints]
278,344.827586206897,4,2,1,30,1,0
278,-200,4,2,1,30,0,0
22346,-200,4,2,1,50,0,0
55450,-200,4,2,1,30,0,0
60967,-200,4,1,1,30,0,0
61657,-200,4,1,1,35,0,0
62346,-200,4,1,1,40,0,0
63036,-200,4,1,1,45,0,0
63726,-200,4,3,1,30,0,0
66484,-200,4,2,2,50,0,0
66829,-200,4,2,2,60,0,1
77519,-200,4,2,2,60,0,0
77864,-200,4,2,2,60,0,1
87174,-200,4,2,2,60,0,0
88898,-200,4,2,2,60,0,1
88984,-200,4,2,2,60,0,0
99933,-200,4,2,2,60,0,1
100019,-200,4,2,2,60,0,0
109243,-200,4,2,2,50,0,0
110622,-200,4,2,2,50,0,0
111312,-200,4,2,2,40,0,0
112002,-200,4,2,2,30,0,0
112691,-200,4,2,2,20,0,0
113381,-200,4,3,1,10,0,0

[Colours]
Combo1 : 18,84,192
Combo2 : 221,125,98
Combo3 : 41,132,214
Combo4 : 210,96,79

[HitObjects]
92,220,21312,6,0,L|88:145,2,75,2|2|2,0:0|0:0|0:0,0:0:0:0:
39,319,22346,2,0,P|112:330|176:293,1,150,0|8,1:0|0:0,0:0:0:0:
224,72,23726,1,0,1:0:0:0:
128,132,24071,6,0,L|53:122,2,75,2|10|2,0:0|0:0|0:0,0:0:0:0:
204,216,25105,1,0,1:0:0:0:
300,156,25450,2,0,L|374:146,2,75,2|8|2,0:0|0:0|0:0,0:0:0:0:
204,216,26484,1,2,0:0:0:0:
276,304,26829,6,0,L|350:294,1,75,2|8,0:0|0:0,0:0:0:0:
444,360,27519,1,8,0:0:0:0:
492,260,27864,2,0,P|474:187|482:113,1,150,0|8,1:0|0:0,0:0:0:0:
263,64,29243,6,0,P|229:77|192:83,1,75,0|0,1:0|0:0,0:0:0:0:
84,48,29933,2,0,L|92:132,1,75,8|0,0:0|0:0,0:0:0:0:
64,232,30622,2,0,P|98:217|135:214,1,75,0|0,1:0|0:0,0:0:0:0:
232,272,31312,2,0,P|302:296|372:272,1,150,8|0,0:0|0:0,0:0:0:0:
302,183,32346,6,0,B|294:143|294:143|300:109,1,75,2|8,0:0|1:1,0:0:0:0:
392,44,33036,1,10,1:2:0:0:
472,120,33381,2,0,L|468:269,1,150,0|8,1:0|0:0,0:0:0:0:
256,348,34760,1,0,1:0:0:0:
156,292,35105,6,0,P|120:297|86:314,2,75,2|10|2,0:0|0:0|0:0,0:0:0:0:
240,220,36140,1,0,1:0:0:0:
160,144,36484,1,2,0:0:0:0:
268,112,36829,2,0,P|281:77|283:39,2,75,8|2|0,0:0|0:0|0:0,0:0:0:0:
160,144,37864,2,0,L|80:136,1,75,2|8,0:0|0:0,0:0:0:0:
8,216,38553,1,8,0:0:0:0:
92,292,38898,6,0,P|159:259|232:268,1,150,0|8,1:0|0:0,0:0:0:0:
320,340,39933,1,2,0:0:0:0:
404,268,40278,2,0,L|404:192,1,75,0|2,1:0|0:0,0:0:0:0:
343,100,40967,2,0,P|308:111|271:111,1,75,8|2,0:0|0:0,0:0:0:0:
172,56,41657,6,0,P|137:45|100:45,1,75,0|2,1:0|0:0,0:0:0:0:
12,116,42346,2,0,L|15:228,1,112.5,8|0,0:0|0:0,0:0:0:0:
60,264,43036,2,0,P|60:301|51:337,1,75,0|0,0:0|0:0,0:0:0:0:
160,300,43726,2,2,P|208:271|263:268,1,112.5,0|0,0:0|0:0,0:1:0:0:
315,288,44415,1,4,1:3:0:0:
367,311,55450,6,0,P|364:274|371:238,1,75,0|0,3:0|1:0,0:0:0:0:
456,164,56140,2,0,L|493:161,2,37.5,0|0|0,3:0|3:0|1:0,0:0:0:0:
372,92,56829,2,0,L|297:97,1,75,0|0,3:0|1:0,0:0:0:0:
192,60,57519,2,0,P|196:36|192:12,2,37.5,0|0|0,0:0|0:0|1:0,0:0:0:0:
100,128,58209,2,0,P|92:168|104:216,1,75,0|0,3:0|1:0,0:0:0:0:
184,272,58898,2,0,L|260:268,1,75,0|0,0:0|1:0,0:0:0:0:
364,308,59588,6,0,P|371:272|365:235,1,75,0|0,0:0|1:0,0:0:0:0:
340,184,60105,1,2,0:0:0:0:
340,184,60278,2,0,P|333:148|341:111,1,75,10|2,1:2|1:2,0:0:0:0:
256,192,60967,12,0,63553,0:0:0:0:
464,332,65105,6,0,B|496:272|460:196|460:196|448:232|416:244|416:244|372:232|372:232|328:244,1,300,0|0,3:0|3:0,0:0:0:0:
248,324,66829,6,0,P|211:332|175:324,1,75,4|2,1:2|0:0,0:0:0:0:
80,263,67519,2,0,P|61:268|43:273,2,37.5,10|2|0,1:2|0:0|3:0,0:0:0:0:
172,200,68209,1,8,1:2:0:0:
84,132,68553,2,0,L|90:57,1,75,2|8,0:0|0:0,0:0:0:0:
132,16,69071,1,2,0:0:0:0:
132,16,69243,2,0,P|168:10|205:15,1,75,0|8,3:0|0:0,0:0:0:0:
264,112,69933,2,0,P|301:118|338:111,1,75,2|8,0:0|1:2,0:0:0:0:
440,60,70622,6,0,L|430:172,1,112.5,0|2,3:0|0:0,0:0:0:0:
452,224,71312,2,0,P|416:215|378:221,1,75,2|10,0:0|1:2,0:0:0:0:
324,320,72002,5,0,3:0:0:0:
256,232,72346,1,8,1:2:0:0:
196,328,72691,2,0,P|122:328|62:284,1,150,2|0,0:0|3:0,0:0:0:0:
116,188,73726,1,8,1:2:0:0:
212,128,74071,2,0,L|286:131,1,75,2|8,0:0|0:0,0:0:0:0:
332,164,74588,2,0,L|406:160,1,75,2|0,0:0|0:0,0:0:0:0:
456,132,75105,1,8,0:0:0:0:
456,244,75450,6,0,P|430:271|419:306,1,75,2|8,0:0|0:0,0:0:0:0:
408,364,75967,2,0,P|397:328|371:301,1,75,2|2,0:0|0:0,0:0:0:0:
320,280,76484,1,8,0:0:0:0:
228,344,76829,2,0,P|190:348|153:347,2,75,2|8|0,0:0|1:2|3:0,0:0:0:0:
320,280,77864,6,0,L|316:200,1,75,4|2,1:2|0:0,0:0:0:0:
396,124,78553,2,0,L|436:116,2,37.5,8|2|0,1:2|0:0|3:0,0:0:0:0:
312,48,79243,1,8,1:2:0:0:
232,128,79588,2,0,P|194:131|157:128,1,75,2|8,0:0|0:0,0:0:0:0:
112,96,80105,2,0,P|74:93|37:96,1,75,2|2,0:0|0:0,0:0:0:0:
0,140,80622,1,8,0:0:0:0:
36,248,80967,2,0,P|73:250|110:247,1,75,2|8,0:0|0:0,0:0:0:0:
208,191,81657,6,0,P|263:187|314:210,1,112.5,0|2,3:0|0:0,0:0:0:0:
312,268,82346,2,0,P|349:268|385:257,1,75,2|8,0:0|1:2,0:0:0:0:
452,168,83036,5,0,3:0:0:0:
424,60,83381,1,8,1:2:0:0:
320,100,83726,2,0,L|170:109,1,150,2|2,0:0|3:2,0:0:0:0:
124,212,84760,1,8,1:2:0:0:
20,172,85105,2,0,P|15:227|34:280,2,112.5,2|0|8,0:0|0:0|1:2,0:0:0:0:
124,212,86484,2,0,L|274:203,1,150,2|0,0:0|3:0,0:0:0:0:
316,308,87519,5,8,0:0:0:0:
416,256,87864,2,0,P|427:221|429:184,1,75,0|0,0:0|3:0,0:0:0:0:
372,84,88553,6,0,B|324:96|324:96|224:80,1,150,0|2,3:0|0:0,0:0:0:0:
112,72,89588,2,0,P|115:54|120:36,2,37.5,8|0|0,1:2|0:0|3:0,0:0:0:0:
164,172,90278,1,8,1:2:0:0:
276,180,90622,2,0,L|350:172,1,75,2|8,0:0|1:2,0:0:0:0:
440,100,91312,5,0,3:0:0:0:
368,16,91657,1,8,1:2:0:0:
284,92,92002,2,0,L|209:99,1,75,2|8,0:2|1:2,0:0:0:0:
100,72,92691,1,0,3:0:0:0:
124,180,93036,1,8,1:2:0:0:
47,264,93381,2,0,P|39:300|47:336,1,75,2|8,0:0|1:2,0:0:0:0:
160,359,94071,6,0,P|224:320|308:328,1,150,0|2,3:0|0:0,0:0:0:0:
400,368,95105,1,8,1:2:0:0:
492,304,95450,2,0,L|494:266,2,37.5,0|0|8,3:0|0:0|1:2,0:0:0:0:
392,248,96140,2,0,L|397:173,1,75,2|8,0:0|1:2,0:0:0:0:
472,88,96829,2,0,P|496:88|516:92,2,37.5,0|0|8,3:0|0:0|1:2,0:0:0:0:
368,44,97519,2,0,P|330:49|293:50,1,75,2|8,0:0|1:2,0:0:0:0:
184,28,98209,5,0,3:0:0:0:
84,76,98553,1,8,1:2:0:0:
132,176,98898,1,2,0:0:0:0:
232,128,99243,1,8,1:2:0:0:
332,176,99588,6,0,B|344:244|344:244|328:324,2,150,0|2|0,3:0|0:0|3:0,0:0:0:0:
256,92,101312,1,8,1:2:0:0:
151,132,101657,2,0,P|115:140|76:136,1,75,2|8,0:0|1:2,0:0:0:0:
32,240,102346,2,0,P|57:267|73:303,1,75,0|8,3:0|1:2,0:0:0:0:
185,290,103036,2,0,P|195:254|219:222,2,75,2|8|0,0:0|1:2|3:0,0:0:0:0:
276,356,104071,1,8,1:2:0:0:
372,296,104415,2,0,L|446:303,1,75,2|8,0:0|1:2,0:0:0:0:
500,204,105105,6,0,L|350:188,1,150,4|2,3:0|0:0,0:0:0:0:
284,96,106140,2,0,L|246:99,1,37.5,8|0,1:2|0:0,0:0:0:0:
196,120,106484,2,0,L|158:116,2,37.5,4|0|8,3:0|0:0|1:2,0:0:0:0:
268,208,107174,1,2,0:0:0:0:
220,308,107519,1,8,1:2:0:0:
136,232,107864,2,0,L|140:184,2,37.5,4|0|8,3:0|0:0|1:2,0:0:0:0:
28,256,108553,2,0,L|34:330,1,75,2|8,0:0|1:2,0:0:0:0:
145,344,109243,6,0,L|135:231,2,112.5,4|4|4,3:0|3:0|3:0,0:0:0:0:
256,360,110622,1,4,0:1:0:0:
256,192,110967,12,0,113381,3:0:0:0:
