osu file format v14

[General]
AudioFilename: audio.mp3
AudioLeadIn: 0
PreviewTime: 66463
Countdown: 0
SampleSet: Soft
StackLeniency: 0.3
Mode: 0
LetterboxInBreaks: 0
WidescreenStoryboard: 0

[Editor]
Bookmarks: 48
DistanceSpacing: 1.4
BeatDivisor: 6
GridSize: 4
TimelineZoom: 2.7

[Metadata]
Title:Whatever I Do (feat. Kostja)
TitleUnicode:Whatever I Do (feat. Kóstja)
Artist:Cartoon
ArtistUnicode:Cartoon
Creator:BoatKrab
Version:Insane
Source:
Tags:dnb drum and bass edm liquicity 2015 alchemy cut short ver Plaudible
BeatmapID:1395855
BeatmapSetID:659040

[Difficulty]
HPDrainRate:7
CircleSize:4.3
OverallDifficulty:7
ApproachRate:9
SliderMultiplier:1.7
SliderTickRate:1

[Events]
//Background and Video events
0,0,"kid_play_kite_fantasy-1366x768.jpg",0,0
//Break Periods
//Storyboard Layer 0 (Background)
//Storyboard Layer 1 (Fail)
//Storyboard Layer 2 (Pass)
//Storyboard Layer 3 (Foreground)
//Storyboard Sound Samples

[TimingPoints]
278,344.827586206897,4,2,1,30,1,0
278,-333.333333333333,4,2,1,30,0,0
5622,-100,4,2,1,30,0,0
5795,-333.333333333333,4,2,1,30,0,0
8295,-100,4,2,1,30,0,0
11312,-333.333333333333,4,2,1,30,0,0
16657,-100,4,2,1,30,0,0
16829,-333.333333333333,4,2,1,30,0,0
19415,-100,4,2,1,30,0,0
19588,-250,4,2,1,30,0,0
22346,-250,4,2,1,50,0,0
55450,-250,4,2,1,30,0,0
60967,-250,4,1,1,30,0,0
61657,-250,4,1,1,35,0,0
62346,-250,4,1,1,40,0,0
63036,-250,4,1,1,45,0,0
63726,-250,4,3,1,30,0,0
66484,-250,4,2,2,40,0,0
66829,-125,4,2,2,60,0,1
77519,-125,4,2,2,60,0,0
77864,-125,4,2,2,60,0,1
87174,-200,4,2,2,60,0,0
88898,-125,4,2,2,60,0,1
88984,-125,4,2,2,60,0,0
99588,-200,4,2,2,60,0,0
99933,-125,4,2,2,60,0,1
100019,-125,4,2,2,60,0,0
109243,-200,4,2,2,50,0,0
110622,-333.333333333333,4,2,2,50,0,0
111312,-333.333333333333,4,2,2,40,0,0
112002,-333.333333333333,4,2,2,30,0,0
112691,-333.333333333333,4,2,2,20,0,0
113381,-333.333333333333,4,3,1,10,0,0

[Colours]
Combo1 : 18,84,192
Combo2 : 221,125,98
Combo3 : 41,132,214
Combo4 : 210,96,79

[HitObjects]
472,208,278,6,0,P|421:199|370:203,1,101.999996887207,4|4,0:3|0:3,0:0:0:0:
248,252,1657,2,0,P|197:255|146:247,1,101.999996887207,4|4,0:3|0:3,0:0:0:0:
80,192,2691,1,0,0:0:0:0:
132,124,3036,2,0,L|124:20,2,101.999996887207,4|4|4,0:3|0:3|0:3,0:0:0:0:
144,288,5105,1,4,0:3:0:0:
132,124,5622,2,0,L|160:120,2,28.3333333333333,0|2|2,0:0|0:0|0:0,0:0:0:0:
120,135,5795,6,0,P|104:183|116:232,1,101.999996887207,4|4,0:3|0:3,0:0:0:0:
240,336,7174,2,0,P|255:288|243:239,1,101.999996887207,4|4,0:3|0:3,0:0:0:0:
132,280,8381,2,0,L|88:288,2,28.3333333333333,0|2|0,0:0|0:0|0:0,0:0:0:0:
144,288,8553,5,4,0:3:0:0:
256,192,8640,12,0,10967,0:0:0:0:
392,336,11312,6,0,B|394:296|394:296|404:276|404:276|406:236,1,101.999996887207,4|4,0:3|0:3,0:0:0:0:
280,132,12691,2,0,B|277:172|277:172|267:191|267:191|265:231,1,101.999996887207,4|4,0:3|0:3,0:0:0:0:
316,296,13726,1,0,0:0:0:0:
443,199,14071,2,0,P|392:199|346:218,2,101.999996887207,4|4|4,0:3|0:3|0:3,0:0:0:0:
367,361,16140,1,4,0:3:0:0:
265,215,16657,2,0,L|268:184,2,28.3333333333333,0|2|0,0:0|0:0|0:0,0:0:0:0:
260,228,16829,6,0,B|295:229|295:229|324:223|324:223|360:225,1,101.999996887207,4|4,0:3|0:3,0:0:0:0:
244,340,18209,2,0,B|208:338|208:338|179:344|179:344|143:342,1,101.999996887207,4|4,0:3|0:3,0:0:0:0:
208,240,19415,2,0,L|212:200,2,28.3333333333333,0|2|2,0:0|0:0|0:0,0:0:0:0:
212,252,19588,5,4,0:3:0:0:
256,192,19674,12,4,20967,0:3:0:0:
336,140,21312,5,2,0:0:0:0:
391,73,21657,1,2,0:0:0:0:
419,154,22002,1,2,0:0:0:0:
336,140,22346,6,0,P|269:124|202:129,1,136,0|8,1:0|0:0,0:0:0:0:
202,129,23726,1,0,1:0:0:0:
254,201,24071,1,2,0:0:0:0:
165,207,24415,1,10,0:0:0:0:
293,122,24760,1,2,0:0:0:0:
302,275,25105,5,0,1:0:0:0:
302,275,25450,2,0,L|234:284,2,68,2|8|2,0:0|0:0|0:0,0:0:0:0:
376,332,26484,1,2,0:0:0:0:
376,332,26829,2,0,L|426:324,1,51,2|0,0:0|0:0,0:0:0:0:
442,339,27174,2,0,L|510:328,1,68,8|8,0:0|0:0,0:0:0:0:
492,160,27864,6,0,B|356:148,1,136,0|8,1:0|0:0,0:0:0:0:
351,141,29243,5,0,1:0:0:0:
424,154,29415,1,0,0:0:0:0:
496,166,29588,1,0,0:0:0:0:
351,141,29933,5,8,0:0:0:0:
496,166,30278,1,0,0:0:0:0:
348,126,30622,5,0,1:0:0:0:
423,154,30794,1,0,0:0:0:0:
498,180,30967,1,0,0:0:0:0:
348,126,31312,5,8,0:0:0:0:
402,280,32002,1,0,0:0:0:0:
402,280,32346,2,0,L|351:276,1,51,2|0,0:0|0:0,0:0:0:0:
328,288,32691,2,0,L|277:291,1,51,8|0,1:1|0:0,0:0:0:0:
256,280,33036,2,0,P|228:296|212:316,1,51,10|0,1:2|0:0,0:0:0:0:
232,328,33381,6,0,L|224:192,1,136,0|8,1:0|0:0,0:0:0:0:
232,328,34760,1,0,1:0:0:0:
224,192,35105,2,0,L|219:124,2,68,2|10|2,0:0|0:0|0:0,0:0:0:0:
152,243,36140,2,0,P|119:235|92:215,1,68,0|2,1:0|0:0,0:0:0:0:
233,280,36829,2,0,P|242:312|238:346,2,68,8|2|0,0:0|0:0|0:0,0:0:0:0:
233,280,37864,2,0,L|182:286,1,51,2|0,0:0|0:0,0:0:0:0:
160,288,38209,1,8,0:0:0:0:
320,272,38553,1,8,0:0:0:0:
160,288,38898,6,0,L|25:304,1,136,0|8,1:0|0:0,0:0:0:0:
25,304,39933,5,2,0:0:0:0:
92,296,40105,1,2,0:0:0:0:
160,328,40278,1,0,1:0:0:0:
227,359,40450,1,0,0:0:0:0:
294,350,40622,1,2,0:0:0:0:
25,304,40967,5,8,0:0:0:0:
294,350,41312,1,2,0:0:0:0:
25,304,41657,5,0,1:0:0:0:
92,296,41829,1,0,0:0:0:0:
160,288,42002,1,2,0:0:0:0:
25,304,42346,5,8,0:0:0:0:
92,296,43036,5,0,0:0:0:0:
160,288,43208,1,0,0:0:0:0:
227,280,43381,1,0,0:0:0:0:
92,296,43726,2,2,P|80:238|93:181,1,119,0|0,0:0|0:0,0:1:0:0:
112,192,44415,6,0,B|184:184|184:184|216:196|248:228|248:228|268:168|256:112|256:112|284:144|292:180|292:180|336:152|380:152|380:152|424:172|424:172|476:160|476:160|456:200|456:200|464:240|488:272|488:272|472:352|472:352|456:320|452:286,1,816,4|0,0:3|3:0,0:0:0:0:
452,286,49933,6,0,B|384:271|384:271|304:295|220:311|132:195|220:83|356:91|404:223|344:267|284:315|228:323|171:287|171:287|112:251|39:285|39:285|80:275|104:293,1,816,0|0,0:0|3:0,0:0:0:0:
103,292,55450,6,0,P|86:293|68:299,1,34,0|0,3:0|0:0,0:0:0:0:
160,219,55795,2,0,P|148:206|132:196,1,34,0|0,1:0|0:0,0:0:0:0:
252,215,56140,2,0,P|253:198|251:179,1,34,0|0,3:0|3:0,0:0:0:0:
314,282,56484,2,0,P|327:272|340:258,1,34,0|0,1:0|0:0,0:0:0:0:
448,186,56829,6,0,L|447:153,1,34,0|0,3:0|0:0,0:0:0:0:
327,147,57174,2,0,L|328:114,1,34,0|0,1:0|0:0,0:0:0:0:
408,66,57519,2,0,L|407:33,1,34,0|0,3:2|3:0,0:0:0:0:
240,126,57864,2,0,L|241:93,1,34,0|0,1:0|0:0,0:0:0:0:
89,149,58209,6,0,P|122:157|156:154,2,68,0|0|0,3:0|1:0|3:0,0:0:0:0:
120,50,59071,1,0,0:0:0:0:
120,50,59243,2,0,P|126:65|128:82,1,34,0|0,1:0|0:0,0:0:0:0:
100,226,59588,6,0,L|32:222,1,68,0|0,3:0|1:0,0:0:0:0:
89,149,60105,1,2,0:0:0:0:
89,149,60278,2,0,L|156:152,1,68,10|2,1:2|1:2,0:0:0:0:
240,158,60795,1,0,0:0:0:0:
146,298,60967,5,0,0:0:0:0:
231,304,61140,1,0,0:0:0:0:
278,234,61312,1,0,0:0:0:0:
193,228,61484,1,0,0:0:0:0:
269,380,61657,5,0,0:0:0:0:
363,240,61829,1,0,0:0:0:0:
231,304,62002,1,0,0:0:0:0:
401,316,62174,1,0,0:0:0:0:
326,164,62346,5,0,0:0:0:0:
316,310,62519,1,0,0:0:0:0:
448,246,62691,1,8,0:2:0:0:
278,234,62864,1,0,0:0:0:0:
486,322,63036,1,8,0:2:0:0:
459,98,63209,1,8,0:2:0:0:
240,158,63381,1,0,0:0:0:0:
448,246,63553,1,8,0:2:0:0:
448,246,64071,6,0,L|453:175,1,68
256,192,65105,12,0,66484,3:0:0:0:
421,295,66829,6,0,P|354:285|286:284,1,136,4|0,1:2|0:0,0:0:0:0:
148,356,67346,2,0,L|216:348,1,68,0|10,3:0|1:2,0:0:0:0:
286,284,67691,1,0,0:0:0:0:
204,160,67864,2,0,P|201:194|209:227,1,68,0|0,3:0|0:0,0:0:0:0:
383,275,68209,2,0,P|355:215|296:185,1,136,8|2,1:2|0:0,0:0:0:0:
218,294,68726,2,0,L|286:284,1,68,0|8,3:0|1:2,0:0:0:0:
160,184,69071,1,2,0:0:0:0:
112,263,69243,6,0,P|100:295|99:329,1,68,0|0,3:0|0:0,0:0:0:0:
240,200,69588,2,0,P|238:167|227:135,1,68,8|0,1:2|0:0,0:0:0:0:
215,327,69933,1,2,0:0:0:0:
317,209,70105,1,0,3:0:0:0:
160,184,70278,2,0,L|92:187,1,68,8|0,1:2|0:0,0:0:0:0:
317,209,70622,6,0,P|384:209|452:215,1,136,0|8,3:0|1:2,0:0:0:0:
400,296,71140,1,2,0:0:0:0:
240,236,71312,2,0,P|236:202|244:169,1,68,2|0,0:0|3:0,0:0:0:0:
391,73,71656,2,0,P|398:105|395:139,1,68,10|0,1:2|0:0,0:0:0:0:
240,236,72002,5,0,3:0:0:0:
312,108,72174,1,0,0:0:0:0:
375,243,72346,2,0,P|307:239|239:236,1,136,8|2,1:2|0:0,0:0:0:0:
212,328,72864,2,0,L|280:324,1,68,0|8,3:0|1:2,0:0:0:0:
239,236,73209,1,2,0:0:0:0:
152,268,73381,6,0,L|84:272,1,68,0|0,3:0|0:0,0:0:0:0:
237,101,73726,2,0,P|247:168|240:236,1,136,8|2,1:2|0:0,0:0:0:0:
332,204,74243,2,0,P|336:164|332:136,1,68,0|8,3:0|1:2,0:0:0:0:
312,44,74588,1,2,0:0:0:0:
400,76,74760,2,0,L|467:68,1,68,0|0,3:0|0:0,0:0:0:0:
255,172,75105,6,0,P|222:171|188:165,1,68,8|0,1:2|0:0,0:0:0:0:
164,72,75450,2,0,P|197:65|231:64,1,68,2|0,0:0|3:0,0:0:0:0:
400,76,75795,1,8,1:2:0:0:
312,108,75967,6,0,L|308:176,1,68,2|0,0:0|3:0,0:0:0:0:
400,196,76311,2,0,L|396:264,1,68,2|8,0:0|1:2,0:0:0:0:
460,336,76657,1,0,0:0:0:0:
335,359,76829,2,0,P|272:336|204:331,1,136,2|8,0:0|1:2,0:0:0:0:
112,360,77346,1,2,0:0:0:0:
208,236,77519,1,0,3:0:0:0:
208,236,77864,6,0,L|72:243,1,136,4|0,1:2|0:0,0:0:0:0:
124,164,78381,2,0,L|191:160,1,68,0|8,3:0|1:2,0:0:0:0:
276,204,78726,1,2,0:0:0:0:
368,88,78898,2,0,P|367:122|360:155,1,68,0|0,3:0|0:0,3:0:0:0:
308,15,79243,6,0,P|370:-7|432:17,1,136,8|2,1:2|0:0,0:0:0:0:
436,112,79760,2,0,L|361:104,1,68,0|8,3:0|1:2,0:0:0:0:
312,180,80105,1,2,0:0:0:0:
200,107,80278,2,0,P|168:114|140:134,1,68,0|0,3:0|0:0,0:0:0:0:
277,217,80622,2,0,P|287:185|284:152,1,68,8|0,1:2|0:0,0:0:0:0:
143,230,80967,1,2,0:0:0:0:
277,217,81140,1,0,3:0:0:0:
140,135,81312,2,0,L|73:142,1,68,8|0,1:2|0:0,0:0:0:0:
238,251,81657,6,0,P|260:188|232:124,1,136,0|8,3:0|1:2,3:0:0:0:
160,72,82174,1,2,0:0:0:0:
100,188,82346,2,0,L|167:190,1,68,2|0,0:0|3:0,0:0:0:0:
302,124,82691,2,0,L|235:127,1,68,8|0,1:2|0:0,0:0:0:0:
188,281,83036,5,0,3:0:0:0:
280,252,83209,1,0,0:0:0:0:
167,190,83381,2,0,L|32:185,1,136,8|2,1:2|0:0,0:0:0:0:
132,368,83898,1,0,3:0:0:0:
188,281,84071,1,8,1:2:0:0:
45,312,84243,1,2,0:0:0:0:
235,372,84415,2,0,L|302:364,1,68,2|0,3:2|0:0,0:0:0:0:
389,278,84760,6,0,P|327:302|302:363,1,136,8|2,1:2|0:0,0:0:0:0:
468,332,85278,1,0,3:0:0:0:
389,278,85450,1,8,1:2:0:0:
476,236,85622,1,0,0:0:0:0:
376,132,85795,6,0,L|308:138,1,68,0|0,3:0|0:0,0:0:0:0:
264,54,86140,2,0,L|332:48,1,68,8|0,1:2|0:0,0:0:0:0:
264,224,86484,2,0,L|196:217,1,68,2|0,0:0|3:0,0:0:0:0:
360,236,86829,1,8,1:2:0:0:
308,138,87002,1,2,0:0:0:0:
301,314,87174,6,0,P|333:308|364:311,1,63.75,0|0,3:0|0:0,0:0:0:0:
376,320,87519,1,8,0:0:0:0:
211,346,87691,6,0,B|204:313|204:313|212:284,1,63.75,0|0,3:0|0:0,0:0:0:0:
220,272,88036,1,8,0:0:0:0:
120,336,88209,1,0,3:0:0:0:
301,314,88381,1,8,0:0:0:0:
192,169,88553,6,0,L|128:172,1,63.75,0|0,3:0|0:0,0:0:0:0:
115,184,88898,6,0,P|126:151|127:117,1,68,4|0,1:2|0:0,0:0:0:0:
203,14,89243,2,0,P|205:47|216:80,1,68,2|0,0:0|3:0,0:0:0:0:
385,79,89588,1,8,1:2:0:0:
304,28,89760,1,0,0:0:0:0:
260,147,89933,2,0,P|255:198|268:247,1,102,0|0,3:0|0:0,0:0:0:0:
280,251,90278,6,0,P|309:234|342:230,1,68,8|0,1:2|0:0,0:0:0:0:
347,136,90622,2,0,P|381:141|409:159,1,68,2|0,0:0|3:0,0:0:0:0:
473,90,90967,2,0,P|495:115|505:148,1,68,8|0,1:2|0:0,0:0:0:0:
431,293,91312,2,0,P|442:261|465:236,1,68,0|0,3:0|0:0,0:0:0:0:
347,136,91657,6,0,P|316:150|282:152,1,68,8|0,1:2|0:0,0:0:0:0:
242,11,92002,2,0,P|270:30|289:59,1,68,2|0,0:2|3:0,0:0:0:0:
188,164,92346,2,0,P|190:130|205:100,1,68,8|0,1:2|0:0,0:0:0:0:
384,180,92691,2,0,P|382:214|367:244,1,68,0|0,3:2|0:0,0:0:0:0:
231,267,93036,1,8,1:2:0:0:
288,188,93209,1,0,0:0:0:0:
448,256,93381,2,0,L|381:260,1,68,2|0,0:0|3:0,0:0:0:0:
164,264,93726,2,0,L|232:268,1,68,8|0,1:2|0:0,0:0:0:0:
184,116,94071,6,0,P|118:129|78:181,1,136,0|8,3:0|1:2,0:0:0:0:
168,209,94588,1,0,0:0:0:0:
224,32,94760,2,0,B|156:35,1,68,2|0,0:0|3:0,0:0:0:0:
264,200,95105,2,0,B|331:196,1,68,8|0,1:2|0:0,0:0:0:0:
476,192,95450,5,0,3:0:0:0:
400,132,95622,1,0,0:0:0:0:
331,196,95795,2,0,P|326:229|332:262,1,68,8|0,1:2|0:0,0:0:0:0:
476,191,96140,2,0,P|496:128|470:66,1,136,2|8,0:0|1:2,0:0:0:0:
380,44,96657,1,0,0:0:0:0:
322,178,96829,5,0,3:0:0:0:
400,132,97002,1,0,0:0:0:0:
253,118,97174,2,0,P|220:124|188:140,1,68,8|0,1:2|0:0,0:0:0:0:
232,296,97519,2,0,B|244:244|239:194|239:194|215:218,1,136,2|8,0:0|1:2,0:0:0:0:
140,276,98036,1,0,0:0:0:0:
316,216,98209,6,0,P|383:208|451:211,1,136,0|8,3:0|1:2,0:0:0:0:
384,336,98726,1,2,0:0:0:0:
372,344,98812,1,0,0:0:0:0:
360,351,98898,2,0,P|326:354|293:345,1,68,2|0,0:0|3:0,0:0:0:0:
191,223,99243,2,0,P|211:251|220:284,1,68,8|2,1:2|0:0,0:0:0:0:
212,296,99502,1,0,0:0:0:0:
204,308,99588,6,0,L|267:301,1,63.75,0|0,3:0|0:0,0:0:0:0:
280,292,99933,6,0,P|279:325|267:357,1,68,4|0,1:2|0:0,0:0:0:0:
79,303,100278,2,0,P|107:286|141:280,1,68,2|0,0:0|3:0,0:0:0:0:
280,292,100622,1,8,1:2:0:0:
141,280,100795,1,0,0:0:0:0:
280,292,100967,6,0,L|381:299,1,102,0|0,3:0|0:0,0:0:0:0:
387,311,101312,2,0,P|369:283|360:250,1,68,8|0,1:2|0:0,0:0:0:0:
268,236,101657,2,0,P|277:203|296:175,1,68,2|0,0:0|3:0,0:0:0:0:
242,92,102002,2,0,P|273:78|306:75,1,68,8|0,1:2|0:0,0:0:0:0:
459,201,102346,6,0,P|425:197|394:184,1,68,0|0,3:0|0:0,0:0:0:0:
429,43,102691,2,0,P|443:74|448:108,1,68,8|0,1:2|0:0,0:0:0:0:
292,210,103036,2,0,L|306:75,2,136,2|8|0,0:0|1:2|3:0,0:0:0:0:
356,280,103898,1,0,0:0:0:0:
356,280,104071,2,0,P|377:306|407:321,1,68,8|0,1:2|0:0,0:0:0:0:
264,301,104415,2,0,P|257:334|264:367,1,68,2|0,0:0|3:0,0:0:0:0:
188,244,104760,2,0,P|158:260|137:287,1,68,8|0,1:2|0:0,0:0:0:0:
256,176,105105,6,0,P|264:108|259:40,1,136,4|8,3:0|1:2,0:0:0:0:
112,94,105622,1,0,0:0:0:0:
112,94,105795,2,0,L|180:92,1,68,2|0,0:0|3:0,0:0:0:0:
352,180,106140,1,8,1:2:0:0:
256,176,106312,1,0,0:0:0:0:
403,98,106484,5,4,3:0:0:0:
397,265,106657,1,0,0:0:0:0:
307,94,106829,2,0,P|305:60|314:27,1,68,8|0,1:2|0:0,0:0:0:0:
397,265,107174,2,0,L|261:276,1,136,2|8,0:0|1:2,0:0:0:0:
300,191,107691,1,0,0:0:0:0:
312,356,107864,5,4,3:0:0:0:
164,284,108036,1,0,0:0:0:0:
300,191,108209,2,0,L|367:185,1,68,8|0,1:2|0:0,0:0:0:0:
224,136,108553,2,0,P|159:152|100:122,1,136,2|8,0:0|1:2,0:0:0:0:
170,57,109071,1,2,0:0:0:0:
324,68,109243,6,0,P|331:98|332:130,1,63.75,4|0,3:0|0:0,0:0:0:0:
323,140,109588,1,8,0:0:0:0:
232,336,109760,6,0,P|255:314|282:297,1,63.75,4|0,3:0|0:0,0:0:0:0:
295,300,110105,1,8,0:0:0:0:
461,338,110278,5,4,3:0:0:0:
491,159,110450,1,8,0:0:0:0:
355,229,110622,1,4,0:1:0:0:
256,192,110709,12,0,113381,3:0:0:0:
