osu file format v14

[General]
AudioFilename: audio.mp3
AudioLeadIn: 0
PreviewTime: 65136
Countdown: 0
SampleSet: None
StackLeniency: 0.4
Mode: 0
LetterboxInBreaks: 0
WidescreenStoryboard: 1

[Editor]
Bookmarks: 22377,33412,44446,55481,66515,88584,110653,121171,126688,131602,132722,154791,165826,176860,198929,220998
DistanceSpacing: 1
BeatDivisor: 4
GridSize: 32
TimelineZoom: 2.2

[Metadata]
Title:Whatever I Do (Ft. Kostja) (Feint Remix)
TitleUnicode:Whatever I Do (Ft. Kostja) (Feint Remix)
Artist:Cartoon
ArtistUnicode:Cartoon
Creator:Xarr
Version:Hard
Source:
Tags:
BeatmapID:1925767
BeatmapSetID:878647

[Difficulty]
HPDrainRate:4.8
CircleSize:3.6
OverallDifficulty:7
ApproachRate:8
SliderMultiplier:1.5
SliderTickRate:1

[Events]
//Background and Video events
0,0,"wallhaven-695427.jpg",0,0
//Break Periods
//Storyboard Layer 0 (Background)
//Storyboard Layer 1 (Fail)
//Storyboard Layer 2 (Pass)
//Storyboard Layer 3 (Foreground)
//Storyboard Sound Samples

[TimingPoints]
309,344.827586206897,4,2,1,30,1,0
21343,-142.857142857143,4,2,1,20,0,0
21688,-142.857142857143,4,2,1,30,0,0
22033,-142.857142857143,4,2,1,40,0,0
22377,-142.857142857143,4,2,1,50,0,0
33412,-142.857142857143,4,2,1,55,0,0
44446,-111.111111111111,4,2,1,60,0,0
55481,-105.263157894737,4,2,1,70,0,0
60998,-100,4,2,1,45,0,0
61343,-100,4,2,1,50,0,0
61688,-100,4,2,1,55,0,0
62033,-100,4,2,1,60,0,0
62377,-100,4,2,1,65,0,0
62722,-100,4,2,1,70,0,0
63067,-100,4,2,1,75,0,0
63412,-100,4,2,1,80,0,0
63757,-100,4,2,1,45,0,0
63929,-100,4,2,1,50,0,0
64102,-100,4,2,1,55,0,0
64274,-100,4,2,1,60,0,0
64446,-100,4,2,1,65,0,0
64619,-100,4,2,1,70,0,0
64791,-100,4,2,1,75,0,0
64964,-100,4,2,1,80,0,0
65136,-200,4,2,1,60,0,0
65826,-100,4,2,1,60,0,0
65998,-100,4,2,1,60,0,0
66171,-100,4,2,2,80,0,0
66343,-100,4,2,1,80,0,0
66515,-90.9090909090909,4,2,2,80,0,1
85826,-90.9090909090909,4,2,2,80,0,0
87377,-90.9090909090909,4,2,2,80,0,1
88240,-90.9090909090909,4,2,2,80,0,1
88498,-100,4,2,2,5,0,1
88584,-90.9090909090909,4,2,2,80,0,0
109274,-100,4,2,1,50,0,0
109964,-100,4,2,1,70,0,0
110309,-100,4,2,2,70,0,0
110653,-100,4,2,1,40,0,0
110740,-100,4,2,1,80,0,0
114791,-100,4,2,1,20,0,0
115998,-200,4,2,1,40,0,0
118757,-200,4,2,1,40,0,0
121688,-200,4,2,1,40,0,0
123067,-200,4,2,1,40,0,0
124446,-166.666666666667,4,2,1,40,0,0
127033,-200,4,2,1,40,0,0
129791,-200,4,2,1,40,0,0
131688,-142.857142857143,4,2,1,30,0,0
132033,-142.857142857143,4,2,1,35,0,0
132377,-142.857142857143,4,2,1,40,0,0
132722,-142.857142857143,4,2,1,60,0,0
154791,-111.111111111111,4,2,1,70,0,0
165826,-105.263157894737,4,2,1,70,0,0
171343,-100,4,2,1,45,0,0
171688,-100,4,2,1,50,0,0
172033,-100,4,2,1,55,0,0
172377,-100,4,2,1,60,0,0
172722,-100,4,2,1,65,0,0
173067,-100,4,2,1,70,0,0
173412,-100,4,2,1,75,0,0
173757,-100,4,2,1,80,0,0
174102,-100,4,2,1,45,0,0
174274,-100,4,2,1,50,0,0
174446,-100,4,2,1,55,0,0
174619,-100,4,2,1,60,0,0
174791,-100,4,2,1,65,0,0
174964,-100,4,2,1,70,0,0
175136,-100,4,2,1,75,0,0
175309,-100,4,2,1,80,0,0
175481,-200,4,2,1,60,0,0
176171,-100,4,2,1,60,0,0
176343,-100,4,2,1,80,0,0
176515,-100,4,2,2,80,0,0
176688,-100,4,2,1,80,0,0
176860,-90.9090909090909,4,2,2,80,0,1
196171,-100,4,2,2,80,0,0
197722,-90.9090909090909,4,2,2,80,0,1
198584,-100,4,2,2,80,0,1
198843,-100,4,2,2,5,0,1
198929,-90.9090909090909,4,2,2,80,0,0
219619,-100,4,2,1,50,0,0
220309,-100,4,2,1,70,0,0
220653,-100,4,2,2,70,0,0
220998,-100,4,2,2,40,0,0

[Colours]
Combo1 : 179,155,249
Combo2 : 252,101,142

[HitObjects]
31,121,21343,6,0,P|28:93|20:51,1,52.4999983978272
124,167,21688,2,0,P|133:144|142:118,1,52.4999983978272
168,254,22033,2,0,P|193:239|221:222,1,52.4999983978272
253,359,22377,6,0,P|199:348|138:337,1,104.999996795654
129,335,22895,1,0,0:0:0:0:
158,214,23067,2,0,P|108:223|43:236,1,104.999996795654
34,238,23585,1,0,0:0:0:0:
84,121,23757,1,0,0:0:0:0:
84,121,24102,6,0,P|58:127|19:135,1,52.4999983978272
164,55,24446,2,0,P|139:39|113:21,1,52.4999983978272
272,63,24791,2,0,P|263:35|254:2,1,52.4999983978272
386,23,25136,6,0,P|371:69|351:141,2,104.999996795654
392,2,25998,1,0,0:0:0:0:
511,104,26171,2,0,P|485:98|438:86,1,52.4999983978272
361,206,26515,2,0,P|390:197|434:188,1,52.4999983978272
488,322,26860,6,0,P|492:298|502:260,1,52.4999983978272
342,355,27205,2,0,P|362:335|384:316,1,52.4999983978272
217,276,27550,2,0,P|246:279|278:285,1,52.4999983978272
110,373,27895,6,0,P|100:319|87:261,1,104.999996795654
82,249,28412,1,0,0:0:0:0:
227,295,28584,2,0,P|235:242|248:180,1,104.999996795654
251,171,29101,1,0,0:0:0:0:
377,267,29274,6,0,P|349:262|326:257,2,52.4999983978272
203,336,29964,2,0,P|253:346|305:358,1,104.999996795654
311,142,30653,6,0,P|336:137|362:131,2,52.4999983978272
485,210,31343,2,0,P|437:219|382:232,1,104.999996795654
360,239,31860,1,0,0:0:0:0:
453,317,32033,1,0,0:0:0:0:
453,317,32377,6,0,P|493:308|520:304,1,52.4999983978272
429,177,32722,2,0,P|463:199|489:217,1,52.4999983978272
500,65,33067,2,0,P|508:98|514:128,1,52.4999983978272
286,21,33412,6,0,P|331:30|394:43,1,104.999996795654
410,46,33929,1,0,0:0:0:0:
361,146,34102,2,0,P|316:156|253:168,1,104.999996795654
237,171,34619,1,0,0:0:0:0:
327,250,34791,1,0,0:0:0:0:
327,250,35136,6,0,P|353:244|392:236,1,52.4999983978272
247,316,35480,2,0,P|272:332|298:350,1,52.4999983978272
139,308,35825,2,0,P|148:336|157:369,1,52.4999983978272
25,348,36170,6,0,P|40:302|60:230,2,104.999996795654
16,367,37033,1,0,0:0:0:0:
168,371,37205,2,0,P|133:378|107:384,1,52.4999983978272
206,275,37550,2,0,P|231:280|257:285,1,52.4999983978272
97,220,37895,6,0,P|101:243|106:282,1,52.4999983978272
222,136,38240,2,0,P|210:161|196:187,1,52.4999983978272
367,165,38585,2,0,P|338:172|306:178,1,52.4999983978272
482,201,38929,6,0,P|469:143|459:83,1,104.999996795654
457,76,39446,1,0,0:0:0:0:
353,0,39619,2,0,P|343:51|332:102,1,104.999996795654
326,124,40136,1,0,0:0:0:0:
233,21,40309,6,0,P|238:49|243:72,2,52.4999983978272
164,195,40999,2,0,P|154:145|142:93,1,104.999996795654
124,355,41688,6,0,P|129:330|135:304,2,52.4999983978272
56,181,42378,2,0,P|47:229|34:284,1,104.999996795654
23,314,42895,1,0,0:0:0:0:
142,268,43068,1,0,0:0:0:0:
142,268,44446,6,0,P|176:277|230:289,1,67.4999979400635
230,290,44791,1,0,0:0:0:0:
277,200,44964,2,0,P|311:190|365:179,1,67.4999979400635
369,184,45309,1,0,0:0:0:0:
407,266,45482,2,0,P|441:275|495:287,1,67.4999979400635
339,377,45826,6,0,P|333:343|326:305,1,67.4999979400635
318,290,46171,1,0,0:0:0:0:
221,227,46343,2,0,P|215:260|208:299,1,67.4999979400635
207,318,46688,1,0,0:0:0:0:
126,369,46860,1,0,0:0:0:0:
126,369,47033,1,0,0:0:0:0:
45,282,47205,6,0,P|87:273|125:265,1,67.4999979400635
133,261,47550,1,0,0:0:0:0:
183,171,47722,2,0,P|140:162|103:154,1,67.4999979400635
96,150,48067,1,0,0:0:0:0:
36,58,48240,2,0,P|78:49|116:41,1,67.4999979400635
211,1,48584,6,0,P|205:33|198:77,1,67.4999979400635
199,93,48929,1,0,0:0:0:0:
278,142,49102,2,0,P|284:175|291:218,1,67.4999979400635
288,232,49447,1,0,0:0:0:0:
232,306,49619,1,0,0:0:0:0:
232,306,49791,1,0,0:0:0:0:
342,363,49964,6,0,P|375:356|419:348,1,67.4999979400635
431,347,50309,1,0,0:0:0:0:
380,242,50481,2,0,P|413:249|457:257,1,67.4999979400635
469,258,50826,1,0,0:0:0:0:
439,150,50998,2,0,P|472:143|516:135,1,67.4999979400635
361,26,51343,6,0,P|355:59|348:100,1,67.4999979400635
345,124,51688,1,0,0:0:0:0:
251,170,51860,2,0,P|245:136|238:96,1,67.4999979400635
231,76,52205,1,0,0:0:0:0:
147,26,52377,1,0,0:0:0:0:
147,26,52550,1,0,0:0:0:0:
136,120,52722,6,0,P|104:114|69:109,1,67.4999979400635
43,115,53067,1,0,0:0:0:0:
124,234,53240,2,0,P|155:228|190:223,1,67.4999979400635
218,224,53585,1,0,0:0:0:0:
125,343,53757,2,0,P|93:337|58:332,1,67.4999979400635
266,294,54102,6,0,P|259:327|254:360,1,67.4999979400635
253,384,54446,1,0,0:0:0:0:
379,312,54619,2,0,P|372:278|367:245,1,67.4999979400635
366,222,54963,1,0,0:0:0:0:
446,159,55136,1,0,0:0:0:0:
446,159,55309,1,0,0:0:0:0:
365,54,55481,6,0,P|360:91|352:134,1,71.2499980974198
263,194,55826,2,0,P|258:157|250:114,1,71.2499980974198
171,22,56171,2,0,P|166:59|158:102,1,71.2499980974198
69,162,56516,2,0,P|64:125|56:82,1,71.2499980974198
0,246,56860,6,0,P|77:260|142:274,1,142.49999619484
209,341,57377,1,0,0:0:0:0:
294,247,57550,2,0,P|295:279|307:317,1,71.2499980974198
390,366,57895,1,0,0:0:0:0:
390,366,58067,1,0,0:0:0:0:
500,267,58240,6,0,P|511:233|512:197,1,71.2499980974198
471,115,58584,1,0,0:0:0:0:
390,161,58757,1,0,0:0:0:0:
324,96,58929,2,0,P|317:58|313:14,1,71.2499980974198
234,154,59274,2,0,P|230:189|223:224,1,71.2499980974198
49,123,59619,6,0,P|90:84|195:92,1,142.49999619484
234,154,60136,1,0,0:0:0:0:
302,82,60309,2,0,P|337:91|371:96,1,71.2499980974198
232,16,60653,1,0,0:0:0:0:
232,16,60826,1,0,0:0:0:0:
127,26,60998,6,0,P|93:32|50:40,1,75
209,121,61343,2,0,P|249:129|286:135,1,75
97,184,61688,2,0,P|59:191|20:198,1,75
198,280,62033,2,0,P|234:287|275:294,1,75
150,369,62377,5,0,0:0:0:0:
150,369,62550,1,0,0:0:0:0:
90,286,62722,2,0,P|76:249|79:190,1,75
240,117,63067,2,0,P|237:154|224:189,2,75
143,132,63584,1,0,0:0:0:0:
168,248,63757,5,0,0:0:0:0:
171,262,63843,1,0,0:0:0:0:
174,276,63929,1,0,0:0:0:0:
177,290,64015,1,0,0:0:0:0:
181,304,64102,2,0,L|190:343,3,37.5
234,318,64447,2,0,L|232:358,3,37.5
281,349,64791,2,0,L|269:387,3,37.5
367,384,65136,6,0,L|453:364,1,75
440,367,65826,6,0,L|450:306,3,37.5
463,232,66171,1,0,0:0:0:0:
463,232,66515,6,0,P|379:253|304:200,1,165.000005035401
300,125,67033,1,0,0:0:0:0:
372,56,67205,2,0,P|415:64|465:74,1,82.5000025177003
274,6,67550,2,0,P|231:13|193:21,1,82.5000025177003
66,3,67895,6,0,P|89:82|106:162,1,165.000005035401
34,235,68412,1,0,0:0:0:0:
132,274,68584,2,0,P|173:282|226:292,2,82.5000025177003
50,338,69102,1,0,0:0:0:0:
30,215,69274,6,0,P|23:171|12:117,1,82.5000025177003
184,103,69619,2,0,P|177:141|169:198,1,82.5000025177003
88,54,69964,2,0,P|146:0|226:7,1,165.000005035401
285,90,70481,1,0,0:0:0:0:
407,24,70653,6,0,P|398:105|383:187,1,165.000005035401
349,279,71171,1,0,0:0:0:0:
402,366,71343,2,0,P|443:377|492:383,1,82.5000025177003
326,270,71688,2,0,P|285:275|245:286,1,82.5000025177003
124,373,72033,6,0,P|136:286|150:195,1,165.000005035401
214,130,72550,1,0,0:0:0:0:
277,213,72722,2,0,P|283:253|293:293,1,82.5000025177003,0|0,2:0|2:0,2:0:0:0:
345,125,73067,2,0,P|354:84|361:44,1,82.5000025177003
194,26,73412,6,0,L|25:51,1,165.000005035401
40,146,73929,1,0,0:0:0:0:
120,201,74102,2,0,P|136:157|132:112,1,82.5000025177003
31,249,74446,2,0,P|30:289|45:327,1,82.5000025177003
178,369,74791,6,0,P|221:362|282:352,1,82.5000025177003
369,270,75136,2,0,P|334:263|287:256,1,82.5000025177003
259,242,75395,2,0,P|259:186|321:118,1,123.75000377655
467,130,75826,6,0,P|458:85|448:40,1,82.5000025177003
430,20,76084,2,0,B|358:8|376:56|285:39,1,123.75000377655
189,11,76515,6,0,P|183:46|175:93,1,82.5000025177003
156,119,76774,2,0,P|102:156|22:145,1,123.75000377655
0,62,77205,1,0,0:0:0:0:
89,15,77377,1,0,0:0:0:0:
46,156,77550,6,0,P|62:237|76:338,1,165.000005035401
150,374,78067,1,0,0:0:0:0:
231,308,78240,2,0,P|270:314|326:329,1,82.5000025177003
243,189,78584,2,0,P|202:198|162:205,1,82.5000025177003
290,97,78929,6,0,P|347:91|430:174,1,165.000005035401
385,256,79446,1,0,0:0:0:0:
465,323,79619,2,0,P|486:282|479:215,2,82.5000025177003
376,381,80136,1,0,0:0:0:0:
255,301,80309,6,0,P|262:341|271:381,1,82.5000025177003
154,239,80653,2,0,P|161:198|170:158,1,82.5000025177003
133,354,80998,2,0,P|53:350|-4:269,1,165.000005035401
39,199,81515,1,0,0:0:0:0:
2,79,81688,6,0,B|90:61|68:134|167:112,1,165.000005035401
240,55,82205,1,0,0:0:0:0:
331,3,82377,2,0,P|344:41|343:83,1,82.5000025177003
247,227,82722,2,0,P|246:185|259:146,1,82.5000025177003
511,169,83067,6,0,P|429:187|335:204,1,165.000005035401
319,309,83584,1,0,0:0:0:0:
392,366,83757,2,0,P|429:370|475:379,1,82.5000025177003
303,301,84102,2,0,P|262:308|221:313,1,82.5000025177003
71,367,84446,6,0,P|123:300|101:212,1,165.000005035401
18,180,84964,1,0,0:0:0:0:
102,109,85136,2,0,P|108:68|114:23,2,82.5000025177003
143,206,85653,1,0,0:0:0:0:
264,149,85826,5,0,0:0:0:0:
323,327,86343,5,0,0:0:0:0:
444,219,86860,5,0,0:0:0:0:
512,313,87377,5,0,0:0:0:0:
409,330,87550,1,0,0:0:0:0:
409,330,87722,1,0,0:0:0:0:
310,341,87895,2,0,L|217:355,1,82.5000025177003
122,233,88240,2,0,L|203:245,1,82.5000025177003
25,285,88584,6,0,P|13:202|80:139,1,165.000005035401
154,144,89102,1,0,0:0:0:0:
122,51,89274,2,0,L|19:30,1,82.5000025177003
168,159,89619,2,0,L|249:142,1,82.5000025177003
332,53,89964,5,0,0:0:0:0:
332,53,90136,1,0,0:0:0:0:
434,34,90309,2,0,P|433:74|415:112,1,82.5000025177003
290,224,90653,2,0,P|272:183|272:146,1,82.5000025177003
419,247,90998,2,0,P|419:284|399:328,1,82.5000025177003
278,382,91343,6,0,P|214:331|134:331,1,165.000005035401
46,378,91860,1,0,0:0:0:0:
7,285,92033,2,0,P|16:252|34:181,1,82.5000025177003
119,132,92377,2,0,P|127:168|143:216,1,82.5000025177003
45,21,92722,6,0,L|212:44,1,165.000005035401
267,117,93240,1,0,0:0:0:0:
342,59,93412,2,0,P|373:44|434:43,1,82.5000025177003
251,131,93757,2,0,P|213:128|168:102,1,82.5000025177003
84,214,94102,6,0,B|167:193|152:269|258:238,1,165.000005035401
328,190,94619,1,0,0:0:0:0:
395,264,94791,2,0,P|388:297|377:344,1,82.5000025177003
467,184,95136,2,0,P|460:150|451:100,1,82.5000025177003
373,36,95481,5,0,0:0:0:0:
373,36,95653,1,0,0:0:0:0:
300,99,95826,2,0,P|255:98|207:72,1,82.5000025177003
91,14,96171,2,0,P|126:0|172:0,1,82.5000025177003
156,151,96515,2,0,L|138:286,1,123.75000377655
130,310,96860,6,0,P|186:274|266:288,1,123.75000377655
264,301,97205,1,0,0:0:0:0:
430,370,97464,6,0,P|423:310|416:239,1,123.75000377655
475,171,97895,1,0,0:0:0:0:
412,73,98153,6,0,B|344:59|356:103|285:90,1,123.75000377655
208,41,98584,1,0,0:0:0:0:
56,3,98843,6,0,L|74:126,1,123.75000377655
37,216,99274,1,0,0:0:0:0:
118,259,99446,1,0,0:0:0:0:
195,189,99619,6,0,P|218:291|157:352,1,165.000005035401
94,348,100136,1,0,0:0:0:0:
26,280,100309,2,0,P|21:234|11:180,1,82.5000025177003
137,100,100653,2,0,P|127:142|119:202,1,82.5000025177003
37,61,100998,5,0,0:0:0:0:
37,61,101171,1,0,0:0:0:0:
124,9,101343,2,0,P|164:10|204:30,1,82.5000025177003
280,146,101688,2,0,P|242:164|202:164,1,82.5000025177003
325,10,102033,2,0,P|365:8|405:23,1,82.5000025177003
477,122,102377,6,0,P|461:203|449:284,1,165.000005035401
480,384,102895,1,0,0:0:0:0:
370,368,103067,2,0,P|333:376|275:384,2,82.5000025177003
437,274,103584,1,0,0:0:0:0:
355,194,103757,6,0,P|299:183|190:175,1,165.000005035401
110,229,104274,1,0,0:0:0:0:
108,125,104446,2,0,P|103:84|89:20,1,82.5000025177003
18,191,104791,2,0,P|10:227|5:279,1,82.5000025177003
69,376,105136,6,0,P|98:335|208:323,1,165.000005035401
279,380,105653,1,0,0:0:0:0:
347,300,105826,2,0,P|351:261|363:200,2,82.5000025177003
396,384,106343,1,0,0:0:0:0:
480,307,106515,6,0,P|500:347|502:385,1,82.5000025177003
404,224,106860,2,0,P|405:186|426:147,1,82.5000025177003
512,225,107205,1,0,0:0:0:0:
512,225,107377,1,0,0:0:0:0:
461,322,107550,2,0,L|357:333,1,82.5000025177003
282,341,107895,5,0,0:0:0:0:
282,341,108067,1,0,0:0:0:0:
240,228,108240,2,0,P|245:193|262:127,1,82.5000025177003
137,297,108584,2,0,P|142:331|160:398,1,82.5000025177003
65,187,108929,2,0,P|70:152|87:86,1,82.5000025177003
0,270,109274,5,0,0:0:0:0:
0,270,109964,6,0,L|47:263,3,37.5
137,246,110309,1,0,0:0:0:0:
137,246,110653,5,0,0:0:0:0:
256,192,110740,12,0,114791,0:0:0:0:
46,36,115998,6,0,L|49:62,1,18.75
51,82,116171,6,0,B|185:45|155:188|289:147,1,262.5
467,164,118757,6,0,L|461:199,1,18.75
457,207,118929,6,0,P|435:23|350:183,1,487.5
208,267,121688,6,0,B|129:249|38:216|38:216|72:255|100:292,1,262.5
234,366,123067,6,0,P|307:300|271:185,1,225
67,119,124446,6,0,B|0:60|32:-32|120:-43|211:31|160:112|80:173|90:121|14:221|83:297|83:297|61:244|88:198,1,584.999982147217
228,120,127033,6,0,L|231:143,1,18.75
232,162,127205,6,0,B|297:139|336:84|336:84|355:156|410:205,1,262.5
479,315,129791,6,0,L|474:285,1,18.75
471,272,129964,6,0,B|285:211|329:408|142:343,1,356.25
118,333,131688,6,0,P|123:306|129:263,1,52.4999983978272
35,234,132033,2,0,P|52:214|68:193,1,52.4999983978272
0,112,132377,2,0,P|28:101|48:92,1,52.4999983978272
108,29,132722,5,0,0:0:0:0:
108,29,132895,1,0,0:0:0:0:
189,106,133067,2,0,P|197:50|207:-2,1,104.999996795654
296,0,133584,1,0,0:0:0:0:
373,40,133757,2,0,L|448:24,1,52.4999983978272
327,117,134102,6,0,L|275:106,1,52.4999983978272
370,198,134446,1,0,0:0:0:0:
346,287,134791,1,0,0:0:0:0:
346,287,134964,1,0,0:0:0:0:
255,313,135309,1,0,0:0:0:0:
176,264,135481,5,0,0:0:0:0:
176,264,135653,1,0,0:0:0:0:
86,328,135826,2,0,P|78:276|69:224,1,104.999996795654
131,152,136343,1,0,0:0:0:0:
56,97,136515,2,0,P|29:100|4:104,1,52.4999983978272
144,48,136860,6,0,P|169:52|195:55,1,52.4999983978272
279,22,137205,1,0,0:0:0:0:
305,109,137550,1,0,0:0:0:0:
305,109,137722,1,0,0:0:0:0:
375,160,138067,1,0,0:0:0:0:
466,142,138240,5,0,0:0:0:0:
466,142,138412,1,0,0:0:0:0:
512,217,138584,2,0,P|516:272|482:329,1,104.999996795654
412,339,139102,1,0,0:0:0:0:
343,277,139274,2,0,P|348:251|351:225,1,52.4999983978272
265,333,139619,6,0,P|270:358|273:384,1,52.4999983978272
181,286,139964,1,0,0:0:0:0:
214,198,140309,1,0,0:0:0:0:
214,198,140481,1,0,0:0:0:0:
175,110,140826,1,0,0:0:0:0:
84,101,140998,5,0,0:0:0:0:
84,101,141171,1,0,0:0:0:0:
10,23,141343,2,0,P|62:13|113:1,1,104.999996795654
201,46,141860,1,0,0:0:0:0:
178,132,142033,2,0,P|151:128|126:123,1,52.4999983978272
264,174,142377,6,0,P|289:168|315:165,1,52.4999983978272
391,214,142722,1,0,0:0:0:0:
476,174,143067,1,0,0:0:0:0:
476,174,143240,1,0,0:0:0:0:
499,84,143584,1,0,0:0:0:0:
445,13,143757,5,0,0:0:0:0:
445,13,143929,1,0,0:0:0:0:
368,68,144102,2,0,P|320:39|253:41,1,104.999996795654
205,95,144619,1,0,0:0:0:0:
168,177,144791,6,0,P|173:209|179:249,1,52.4999983978272
106,106,145136,2,0,P|109:80|114:54,1,52.4999983978272
25,155,145481,1,0,0:0:0:0:
9,247,145826,1,0,0:0:0:0:
9,247,145998,1,0,0:0:0:0:
64,318,146343,1,0,0:0:0:0:
159,329,146515,5,0,0:0:0:0:
159,329,146688,1,0,0:0:0:0:
251,378,146860,2,0,P|244:325|239:273,1,104.999996795654
205,194,147377,1,0,0:0:0:0:
131,241,147550,2,0,P|98:249|59:256,1,52.4999983978272
223,177,147895,6,0,P|248:182|274:189,1,52.4999983978272
341,258,148240,1,0,0:0:0:0:
436,232,148584,1,0,0:0:0:0:
436,232,148757,1,0,0:0:0:0:
460,139,149102,1,0,0:0:0:0:
407,66,149274,5,0,0:0:0:0:
407,66,149446,1,0,0:0:0:0:
329,119,149619,2,0,P|276:125|224:130,1,104.999996795654
154,80,150136,1,0,0:0:0:0:
84,141,150309,2,0,P|80:169|74:204,1,52.4999983978272
165,58,150653,6,0,P|160:32|157:6,1,52.4999983978272
240,116,150998,1,0,0:0:0:0:
182,190,151343,1,0,0:0:0:0:
182,190,151515,1,0,0:0:0:0:
86,180,151860,1,0,0:0:0:0:
30,113,152033,5,0,0:0:0:0:
30,113,152205,1,0,0:0:0:0:
128,73,152377,2,0,P|119:120|110:200,1,104.999996795654
152,263,152895,1,0,0:0:0:0:
93,334,153067,2,0,P|64:339|22:347,1,52.4999983978272
174,251,153412,6,0,P|199:255|225:261,1,52.4999983978272
287,338,153757,1,0,0:0:0:0:
369,289,154102,1,0,0:0:0:0:
369,289,154274,2,0,L|398:313,2,26.2499991989136
374,194,154619,1,0,0:0:0:0:
269,135,154791,6,0,P|274:173|280:205,1,67.4999979400635
290,221,155136,1,0,0:0:0:0:
163,282,155309,2,0,P|168:243|174:212,1,67.4999979400635
184,196,155654,1,0,0:0:0:0:
59,149,155826,2,0,P|64:187|70:219,1,67.4999979400635
156,91,156171,6,0,P|165:51|170:11,1,67.4999979400635
168,3,156515,1,0,0:0:0:0:
274,88,156688,2,0,P|278:121|286:154,1,67.4999979400635
297,177,157032,1,0,0:0:0:0:
390,135,157205,1,0,0:0:0:0:
390,135,157377,1,0,0:0:0:0:
453,261,157550,6,0,P|420:252|386:248,1,67.4999979400635
367,258,157895,1,0,0:0:0:0:
318,365,158067,2,0,P|285:373|251:377,1,67.4999979400635
232,368,158412,1,0,0:0:0:0:
198,266,158584,2,0,P|165:257|131:253,1,67.4999979400635
32,296,158929,6,0,P|36:327|43:362,1,67.4999979400635
47,384,159274,1,0,0:0:0:0:
142,265,159446,2,0,P|147:236|153:198,1,67.4999979400635
157,177,159791,1,0,0:0:0:0:
76,118,159964,1,0,0:0:0:0:
76,118,160136,1,0,0:0:0:0:
176,59,160309,6,0,P|213:68|273:79,1,67.4999979400635
272,70,160653,1,0,0:0:0:0:
264,199,160826,2,0,P|301:189|361:179,1,67.4999979400635
360,188,161170,1,0,0:0:0:0:
402,84,161343,2,0,P|439:93|499:104,1,67.4999979400635
500,255,161688,6,0,P|512:224|512:190,1,67.4999979400635
505,167,162033,1,0,0:0:0:0:
396,248,162205,2,0,P|395:281|408:312,1,67.4999979400635
432,331,162550,1,0,0:0:0:0:
350,382,162722,1,0,0:0:0:0:
350,382,162895,1,0,0:0:0:0:
269,281,163067,6,0,P|263:315|257:370,1,67.4999979400635
260,372,163412,1,0,0:0:0:0:
161,301,163584,2,0,P|155:266|149:212,1,67.4999979400635
152,210,163929,1,0,0:0:0:0:
58,310,164102,2,0,P|52:344|46:399,1,67.4999979400635
0,211,164446,6,0,P|36:216|82:227,1,67.4999979400635
91,231,164791,1,0,0:0:0:0:
164,108,164964,2,0,P|130:114|97:120,1,67.4999979400635
76,129,165309,1,0,0:0:0:0:
14,63,165481,1,0,0:0:0:0:
14,63,165653,1,0,0:0:0:0:
125,5,165826,6,0,P|161:11|226:19,1,71.2499980974198
234,116,166171,2,0,P|198:120|163:126,1,71.2499980974198
89,219,166515,2,0,P|124:225|159:229,1,71.2499980974198
216,323,166860,2,0,P|180:327|145:333,1,71.2499980974198
309,384,167205,6,0,P|314:316|325:227,1,142.49999619484
380,169,167722,1,0,0:0:0:0:
324,90,167895,2,0,P|283:90|236:114,1,71.2499980974198
211,174,168240,1,0,0:0:0:0:
211,174,168412,1,0,0:0:0:0:
339,258,168584,6,0,P|372:269|408:268,1,71.2499980974198
486,220,168929,1,0,0:0:0:0:
499,129,169102,1,0,0:0:0:0:
431,66,169274,2,0,P|396:73|351:80,1,71.2499980974198
229,0,169619,2,0,P|264:5|298:12,1,71.2499980974198
185,119,169964,6,0,P|126:73|52:80,1,142.49999619484
1,157,170481,1,0,0:0:0:0:
42,245,170653,2,0,P|49:280|57:320,1,71.2499980974198
107,170,170998,1,0,0:0:0:0:
107,170,171171,1,0,0:0:0:0:
45,90,171343,6,0,P|51:49|58:-5,1,75
127,169,171688,2,0,P|132:206|137:243,1,75
228,74,172033,2,0,P|234:33|241:-21,1,75
299,207,172377,2,0,P|305:247|312:302,1,75
381,112,172722,5,0,0:0:0:0:
381,112,172895,1,0,0:0:0:0:
467,169,173067,2,0,P|483:135|486:98,1,75
321,27,173412,2,0,P|324:64|340:97,2,75
417,40,173929,1,0,0:0:0:0:
293,170,174102,5,0,0:0:0:0:
279,167,174188,1,0,0:0:0:0:
265,164,174274,1,0,0:0:0:0:
251,161,174360,1,0,0:0:0:0:
237,157,174447,2,0,L|198:148,3,37.5
223,104,174792,2,0,L|183:106,3,37.5
192,57,175136,2,0,L|154:69,3,37.5
72,0,175481,6,0,L|55:73,1,75
55,73,176171,6,0,L|116:63,3,37.5
189,50,176516,1,0,0:0:0:0:
189,50,176860,6,0,P|175:130|160:249,1,165.000005035401
183,302,177377,1,0,0:0:0:0:
260,237,177550,2,0,P|299:225|340:229,1,82.5000025177003
217,384,177895,2,0,P|176:387|136:375,1,82.5000025177003
0,241,178240,6,0,B|88:222|64:302|164:277,1,165.000005035401
244,234,178757,1,0,0:0:0:0:
294,154,178929,2,0,P|328:133|393:137,2,82.5000025177003
252,246,179446,1,0,0:0:0:0:
185,156,179619,6,0,P|180:117|169:56,1,82.5000025177003
261,262,179964,2,0,P|256:302|245:362,1,82.5000025177003
329,149,180309,2,0,P|407:137|465:192,1,165.000005035401
427,277,180826,1,0,0:0:0:0:
469,380,180998,6,0,P|389:363|308:344,1,165.000005035401
246,269,181515,1,0,0:0:0:0:
136,377,181688,2,0,P|178:368|227:360,1,82.5000025177003
81,293,182033,2,0,P|40:286|0:277,1,82.5000025177003
168,220,182377,6,0,P|156:138|143:56,1,165.000005035401
61,24,182895,1,0,0:0:0:0:
169,32,183067,2,0,P|213:40|282:46,1,82.5000025177003
336,157,183412,2,0,P|295:161|254:169,1,82.5000025177003
387,248,183757,6,0,P|426:215|418:97,1,165.000005035401
344,63,184274,1,0,0:0:0:0:
417,11,184446,2,0,P|458:5|520:-3,2,82.5000025177003
330,75,184964,1,0,0:0:0:0:
243,118,185136,6,0,P|230:79|237:39,1,82.5000025177003
386,179,185481,2,0,P|392:219|379:258,1,82.5000025177003
358,276,185740,2,0,P|295:262|202:245,1,123.75000377655
87,239,186171,6,0,P|94:198|103:152,1,82.5000025177003
85,138,186429,2,0,P|146:110|226:140,1,123.75000377655
399,25,186860,6,0,P|356:32|308:37,1,82.5000025177003
289,29,187119,2,0,P|295:87|306:163,1,123.75000377655
372,222,187550,1,0,0:0:0:0:
464,195,187722,1,0,0:0:0:0:
416,317,187895,6,0,P|337:321|276:259,1,165.000005035401
262,166,188412,1,0,0:0:0:0:
183,241,188584,2,0,P|175:281|168:338,1,82.5000025177003
104,159,188929,2,0,P|96:118|89:62,1,82.5000025177003
0,237,189274,6,0,B|88:217|66:295|155:275,1,165.000005035401
241,217,189791,1,0,0:0:0:0:
308,285,189964,2,0,P|315:321|322:369,2,82.5000025177003
253,207,190481,1,0,0:0:0:0:
365,212,190653,6,0,P|408:217|475:224,1,82.5000025177003
285,115,190998,2,0,P|243:119|203:124,1,82.5000025177003
397,20,191343,6,0,P|389:97|378:190,1,165.000005035401
326,266,191860,1,0,0:0:0:0:
308,374,192033,6,0,P|253:329|149:342,1,165.000005035401
85,384,192550,1,0,0:0:0:0:
23,315,192722,2,0,P|4:277|8:226,1,82.5000025177003
167,163,193067,2,0,P|166:203|148:240,1,82.5000025177003
98,61,193412,6,0,P|175:73|265:86,1,165.000005035401
349,45,193929,1,0,0:0:0:0:
374,144,194102,2,0,P|370:184|362:257,1,82.5000025177003
232,297,194446,2,0,P|228:256|220:184,1,82.5000025177003
332,339,194791,6,0,P|393:343|468:258,1,165.000005035401
469,180,195309,1,0,0:0:0:0:
434,89,195481,2,0,P|439:45|448:-3,2,82.5000025177003
365,161,195998,1,0,0:0:0:0:
249,112,196171,5,0,0:0:0:0:
190,290,196688,5,0,0:0:0:0:
69,182,197205,5,0,0:0:0:0:
1,276,197722,5,0,0:0:0:0:
104,293,197895,1,0,0:0:0:0:
104,293,198067,1,0,0:0:0:0:
203,304,198240,2,0,L|296:318,1,82.5000025177003
375,202,198584,2,0,L|293:214,1,82.5000025177003
452,321,198929,6,0,P|465:244|482:155,1,165.000005035401
453,68,199446,1,0,0:0:0:0:
382,19,199619,2,0,P|342:26|290:31,1,82.5000025177003
394,182,199964,2,0,P|431:186|474:197,1,82.5000025177003
313,236,200309,5,0,0:0:0:0:
313,236,200481,1,0,0:0:0:0:
294,335,200653,2,0,P|335:334|372:317,1,82.5000025177003
219,215,200998,2,0,P|182:197|141:196,1,82.5000025177003
58,360,201343,2,0,P|98:358|135:341,1,82.5000025177003
27,253,201688,6,0,P|17:183|67:103,1,165.000005035401
154,88,202205,1,0,0:0:0:0:
221,157,202377,2,0,P|227:198|236:257,1,82.5000025177003
299,87,202722,2,0,P|305:45|314:-13,1,82.5000025177003
468,146,203067,6,0,P|384:132|300:114,1,165.000005035401
219,62,203584,1,0,0:0:0:0:
123,41,203757,2,0,P|123:88|147:134,1,82.5000025177003
214,240,204102,2,0,P|228:201|227:160,1,82.5000025177003
142,344,204446,6,0,P|184:296|289:304,1,165.000005035401
348,366,204964,1,0,0:0:0:0:
413,281,205136,2,0,P|464:271|529:259,1,82.5000025177003
330,218,205481,2,0,P|289:210|248:203,1,82.5000025177003
397,136,205826,5,0,0:0:0:0:
397,136,205998,1,0,0:0:0:0:
325,196,206171,2,0,P|310:236|315:285,1,82.5000025177003
491,161,206515,2,0,P|492:120|477:81,1,82.5000025177003
228,15,206860,2,0,P|284:9|379:-4,1,123.75000377655
381,6,207205,6,0,P|390:69|352:130,1,123.75000377655
337,134,207550,1,0,0:0:0:0:
272,229,207809,6,0,P|207:219|120:210,1,123.75000377655
61,251,208240,1,0,0:0:0:0:
0,91,208498,6,0,B|68:76|48:127|133:108,1,123.75000377655
197,55,208929,1,0,0:0:0:0:
331,4,209188,6,0,P|322:68|315:167,1,123.75000377655
356,211,209619,1,0,0:0:0:0:
304,284,209791,1,0,0:0:0:0:
359,362,209964,6,0,P|429:370|494:297,1,165.000005035401
474,223,210481,1,0,0:0:0:0:
405,158,210653,2,0,P|396:114|390:55,1,82.5000025177003
315,208,210998,2,0,P|309:248|301:289,1,82.5000025177003
247,134,211343,1,0,0:0:0:0:
247,134,211515,1,0,0:0:0:0:
151,105,211688,6,0,P|131:65|135:12,1,82.5000025177003
281,118,212033,2,0,P|279:158|260:195,1,82.5000025177003
129,279,212377,2,0,P|109:239|113:186,1,82.5000025177003
206,356,212722,6,0,P|289:366|377:377,1,165.000005035401
454,325,213240,1,0,0:0:0:0:
394,252,213412,2,0,P|382:212|370:163,2,82.5000025177003
467,320,213929,1,0,0:0:0:0:
512,226,214102,6,0,P|528:147|474:83,1,165.000005035401
374,69,214619,1,0,0:0:0:0:
297,133,214791,2,0,P|256:142|195:154,1,82.5000025177003
340,230,215136,2,0,P|380:238|420:247,1,82.5000025177003
278,323,215481,6,0,P|187:322|132:254,1,165.000005035401
144,182,215998,1,0,0:0:0:0:
87,108,216171,2,0,P|47:114|-5:125,2,82.5000025177003
185,91,216688,1,0,0:0:0:0:
259,149,216860,6,0,P|323:138|357:105,1,82.5000025177003
400,46,217205,2,0,P|363:27|322:25,1,82.5000025177003
453,126,217550,1,0,0:0:0:0:
453,126,217722,1,0,0:0:0:0:
442,210,217895,2,0,L|431:291,1,82.5000025177003
421,379,218240,5,0,0:0:0:0:
421,379,218412,1,0,0:0:0:0:
312,369,218584,2,0,P|277:374|211:391,1,82.5000025177003
381,266,218928,2,0,P|415:271|482:289,1,82.5000025177003
271,194,219273,2,0,P|236:199|170:216,1,82.5000025177003
336,100,219618,5,0,0:0:0:0:
336,100,220308,6,0,L|329:147,3,37.5
312,237,220653,1,0,0:0:0:0:
312,237,220998,5,0,0:0:0:0:
