osu file format v14

[General]
AudioFilename: audio.mp3
AudioLeadIn: 0
PreviewTime: 65195
Countdown: 0
SampleSet: Soft
StackLeniency: 0.8
Mode: 0
LetterboxInBreaks: 0
WidescreenStoryboard: 1

[Editor]
DistanceSpacing: 0.8
BeatDivisor: 4
GridSize: 4
TimelineZoom: 1.3

[Metadata]
Title:Whatever I Do (feat. Kostja) (Feint Remix)
TitleUnicode:Whatever I Do (feat. Kóstja) (Feint Remix)
Artist:Cartoon
ArtistUnicode:Cartoon
Creator:_tranquility
Version:Plaudible's Insane
Source:
Tags:dnb drum and bass edm feint SquareTude newton- Reform Kujinn xChorse RVMathew Plaudible Celektus yaspo
BeatmapID:1891137
BeatmapSetID:864452

[Difficulty]
HPDrainRate:5.2
CircleSize:3.8
OverallDifficulty:7.8
ApproachRate:8.8
SliderMultiplier:1.58
SliderTickRate:1

[Events]
//Background and Video events
0,0,"h.jpg",0,0
//Break Periods
//Storyboard Layer 0 (Background)
//Storyboard Layer 1 (Fail)
//Storyboard Layer 2 (Pass)
//Storyboard Layer 3 (Foreground)
//Storyboard Sound Samples

[TimingPoints]
368,344.827586206897,4,2,2,20,1,0
21402,-133.333333333333,4,2,3,40,0,0
22436,-153.846153846153,4,2,3,40,0,0
23816,-133.333333333333,4,2,3,40,0,0
27954,-153.846153846153,4,2,3,40,0,0
29333,-133.333333333333,4,2,3,40,0,0
33471,-117.647058823529,4,2,3,40,0,0
43126,-181.818181818181,4,2,3,40,0,0
44505,-86.9565217391304,4,2,3,50,0,0
63816,-86.9565217391304,4,2,3,50,0,0
64161,-86.9565217391304,4,2,3,50,0,0
64505,-86.9565217391304,4,2,3,50,0,0
64850,-86.9565217391304,4,2,3,50,0,0
65195,-105.263157894737,4,2,1,40,0,0
65885,-105.263157894737,4,2,1,40,0,0
66230,-105.263157894737,4,2,1,40,0,0
66316,-105.263157894737,4,2,1,40,0,0
66402,-105.263157894737,4,2,1,40,0,0
66488,-105.263157894737,4,2,1,40,0,0
66574,-80,4,2,1,70,0,1
71316,-80,4,2,1,70,0,1
71402,-80,4,2,1,70,0,1
71488,-80,4,2,1,70,0,1
71574,-80,4,2,1,70,0,1
82350,-80,4,2,1,70,0,1
82436,-80,4,2,1,70,0,1
82522,-80,4,2,1,70,0,1
82608,-80,4,2,1,70,0,1
83471,-80,4,2,1,70,0,1
85885,-80,4,2,1,70,0,0
88643,-86.9565217391304,4,2,1,70,0,0
88902,-86.9565217391304,4,2,1,5,0,0
88988,-86.9565217391304,4,2,1,70,0,0
91661,-86.9565217391304,4,2,1,70,0,0
91747,-86.9565217391304,4,2,1,70,0,0
94419,-86.9565217391304,4,2,1,5,0,0
94505,-86.9565217391304,4,2,1,70,0,0
99936,-86.9565217391304,4,2,1,70,0,0
100022,-86.9565217391304,4,2,1,70,0,0
102695,-86.9565217391304,4,2,1,70,0,0
102781,-86.9565217391304,4,2,1,70,0,0
105454,-86.9565217391304,4,2,1,5,0,0
105540,-86.9565217391304,4,2,1,70,0,0
109419,-86.9565217391304,4,2,1,60,0,0
109505,-86.9565217391304,4,2,1,60,0,0
109678,-133.333333333333,4,2,1,60,0,0
109850,-133.333333333333,4,2,1,60,0,0
110023,-86.9565217391304,4,2,1,70,0,0
110109,-86.9565217391304,4,2,1,60,0,0
110195,-86.9565217391304,4,2,1,60,0,0
110368,-86.9565217391304,4,2,1,70,0,0
110454,-86.9565217391304,4,2,1,60,0,0

[Colours]
Combo1 : 128,255,255
Combo2 : 0,0,160
Combo3 : 0,64,128
Combo4 : 0,128,192

[HitObjects]
136,336,21402,6,0,P|128:299|137:270,1,59.2500022602082,2|0,0:2|0:0,0:0:0:0:
218,222,21747,2,0,P|222:192|214:164,1,59.2500022602082,2|0,0:2|0:0,0:0:0:0:
140,102,22092,1,10,0:2:0:0:
140,102,22178,1,0,0:0:0:0:
140,102,22264,1,0,0:0:0:0:
200,35,22436,6,0,P|248:45|264:50,1,51.3499976493836,6|0,3:2|0:0,0:0:0:0:
302,122,22781,2,0,P|360:105|405:90,1,102.699995298767,8|2,0:0|0:2,0:0:0:0:
483,132,23299,1,0,3:2:0:0:
421,200,23471,2,0,P|414:248|411:263,1,51.3499976493836,8|0,0:2|0:0,0:0:0:0:
342,330,23816,5,0,3:2:0:0:
342,330,24161,2,0,L|266:343,1,59.2500022602082,10|0,0:2|0:0,0:0:0:0:
202,282,24505,2,0,L|126:269,1,59.2500022602082,10|8,0:2|0:2,0:0:0:0:
134,125,24850,2,0,P|141:154|148:183,1,59.2500022602082,2|8,0:2|0:2,0:0:0:0:
75,42,25195,6,0,P|145:28|181:20,1,88.8750033903123,2|0,3:2|0:0,0:0:0:0:
162,24,25540,2,0,P|215:56|288:42,1,118.500004520416,10|2,0:2|0:2,0:0:0:0:
361,9,26057,1,0,3:0:0:0:
434,78,26230,1,10,0:2:0:0:
346,127,26402,1,0,0:0:0:0:
427,186,26574,6,0,P|432:233|439:269,1,59.2500022602082,2|0,3:2|0:0,0:0:0:0:
308,350,26919,2,0,P|320:263|330:238,1,88.8750033903123,10|0,0:2|0:0,0:0:0:0:
326,250,27264,1,10,0:2:0:0:
273,147,27436,1,8,0:2:0:0:
205,222,27609,1,2,0:2:0:0:
129,155,27781,1,10,0:2:0:0:
129,155,27868,1,0,0:0:0:0:
129,155,27954,6,0,P|116:102|112:91,1,51.3499976493836,6|0,3:2|0:0,0:0:0:0:
33,181,28299,2,0,B|17:214|17:214|35:289,1,102.699995298767,8|2,0:0|0:2,0:0:0:0:
99,334,28816,1,0,3:2:0:0:
164,276,28988,1,8,0:2:0:0:
264,373,29161,1,0,3:2:0:0:
321,290,29333,6,0,P|305:237|295:208,1,59.2500022602082,2|2,3:2|3:2,0:0:0:0:
407,124,29678,2,0,P|398:152|390:180,1,59.2500022602082,10|0,0:2|0:0,0:0:0:0:
454,258,30023,1,10,0:2:0:0:
454,258,30195,1,0,0:0:0:0:
303,233,30368,1,2,0:2:0:0:
303,233,30540,1,8,0:0:0:0:
214,280,30712,6,0,P|165:289|144:296,1,59.2500022602082,2|2,3:2|0:2,0:0:0:0:
38,121,31057,2,0,P|91:146|115:199,1,118.500004520416,10|2,0:2|0:2,0:0:0:0:
64,286,31574,1,0,3:2:0:0:
170,368,31747,2,0,L|229:372,1,59.2500022602082,8|0,0:2|0:0,0:0:0:0:
315,318,32092,5,0,3:2:0:0:
315,318,32264,1,0,0:0:0:0:
390,251,32436,1,10,0:2:0:0:
445,335,32609,1,0,0:0:0:0:
445,335,32695,1,0,0:0:0:0:
445,335,32781,1,10,0:2:0:0:
326,350,32954,1,8,0:2:0:0:
249,264,33126,2,0,P|246:234|245:204,1,59.2500022602082,2|8,0:2|0:2,0:0:0:0:
159,125,33471,6,0,P|126:150|102:175,1,67.1500012807846,2|0,3:2|0:0,0:0:0:0:
144,24,33816,2,0,P|210:36|278:38,1,134.300002561569,8|2,0:0|3:2,0:0:0:0:
382,13,34333,1,0,0:2:0:0:
448,97,34505,2,0,P|437:152|435:189,1,67.1500012807846,8|0,3:2|0:0,0:0:0:0:
491,255,34850,5,0,3:2:0:0:
491,255,35023,1,0,0:0:0:0:
428,342,35195,2,0,P|387:331|357:322,1,67.1500012807846,10|0,0:2|3:2,0:0:0:0:
277,258,35540,1,10,0:2:0:0:
370,205,35712,1,8,0:2:0:0:
278,147,35885,1,2,0:2:0:0:
278,147,36057,1,8,0:2:0:0:
173,231,36230,6,0,P|180:289|187:356,1,100.725001921177,2|0,3:2|0:0,0:0:0:0:
184,331,36574,2,0,P|94:351|43:362,1,134.300002561569,10|2,0:2|0:2,0:0:0:0:
19,256,37092,1,0,3:0:0:0:
85,172,37264,1,10,0:2:0:0:
85,172,37436,1,0,0:0:0:0:
162,246,37609,5,2,3:2:0:0:
199,145,37781,1,0,0:0:0:0:
114,77,37954,2,0,P|127:34|128:30,2,33.5750006403923,10|0|0,0:2|0:0|3:2,0:0:0:0:
216,43,38299,2,0,P|269:32|287:29,1,67.1500012807846,10|8,0:2|0:2,0:0:0:0:
392,139,38643,2,0,P|360:131|327:126,1,67.1500012807846,2|8,0:2|0:2,0:0:0:0:
305,136,38902,1,0,0:0:0:0:
305,136,38988,6,0,P|308:177|311:213,1,67.1500012807846,6|0,3:2|0:0,0:0:0:0:
392,302,39333,2,0,P|414:265|501:229,1,134.300002561569,8|2,0:0|0:2,0:0:0:0:
480,122,39850,1,0,3:2:0:0:
388,65,40023,2,0,P|338:78|306:83,1,67.1500012807846,10|2,0:2|3:2,0:0:0:0:
231,24,40368,5,2,3:2:0:0:
166,109,40540,1,2,3:2:0:0:
63,77,40712,2,0,P|63:115|56:171,1,67.1500012807846,10|0,0:2|0:0,0:0:0:0:
88,246,41057,2,0,P|88:284|95:340,1,67.1500012807846,10|0,0:2|0:0,0:0:0:0:
200,223,41402,2,0,P|259:211|277:206,1,67.1500012807846,2|0,0:2|0:0,0:0:0:0:
356,299,41747,6,0,P|324:307|291:313,1,67.1500012807846,2|2,3:2|0:2,0:0:0:0:
459,368,42092,2,0,B|445:330|445:330|464:231,1,134.300002561569,10|2,0:2|0:2,0:0:0:0:
495,135,42609,1,0,3:2:0:0:
415,62,42781,1,8,0:0:0:0:
415,62,42954,1,8,0:0:0:0:
329,162,43126,6,0,P|281:162|272:160,2,43.4500013259888,0|0|2,3:2|0:0|0:2,0:0:0:0:
415,62,43816,1,0,0:0:0:0:
141,132,44505,6,0,P|186:113|246:118,1,90.8500017328263,14|0,3:2|0:0,0:0:0:0:
282,180,44850,1,0,3:0:0:0:
404,108,45023,2,0,L|426:0,2,90.8500017328263,8|0|0,0:2|0:0|3:0,0:0:0:0:
317,259,45540,2,0,P|273:267|231:253,1,90.8500017328263,8|0,0:2|0:0,0:0:0:0:
404,210,45885,6,0,B|418:243|418:243|408:298,1,90.8500017328263,10|0,0:2|0:0,0:0:0:0:
335,354,46230,1,0,3:0:0:0:
230,252,46402,2,0,P|184:248|141:270,2,90.8500017328263,8|0|0,0:2|0:0|3:0,0:0:0:0:
335,354,46919,1,10,0:2:0:0:
313,197,47092,1,8,0:2:0:0:
474,171,47264,6,0,L|457:264,1,90.8500017328263,10|0,0:2|0:0,0:0:0:0:
443,339,47609,1,0,3:0:0:0:
313,197,47781,2,0,P|292:144|300:95,2,90.8500017328263,8|0|0,0:2|0:0|3:0,0:0:0:0:
474,171,48299,2,0,P|437:144|393:136,1,90.8500017328263,8|0,0:2|0:0,0:0:0:0:
272,273,48643,6,0,P|230:290|186:284,2,90.8500017328263,8|0|0,0:2|0:0|3:0,0:0:0:0:
261,111,49161,2,0,P|296:138|313:179,2,90.8500017328263,8|0|0,0:2|0:0|3:0,0:0:0:0:
96,148,49678,1,8,0:2:0:0:
224,197,49850,1,8,0:2:0:0:
21,197,50023,6,0,B|7:164|7:164|17:109,1,90.8500017328263,10|0,0:2|0:0,0:0:0:0:
72,39,50368,1,0,3:0:0:0:
209,108,50540,2,0,P|266:107|299:84,2,90.8500017328263,8|0|0,0:2|0:0|3:0,0:0:0:0:
336,242,51057,2,0,P|337:197|362:159,1,90.8500017328263,8|0,0:2|0:0,0:0:0:0:
182,201,51402,6,0,P|219:224|240:265,1,90.8500017328263,8|0,0:2|0:0,0:0:0:0:
192,344,51747,1,0,3:0:0:0:
80,226,51919,2,0,L|96:130,2,90.8500017328263,8|0|0,0:2|0:0|3:0,0:0:0:0:
149,68,52436,2,0,B|112:46|112:46|55:57,1,90.8500017328263,8|8,0:2|0:2,0:0:0:0:
182,201,52781,6,0,L|287:182,2,90.8500017328263,10|0|0,0:2|0:0|3:0,0:0:0:0:
90,308,53299,2,0,L|-15:289,2,90.8500017328263,8|0|0,0:2|0:0|3:0,0:0:0:0:
118,130,53816,2,0,P|88:175|88:223,1,90.8500017328263,8|0,0:2|0:0,0:0:0:0:
193,306,54161,6,0,P|244:289|275:253,2,90.8500017328263,10|0|0,0:2|0:0|3:0,0:0:0:0:
351,308,54678,2,0,P|362:254|346:210,2,90.8500017328263,8|0|0,0:2|0:0|3:0,0:0:0:0:
190,218,55195,2,0,L|170:117,1,90.8500017328263,8|8,0:2|0:2,0:0:0:0:
310,25,55540,6,0,L|290:125,1,90.8500017328263,14|0,3:2|0:0,0:0:0:0:
457,172,55885,2,0,P|428:206|386:221,1,90.8500017328263,2|0,3:2|0:0,0:0:0:0:
204,123,56230,2,0,P|218:165|253:194,1,90.8500017328263,2|0,3:2|0:0,0:0:0:0:
398,41,56574,2,0,L|380:130,1,90.8500017328263,10|0,3:2|0:0,0:0:0:0:
278,277,56919,6,0,B|235:285|235:285|185:255,1,90.8500017328263,8|0,3:2|0:0,0:0:0:0:
269,104,57264,2,0,L|252:193,1,90.8500017328263,2|0,3:2|0:0,0:0:0:0:
86,161,57609,2,0,L|102:71,1,90.8500017328263,2|0,3:2|0:0,0:0:0:0:
246,15,57954,1,8,3:2:0:0:
179,117,58126,1,10,0:2:0:0:
362,132,58299,6,0,P|403:111|456:125,1,90.8500017328263,8|0,3:2|0:0,0:0:0:0:
374,229,58643,2,0,P|418:236|458:216,1,90.8500017328263,2|0,3:2|0:0,0:0:0:0:
269,104,58988,2,0,P|287:61|337:38,1,90.8500017328263,2|0,3:2|0:0,0:0:0:0:
293,277,59333,2,0,P|322:310|365:321,1,90.8500017328263,8|0,3:2|0:0,0:0:0:0:
221,200,59678,6,0,L|39:231,1,181.700003465653,8|0,3:2|3:2,0:0:0:0:
160,298,60195,1,0,0:0:0:0:
163,124,60368,2,0,B|116:117|116:117|69:145,1,90.8500017328263,0|0,3:2|0:0,0:0:0:0:
293,277,60712,2,0,B|340:284|340:284|387:256,1,90.8500017328263,8|8,3:2|0:2,0:0:0:0:
408,105,61057,5,0,3:2:0:0:
347,174,61230,1,0,3:2:0:0:
377,261,61402,1,2,3:2:0:0:
437,192,61574,1,0,3:2:0:0:
317,85,61747,5,2,3:2:0:0:
284,248,61919,1,0,3:2:0:0:
437,192,62092,1,2,3:2:0:0:
254,160,62264,1,0,3:2:0:0:
228,326,62436,5,0,3:2:0:0:
377,261,62609,1,0,3:2:0:0:
187,238,62781,2,0,P|147:273|131:318,1,90.8500017328263,2|0,3:2|3:2,0:0:0:0:
323,334,63126,5,2,3:2:0:0:
347,174,63299,1,2,3:2:0:0:
167,148,63471,1,0,3:2:0:0:
377,261,63643,1,2,3:2:0:0:
353,88,63816,6,0,L|345:35,3,45.4250008664131,0|0|0|0,3:2|1:2|3:2|1:2,0:0:0:0:
258,147,64161,2,0,L|250:200,3,45.4250008664131,2|0|0|0,3:2|1:2|3:2|1:2,0:0:0:0:
196,64,64505,5,4,3:2:0:0:
164,61,64592,1,0,1:2:0:0:
133,68,64678,1,0,3:0:0:0:
109,89,64764,1,0,1:2:0:0:
94,124,64850,5,0,3:0:0:0:
98,160,64936,1,0,1:2:0:0:
102,196,65023,1,0,3:0:0:0:
106,231,65109,1,0,1:2:0:0:
109,260,65195,5,6,3:3:0:0:
109,260,65885,6,0,L|114:303,3,37.5249989979744,12|8|4|4,0:3|0:3|0:3|0:3,0:0:0:0:
180,204,66230,1,8,0:2:0:0:
189,198,66316,1,8,0:3:0:0:
198,192,66402,1,4,0:3:0:0:
207,186,66488,1,4,0:3:0:0:
216,179,66574,6,0,L|332:198,1,98.75,4|0,3:0|0:0,0:0:0:0:
432,77,66919,2,0,B|381:70|381:70|334:98,1,98.75,10|0,0:2|0:0,0:0:0:0:
423,263,67264,1,2,0:2:0:0:
401,159,67436,1,2,3:2:0:0:
258,316,67609,2,0,L|374:335,1,98.75,10|0,0:2|0:0,0:0:0:0:
163,350,67954,6,0,P|156:302|176:256,1,98.75,0|0,3:2|0:0,0:0:0:0:
344,280,68299,2,0,P|305:310|256:315,1,98.75,10|0,0:2|0:0,0:0:0:0:
188,153,68643,1,2,0:2:0:0:
271,222,68816,1,2,3:2:0:0:
326,68,68988,1,8,0:2:0:0:
125,90,69161,6,0,P|98:159|104:185,1,98.75,2|0,0:2|3:2,0:0:0:0:
271,222,69505,1,0,0:0:0:0:
188,332,69678,2,0,L|287:349,1,98.75,10|0,0:2|0:0,0:0:0:0:
114,276,70023,2,0,L|16:293,1,98.75,2|0,0:2|3:2,0:0:0:0:
156,192,70368,2,0,P|152:138|127:98,1,98.75,10|0,0:2|0:0,0:0:0:0:
114,276,70712,6,0,B|158:304|207:274|207:274|257:245|314:288,1,197.5,2|8,3:2|0:2,0:0:0:0:
250,357,71230,1,2,0:2:0:0:
364,201,71402,1,2,3:2:0:0:
415,317,71574,1,2,3:2:0:0:
281,182,71747,2,0,P|305:134|355:111,1,98.75,10|0,0:2|0:0,0:0:0:0:
415,317,72092,6,0,L|512:299,1,98.75,0|0,3:1|0:0,0:0:0:0:
313,293,72436,2,0,B|307:342|307:342|334:387,1,98.75,10|0,0:2|0:0,0:0:0:0:
384,228,72781,1,2,0:2:0:0:
288,200,72954,1,0,3:2:0:0:
415,317,73126,2,0,P|465:284|480:242,1,98.75,8|0,0:2|0:0,0:0:0:0:
288,200,73471,6,0,L|172:220,1,98.75,0|0,3:2|0:0,0:0:0:0:
361,128,73816,2,0,L|476:148,1,98.75,10|0,0:2|0:0,0:0:0:0:
252,103,74161,1,2,0:2:0:0:
288,200,74333,1,2,3:2:0:0:
327,33,74505,1,8,0:0:0:0:
156,86,74678,6,0,P|152:163|171:194,1,98.75,2|0,0:2|3:2,0:0:0:0:
288,200,75023,1,0,0:0:0:0:
219,354,75195,2,0,B|120:333|120:333,1,98.75,10|0,0:2|0:0,0:0:0:0:
108,296,75454,2,0,L|268:323,1,148.125,0|0,3:2|3:2,0:0:0:0:
323,233,75885,2,0,B|421:212|421:212,1,98.75,10|0,0:2|0:0,0:0:0:0:
434,175,76144,6,0,L|273:202,1,148.125,0|0,3:2|3:2,0:0:0:0:
198,140,76574,2,0,B|99:119|99:119,1,98.75,8|0,0:0|0:0,0:0:0:0:
87,82,76833,2,0,L|247:109,1,148.125,0|0,3:2|3:2,0:0:0:0:
410,73,77264,1,8,0:0:0:0:
311,24,77436,1,0,3:2:0:0:
278,179,77609,6,0,P|279:242|303:275,1,98.75,0|0,3:1|0:0,0:0:0:0:
465,187,77954,2,0,L|360:205,1,98.75,10|0,0:2|0:0,0:0:0:0:
207,238,78299,1,2,0:2:0:0:
229,108,78471,1,0,3:2:0:0:
235,323,78643,2,0,B|184:330|184:330|137:302,1,98.75,8|0,0:2|0:0,0:0:0:0:
26,140,78988,6,0,L|129:158,1,98.75,0|0,3:2|0:0,0:0:0:0:
272,25,79333,2,0,P|238:60|229:108,1,98.75,10|0,0:2|0:0,0:0:0:0:
411,47,79678,1,2,0:2:0:0:
373,207,79850,1,2,3:2:0:0:
319,105,80023,1,8,0:2:0:0:
185,197,80195,6,0,P|259:203|292:181,1,98.75,2|0,0:2|3:2,0:0:0:0:
151,33,80540,1,0,0:0:0:0:
19,132,80712,2,0,L|36:229,1,98.75,10|0,0:2|0:0,0:0:0:0:
185,197,81057,1,2,0:2:0:0:
61,321,81230,1,0,3:2:0:0:
249,363,81402,2,0,B|255:314|255:314|228:269,1,98.75,10|0,0:2|0:0,0:0:0:0:
141,117,81747,6,0,L|336:82,1,197.5,2|8,3:2|0:2,0:0:0:0:
421,196,82264,1,2,0:2:0:0:
436,68,82436,1,2,3:2:0:0:
285,196,82609,1,2,3:2:0:0:
448,283,82781,2,0,P|499:246|513:197,1,98.75,8|0,0:0|0:0,0:0:0:0:
285,196,83126,6,0,L|302:294,1,98.75,0|0,3:1|0:0,0:0:0:0:
176,127,83471,2,0,B|127:121|127:121|81:147,1,98.75,10|0,0:2|0:0,0:0:0:0:
155,250,83816,1,2,0:2:0:0:
285,196,83988,1,0,3:2:0:0:
369,333,84161,2,0,L|466:316,1,98.75,10|0,0:2|0:0,0:0:0:0:
285,196,84505,6,0,P|272:138|293:85,1,98.75,0|0,3:2|0:0,0:0:0:0:
476,105,84850,2,0,P|432:145|376:153,1,98.75,8|0,0:0|0:0,0:0:0:0:
216,40,85195,1,2,0:2:0:0:
393,62,85368,1,2,3:2:0:0:
285,196,85540,1,8,0:0:0:0:
296,101,85712,1,2,0:2:0:0:
88,201,85885,6,0,B|130:225|130:225|179:219,1,98.75,8|0,0:2|0:0,0:0:0:0:
84,218,86402,6,0,B|126:242|126:242|175:236,1,98.75,8|0,0:2|0:0,0:0:0:0:
80,235,86919,6,0,B|122:259|122:259|171:253,1,98.75,10|0,0:2|0:0,0:0:0:0:
76,252,87436,6,0,B|118:276|118:276|167:270,1,98.75,8|10,0:0|0:3,0:0:0:0:
283,179,87781,1,2,0:2:0:0:
146,178,87954,1,10,0:2:0:0:
297,160,88126,1,10,0:3:0:0:
320,309,88299,1,10,0:2:0:0:
322,323,88385,1,8,0:3:0:0:
324,337,88471,1,10,0:3:0:0:
326,351,88557,1,8,0:3:0:0:
327,362,88643,6,0,P|408:349|451:255,1,181.700003465653,6|8,3:2|0:2,0:0:0:0:
297,160,89161,1,0,0:0:0:0:
396,101,89333,1,2,0:2:0:0:
355,266,89505,1,0,3:2:0:0:
209,78,89678,2,0,L|308:60,1,90.8500017328263,8|0,0:2|0:0,0:0:0:0:
190,218,90023,6,0,L|90:200,1,90.8500017328263,0|0,3:2|0:0,0:0:0:0:
300,334,90368,2,0,P|336:306|355:266,1,90.8500017328263,10|0,0:2|0:0,0:0:0:0:
342,148,90712,1,2,0:2:0:0:
190,218,90885,1,0,3:2:0:0:
211,48,91057,2,0,L|300:64,1,90.8500017328263,10|0,0:2|0:0,0:0:0:0:
274,230,91402,6,0,P|225:236|183:210,1,90.8500017328263,2|0,3:2|0:0,0:0:0:0:
403,98,91747,2,0,P|442:118|463:157,1,90.8500017328263,10|0,0:2|0:0,0:0:0:0:
225,133,92092,2,0,P|204:93|211:48,1,90.8500017328263,2|0,0:2|3:2,0:0:0:0:
384,204,92436,2,0,P|377:248|345:280,1,90.8500017328263,10|0,0:2|0:0,0:0:0:0:
301,42,92781,6,0,P|332:10|376:2,1,90.8500017328263,2|0,3:2|0:0,0:0:0:0:
225,133,93126,2,0,L|125:115,1,90.8500017328263,10|0,0:2|0:0,0:0:0:0:
256,272,93471,1,2,0:2:0:0:
384,204,93643,1,0,3:2:0:0:
180,216,93816,2,0,B|157:259|157:259|165:307,1,90.8500017328263,10|0,0:2|0:0,0:0:0:0:
281,116,94161,6,0,L|95:83,1,181.700003465653,2|8,3:2|0:2,0:0:0:0:
33,206,94678,1,0,0:0:0:0:
3,72,94850,1,2,0:2:0:0:
18,225,95023,1,0,3:2:0:0:
179,181,95195,2,0,L|159:289,1,90.8500017328263,8|0,0:2|0:0,0:0:0:0:
277,358,95540,5,2,3:2:0:0:
277,358,95712,1,0,0:0:0:0:
441,268,95885,2,0,P|390:269|342:245,1,90.8500017328263,10|0,0:2|0:0,0:0:0:0:
343,86,96230,1,2,0:2:0:0:
417,178,96402,1,0,3:2:0:0:
257,262,96574,2,0,L|241:172,1,90.8500017328263,8|0,0:0|0:0,0:0:0:0:
217,45,96919,5,2,3:2:0:0:
217,45,97091,1,0,0:0:0:0:
148,179,97264,2,0,P|89:183|49:158,1,90.8500017328263,10|0,0:2|0:0,0:0:0:0:
43,138,97523,2,0,P|99:167|186:146,1,136.275002599239,0|0,3:2|3:2,0:0:0:0:
294,199,97954,2,0,P|353:195|393:220,1,90.8500017328263,8|0,0:2|0:0,0:0:0:0:
399,240,98213,6,0,P|343:211|256:232,1,136.275002599239,0|0,3:2|3:2,0:0:0:0:
156,325,98643,2,0,P|97:329|57:304,1,90.8500017328263,8|0,0:0|0:0,0:0:0:0:
51,284,98902,2,0,P|107:313|194:292,1,136.275002599239,0|0,3:2|3:2,0:0:0:0:
291,194,99333,1,8,0:0:0:0:
124,222,99505,1,0,3:2:0:0:
354,258,99678,6,0,B|382:212|382:212|359:73,1,181.700003465653,2|10,3:2|0:2,0:0:0:0:
215,26,100195,1,2,0:2:0:0:
207,210,100368,1,2,0:2:0:0:
268,109,100540,1,0,3:2:0:0:
108,210,100712,2,0,P|121:265|168:304,1,90.8500017328263,8|0,0:2|0:0,0:0:0:0:
318,322,101057,6,0,L|336:219,1,90.8500017328263,0|0,3:2|0:0,0:0:0:0:
477,97,101402,2,0,B|428:86|428:86|385:108,1,90.8500017328263,10|0,0:2|0:0,0:0:0:0:
253,155,101747,1,2,0:2:0:0:
440,189,101919,1,0,3:2:0:0:
318,322,102092,2,0,L|215:303,1,90.8500017328263,10|0,0:2|0:0,0:0:0:0:
69,239,102436,6,0,P|109:258|153:251,1,90.8500017328263,2|0,3:2|0:0,0:0:0:0:
254,71,102781,2,0,P|209:78|178:110,1,90.8500017328263,10|0,0:2|0:0,0:0:0:0:
196,316,103126,2,0,P|227:284|234:240,1,90.8500017328263,2|0,0:2|3:2,0:0:0:0:
106,86,103470,2,0,P|99:130|120:169,1,90.8500017328263,10|0,0:2|0:0,0:0:0:0:
313,215,103815,6,0,P|292:175|252:154,1,90.8500017328263,2|0,3:2|0:0,0:0:0:0:
96,261,104161,2,0,L|112:363,1,90.8500017328263,10|0,0:2|0:0,0:0:0:0:
234,240,104505,1,2,0:2:0:0:
120,169,104678,1,0,3:2:0:0:
269,65,104850,2,0,L|283:154,1,90.8500017328263,8|0,0:0|0:0,0:0:0:0:
246,319,105195,6,0,B|298:322|324:360|324:360|340:306|400:283,1,181.700003465653,2|8,3:2|0:2,0:0:0:0:
283,154,105712,1,0,0:0:0:0:
234,240,105885,1,2,0:2:0:0:
372,189,106057,1,0,3:2:0:0:
176,122,106230,5,8,0:2:0:0:
176,122,106402,1,0,0:0:0:0:
147,250,106575,2,0,P|196:255|243:231,1,90.8500017328263,2|0,3:2|0:0,0:0:0:0:
309,23,106919,2,0,B|287:64|287:64|293:113,1,90.8500017328263,10|0,0:2|0:0,0:0:0:0:
464,165,107264,2,0,B|469:208|469:208|447:249,1,90.8500017328263,2|2,0:2|3:2,0:0:0:0:
267,248,107609,2,0,B|245:289|245:289|251:338,1,90.8500017328263,8|0,0:2|0:0,0:0:0:0:
372,189,107954,5,2,3:2:0:0:
322,77,108126,1,2,3:2:0:0:
291,158,108299,1,2,3:2:0:0:
403,108,108471,1,0,3:2:0:0:
232,87,108643,5,2,3:2:0:0:
372,189,108816,1,0,3:2:0:0:
393,13,108988,1,0,3:2:0:0:
291,158,109161,1,0,3:2:0:0:
431,260,109333,6,0,P|458:224|463:180,1,90.8500017328263,0|0,3:2|3:2,0:0:0:0:
339,275,109678,2,0,L|345:325,3,29.6250011301041,0|0|0|0,3:2|3:2|3:2|3:2,0:0:0:0:
276,360,110023,1,8,0:2:0:0:
258,356,110109,1,0,3:2:0:0:
240,352,110195,1,0,3:2:0:0:
222,348,110281,1,0,3:2:0:0:
204,344,110368,5,8,0:2:0:0:
177,319,110454,1,0,3:2:0:0:
163,285,110540,1,0,3:2:0:0:
164,248,110626,1,0,3:2:0:0:
182,211,110712,5,6,0:2:0:0:
