osu file format v14

[General]
AudioFilename: audio.mp3
AudioLeadIn: 0
PreviewTime: 65195
Countdown: 0
SampleSet: Soft
StackLeniency: 0.4
Mode: 0
LetterboxInBreaks: 0
WidescreenStoryboard: 1

[Editor]
Bookmarks: 97264
DistanceSpacing: 0.9
BeatDivisor: 4
GridSize: 8
TimelineZoom: 1

[Metadata]
Title:Whatever I Do (feat. Kostja) (Feint Remix)
TitleUnicode:Whatever I Do (feat. Kóstja) (Feint Remix)
Artist:Cartoon
ArtistUnicode:Cartoon
Creator:_tranquility
Version:Mathew's Hard
Source:
Tags:dnb drum and bass edm feint SquareTude newton- Reform Kujinn xChorse RVMathew Plaudible Celektus yaspo
BeatmapID:1836440
BeatmapSetID:864452

[Difficulty]
HPDrainRate:5
CircleSize:4
OverallDifficulty:6
ApproachRate:8
SliderMultiplier:1.1
SliderTickRate:1

[Events]
//Background and Video events
0,0,"h.jpg",0,0
//Break Periods
//Storyboard Layer 0 (Background)
//Storyboard Layer 1 (Fail)
//Storyboard Layer 2 (Pass)
//Storyboard Layer 3 (Foreground)
//Storyboard Sound Samples

[TimingPoints]
368,344.827586206897,4,2,2,7,1,0
368,-125,4,2,2,20,0,0
21402,-125,4,2,2,20,0,0
22436,-125,4,2,3,30,0,0
44505,-100,4,2,3,50,0,0
55540,-90.9090909090909,4,2,3,50,0,0
63816,-90.9090909090909,4,2,3,50,0,0
64161,-90.9090909090909,4,2,3,50,0,0
64505,-90.9090909090909,4,2,3,50,0,0
64850,-90.9090909090909,4,2,3,50,0,0
65195,-90.9090909090909,4,2,1,40,0,0
65885,-90.9090909090909,4,2,1,40,0,0
66230,-90.9090909090909,4,2,1,40,0,0
66316,-90.9090909090909,4,2,1,40,0,0
66402,-90.9090909090909,4,2,1,40,0,0
66488,-90.9090909090909,4,2,1,40,0,0
66574,-81.9672131147541,4,2,1,70,0,1
69678,-81.9672131147541,4,2,1,70,0,1
70712,-81.9672131147541,4,2,1,70,0,1
71057,-81.9672131147541,4,2,1,70,0,1
71316,-81.9672131147541,4,2,1,70,0,1
71402,-81.9672131147541,4,2,1,70,0,1
71488,-81.9672131147541,4,2,1,70,0,1
71574,-81.9672131147541,4,2,1,70,0,1
72092,-81.9672131147541,4,2,1,70,0,1
75195,-81.9672131147541,4,2,1,70,0,1
77436,-81.9672131147541,4,2,1,70,0,0
77609,-81.9672131147541,4,2,1,70,0,1
80712,-81.9672131147541,4,2,1,70,0,1
81747,-81.9672131147541,4,2,1,70,0,1
82092,-81.9672131147541,4,2,1,70,0,1
82350,-81.9672131147541,4,2,1,70,0,1
82436,-81.9672131147541,4,2,1,70,0,1
82522,-81.9672131147541,4,2,1,70,0,1
82608,-81.9672131147541,4,2,1,70,0,1
83126,-81.9672131147541,4,2,1,70,0,1
83471,-81.9672131147541,4,2,1,70,0,1
88643,-81.9672131147541,4,2,1,70,0,0
88902,-81.9672131147541,4,2,1,70,0,0
88988,-81.9672131147541,4,2,1,70,0,0
91661,-81.9672131147541,4,2,1,70,0,0
91747,-81.9672131147541,4,2,1,70,0,0
92092,-81.9672131147541,4,2,1,70,0,0
92436,-81.9672131147541,4,2,1,70,0,0
92781,-81.9672131147541,4,2,1,70,0,0
93126,-81.9672131147541,4,2,1,70,0,0
93471,-81.9672131147541,4,2,1,70,0,0
93816,-81.9672131147541,4,2,1,70,0,0
94161,-81.9672131147541,4,2,1,70,0,0
94419,-81.9672131147541,4,2,1,70,0,0
94505,-81.9672131147541,4,2,1,70,0,0
99936,-81.9672131147541,4,2,1,70,0,0
100022,-81.9672131147541,4,2,1,70,0,0
102695,-81.9672131147541,4,2,1,70,0,0
102781,-81.9672131147541,4,2,1,70,0,0
103126,-81.9672131147541,4,2,1,70,0,0
103471,-81.9672131147541,4,2,1,70,0,0
103816,-81.9672131147541,4,2,1,70,0,0
104161,-81.9672131147541,4,2,1,70,0,0
104505,-81.9672131147541,4,2,1,70,0,0
104850,-81.9672131147541,4,2,1,70,0,0
105195,-81.9672131147541,4,2,1,70,0,0
105454,-81.9672131147541,4,2,1,70,0,0
105540,-81.9672131147541,4,2,1,70,0,0
109419,-81.9672131147541,4,2,1,60,0,0
109505,-81.9672131147541,4,2,1,60,0,0
109678,-81.9672131147541,4,2,1,60,0,0
109850,-81.9672131147541,4,2,1,60,0,0
110023,-81.9672131147541,4,2,1,70,0,0
110109,-81.9672131147541,4,2,1,60,0,0
110195,-81.9672131147541,4,2,1,60,0,0
110368,-81.9672131147541,4,2,1,70,0,0
110454,-81.9672131147541,4,2,1,60,0,0
118988,-81.9672131147541,4,2,1,60,0,0

[Colours]
Combo1 : 128,255,255
Combo2 : 0,0,160
Combo3 : 0,64,128
Combo4 : 0,128,192

[HitObjects]
256,192,21402,6,0,L|256:89,2,88,2|2|10,0:2|0:2|0:2,0:0:0:0:
190,285,22436,6,0,B|118:309|86:261|14:285,1,176,6|2,3:2|0:2,0:0:0:0:
106,212,23471,1,8,0:2:0:0:
190,285,23816,1,0,3:2:0:0:
256,191,24161,2,0,L|256:96,2,88,10|10|2,0:2|0:2|0:2,0:0:0:0:
322,285,25195,6,0,P|310:329|322:380,2,88,2|10|2,3:2|0:2|3:2,0:0:0:0:
406,212,26230,1,10,0:2:0:0:
322,285,26574,1,2,3:2:0:0:
256,191,26919,2,0,L|157:196,2,88,8|10|2,0:0|0:2|0:2,0:0:0:0:
333,106,27954,6,0,L|509:114,1,176,6|2,3:2|0:2,0:0:0:0:
508,113,28988,1,8,0:2:0:0:
435,201,29333,2,0,L|427:255,1,44,2|2,3:2|3:2,0:0:0:0:
383,280,29678,2,0,L|398:383,2,88,10|10|2,0:2|0:2|0:2,0:0:0:0:
337,175,30712,6,0,L|338:129,1,44,2|2,3:2|0:2,0:0:0:0:
339,73,31057,1,10,0:2:0:0:
232,31,31402,2,0,B|255:84|255:84|200:53|142:87,1,176,2|0,0:2|3:2,0:0:0:0:
81,184,32436,2,0,P|39:180|-7:205,2,88,10|10|2,0:2|0:2|0:2,0:0:0:0:
163,264,33471,6,0,P|243:291|327:238,2,176,2|2|0,3:2|0:2|3:2,0:0:0:0:
81,184,35195,1,10,0:2:0:0:
145,89,35540,1,10,0:2:0:0:
256,62,35885,1,2,0:2:0:0:
367,89,36230,6,0,P|388:131|376:184,1,88,2|8,3:2|0:2,0:0:0:0:
314,261,36919,2,0,P|309:304|330:342,1,88,2|8,3:2|0:2,0:0:0:0:
432,289,37609,2,0,L|440:236,1,44,2|0,3:2|0:0,0:0:0:0:
447,189,37954,1,8,2:2:0:0:
465,76,38299,1,10,0:2:0:0:
352,57,38643,1,2,2:2:0:0:
322,167,38988,6,0,B|258:191|210:143|146:167,1,176,6|2,3:2|0:2,0:0:0:0:
37,195,40023,2,0,L|49:255,1,44,10|2,0:2|3:2,0:0:0:0:
94,269,40368,2,0,L|106:329,1,44,2|2,3:2|3:2,0:0:0:0:
140,354,40712,2,0,L|40:347,2,88,10|10|2,0:2|0:2|0:2,0:0:0:0:
254,366,41747,6,0,L|300:362,1,44,2|2,3:2|0:2,0:0:0:0:
344,328,42092,2,0,P|352:282|333:230,1,88,10|2,0:2|0:2,0:0:0:0:
277,148,42781,1,0,0:0:0:0:
169,187,43126,2,0,L|123:183,1,44,0|0,3:2|0:0,0:0:0:0:
79,149,43471,2,0,P|70:103|90:51,1,88,2|0,0:2|0:0,0:0:0:0:
81,64,44505,6,0,P|136:78|206:60,1,110,14|0,3:2|3:3,0:0:0:0:
256,46,45023,1,8,0:2:0:0:
325,68,45195,2,0,P|355:77|402:71,2,55,0|0|8,0:0|3:3|0:2,0:0:0:0:
256,46,45712,1,0,3:3:0:0:
187,67,45885,6,0,P|163:115|179:181,1,110,10|0,0:2|3:3,0:0:0:0:
199,236,46402,1,8,0:2:0:0:
170,301,46574,2,0,P|141:307|108:302,1,55,0|0,0:0|3:3,0:0:0:0:
49,278,46919,1,10,0:2:0:0:
104,232,47092,1,8,0:2:0:0:
68,170,47264,6,0,P|53:119|80:62,1,110,10|0,0:2|3:3,0:0:0:0:
124,17,47781,1,8,0:2:0:0:
184,56,47954,2,0,L|324:61,1,110,0|8,0:0|0:2,0:0:0:0:
366,63,48471,1,0,3:3:0:0:
427,26,48643,6,0,P|459:21|496:24,2,55,8|0|0,0:2|0:0|3:3,0:0:0:0:
366,63,49161,1,8,0:2:0:0:
400,125,49333,2,0,P|412:179|389:233,1,110,0|8,0:0|0:2,0:0:0:0:
351,287,49850,1,8,0:2:0:0:
399,340,50023,6,0,L|276:336,1,110,10|0,0:2|3:0,0:0:0:0:
217,331,50540,1,10,0:2:0:0:
158,290,50712,2,0,P|150:257|163:215,1,55,0|0,0:0|3:0,0:0:0:0:
177,169,51057,2,0,P|179:141|171:115,1,55,8|0,0:2|3:0,0:0:0:0:
122,63,51402,6,0,B|170:80|170:80|261:60,1,110,8|0,0:2|3:0,0:0:0:0:
293,38,51919,1,8,0:2:0:0:
341,90,52092,2,0,P|328:148|361:198,1,110,0|8,0:0|0:2,0:0:0:0:
410,231,52609,1,8,0:2:0:0:
474,200,52781,6,0,L|488:75,1,110,10|0,0:2|3:0,0:0:0:0:
495,19,53299,1,8,0:2:0:0:
428,44,53471,2,0,L|366:40,1,55,0|0,0:0|3:0,0:0:0:0:
322,91,53816,2,0,L|267:94,1,55,8|8,0:2|0:2,0:0:0:0:
197,113,54161,6,0,P|188:179|220:226,1,110,10|0,0:2|3:0,0:0:0:0:
256,268,54678,1,10,0:2:0:0:
208,321,54850,2,0,P|177:326|139:318,2,55,0|0|8,0:0|3:0|0:2,0:0:0:0:
256,268,55368,1,8,0:2:0:0:
304,321,55540,6,0,B|365:336|365:336|429:309,1,121.000003692627,14|2,3:2|3:2,0:0:0:0:
489,279,56057,1,0,0:0:0:0:
451,209,56230,2,0,P|426:216|389:205,1,60.5000018463135,2|0,3:2|0:0,0:0:0:0:
317,185,56574,2,0,P|288:176|259:183,1,60.5000018463135,10|0,3:2|0:0,0:0:0:0:
161,225,56919,6,0,P|219:226|259:183,1,121.000003692627,8|2,3:2|3:2,0:0:0:0:
279,105,57436,1,0,0:0:0:0:
212,62,57609,1,2,3:2:0:0:
212,62,57781,2,0,P|185:72|144:66,1,60.5000018463135,2|8,0:2|3:2,0:0:0:0:
42,55,58126,1,10,0:2:0:0:
42,55,58299,6,0,P|108:45|167:86,1,121.000003692627,8|2,3:2|3:2,0:0:0:0:
182,143,58816,1,0,0:0:0:0:
135,206,58988,2,0,P|128:233|136:275,1,60.5000018463135,2|0,3:2|0:0,0:0:0:0:
202,300,59333,2,0,P|209:273|201:231,1,60.5000018463135,8|0,3:2|0:0,0:0:0:0:
26,184,59678,6,0,P|77:215|146:199,1,121.000003692627,8|0,3:2|3:2,0:0:0:0:
187,147,60195,1,0,0:0:0:0:
187,147,60368,2,0,P|220:156|269:149,1,60.5000018463135,0|0,3:2|0:0,0:0:0:0:
311,111,60712,1,8,3:2:0:0:
246,155,60885,1,8,0:2:0:0:
293,299,61057,6,0,L|306:240,1,60.5000018463135,0|0,3:2|3:2,0:0:0:0:
372,197,61402,2,0,L|385:138,1,60.5000018463135,2|0,3:2|3:2,0:0:0:0:
476,27,61747,1,2,3:2:0:0:
457,97,61919,1,0,3:2:0:0:
343,117,62092,1,2,3:2:0:0:
372,197,62264,1,0,3:2:0:0:
471,291,62436,6,0,L|415:267,1,60.5000018463135,0|0,3:2|3:2,0:0:0:0:
313,335,62781,2,0,L|336:279,1,60.5000018463135,2|0,3:2|3:2,0:0:0:0:
240,187,63126,2,0,L|295:210,1,60.5000018463135,2|2,3:2|3:2,0:0:0:0:
396,141,63471,2,0,L|372:196,1,60.5000018463135,0|2,3:2|3:2,0:0:0:0:
313,335,63816,6,0,L|263:331,3,30.2500009231568,0|0|0|0,3:2|1:2|3:2|1:2,0:0:0:0:
215,303,64161,2,0,L|176:295,3,30.2500009231568,2|0|0|0,3:2|1:2|3:2|1:2,0:0:0:0:
147,235,64505,2,0,L|123:215,3,30.2500009231568,4|0|0|0,3:2|1:2|3:0|1:2,0:0:0:0:
126,142,64850,2,0,L|119:109,3,30.2500009231568,0|0|0|0,3:0|1:2|3:0|1:2,0:0:0:0:
142,42,65195,6,0,B|222:18|246:66|326:42,1,181.500005538941,6|0,3:3|0:0,0:0:0:0:
399,38,65885,2,0,L|390:89,3,30.2500009231568,12|8|4|4,0:3|0:3|0:3|0:3,0:0:0:0:
374,135,66230,2,0,L|383:186,3,30.2500009231568,8|8|4|4,0:2|0:3|0:3|0:3,0:0:0:0:
367,240,66574,6,0,P|301:221|239:263,2,134.199994471131,6|10|2,3:2|0:2|0:2,0:0:0:0:
313,309,67436,1,0,0:0:0:0:
247,251,67609,2,0,P|252:219|243:183,1,67.0999972355653,10|0,0:2|0:0,0:0:0:0:
186,119,67954,6,0,P|188:85|171:52,1,67.0999972355653,0|0,3:2|0:0,0:0:0:0:
96,105,68299,2,0,B|93:140|93:140|108:187,1,67.0999972355653,10|0,0:2|0:0,0:0:0:0:
183,280,68643,1,2,0:2:0:0:
183,280,68816,2,0,B|186:245|186:245|171:198,1,67.0999972355653,2|10,3:2|0:2,0:0:0:0:
102,170,69161,1,2,0:2:0:0:
35,262,69333,6,0,L|102:257,1,67.0999972355653,0|0,3:2|0:0,0:0:0:0:
183,280,69678,2,0,L|249:285,1,67.0999972355653,10|0,0:2|0:0,0:0:0:0:
339,253,70023,1,2,0:2:0:0:
294,178,70195,1,0,0:0:0:0:
366,128,70368,2,0,P|400:135|435:129,1,67.0999972355653,10|0,0:2|0:0,0:0:0:0:
446,20,70712,6,0,P|475:89|444:156,1,134.199994471131,2|8,3:2|0:2,0:0:0:0:
414,219,71230,1,2,0:2:0:0:
442,301,71402,2,0,P|411:292|361:297,1,67.0999972355653,2|2,0:2|3:2,0:0:0:0:
273,363,71747,2,0,P|305:373|339:372,1,67.0999972355653,10|0,0:2|0:0,0:0:0:0:
442,301,72092,6,0,B|442:249|442:249|443:160,1,134.199994471131,0|10,3:2|0:2,0:0:0:0:
312,24,72781,1,2,0:2:0:0:
376,83,72954,1,0,0:0:0:0:
333,158,73126,2,0,P|303:147|250:150,1,67.0999972355653,8|0,0:2|0:0,0:0:0:0:
170,199,73471,5,0,3:2:0:0:
99,147,73643,1,0,0:0:0:0:
99,147,73816,2,0,L|107:75,1,67.0999972355653,10|0,0:2|0:0,0:0:0:0:
202,25,74161,1,2,0:2:0:0:
202,25,74333,2,0,P|196:64|207:98,1,67.0999972355653,2|8,3:2|0:0,0:0:0:0:
308,179,74678,1,2,0:2:0:0:
308,179,74850,6,0,P|280:170|238:173,1,67.0999972355653,0|0,3:2|0:0,0:0:0:0:
159,200,75195,2,0,P|123:236|121:300,1,100.649995853348,10|0,0:2|3:2,0:0:0:0:
118,327,75540,2,0,B|148:346|148:346|191:348,1,67.0999972355653,2|0,0:2|3:2,0:0:0:0:
256,291,75885,6,0,B|240:251|272:235|256:187,2,100.649995853348,10|0|0,0:2|3:2|3:2,0:0:0:0:
301,365,76574,2,0,P|350:370|394:348,1,100.649995853348,8|0,0:0|3:2,0:0:0:0:
425,310,76919,2,0,B|437:281|437:281|433:245,1,67.0999972355653,0|0,0:0|3:2,0:0:0:0:
417,137,77264,1,8,0:0:0:0:
342,181,77436,1,0,3:2:0:0:
257,84,77609,6,0,P|263:118|244:161,1,67.0999972355653,0|0,3:2|0:0,0:0:0:0:
198,216,77954,2,0,P|165:210|115:218,1,67.0999972355653,10|0,0:2|0:0,0:0:0:0:
51,247,78299,1,2,0:2:0:0:
118,302,78471,1,0,0:0:0:0:
131,213,78643,2,0,P|139:177|129:137,1,67.0999972355653,8|0,0:2|0:0,0:0:0:0:
214,40,78988,6,0,L|223:107,1,67.0999972355653,0|0,3:2|0:0,0:0:0:0:
235,193,79333,2,0,P|297:181|357:223,1,134.199994471131,10|2,0:2|0:2,0:0:0:0:
282,331,79850,2,0,P|274:299|281:267,1,67.0999972355653,2|8,3:2|0:2,0:0:0:0:
353,218,80195,1,2,0:2:0:0:
437,283,80368,6,0,P|397:239|426:151,1,134.199994471131,0|10,3:2|0:2,0:0:0:0:
453,95,80885,1,0,0:0:0:0:
399,26,81057,2,0,L|322:30,1,67.0999972355653,2|0,0:2|0:0,0:0:0:0:
260,79,81402,2,0,L|192:75,1,67.0999972355653,10|0,0:2|0:0,0:0:0:0:
104,31,81747,6,0,P|90:91|135:152,1,134.199994471131,2|8,3:2|0:2,0:0:0:0:
199,199,82264,1,2,0:2:0:0:
256,133,82436,2,0,L|256:62,2,67.0999972355653,2|2|8,0:2|3:2|0:0,0:0:0:0:
313,199,82954,1,0,0:0:0:0:
382,292,83126,6,0,P|347:280|301:290,1,67.0999972355653,0|0,3:2|0:0,0:0:0:0:
241,327,83471,2,0,P|185:290|112:308,1,134.199994471131,10|2,0:2|0:2,0:0:0:0:
169,374,83988,1,0,0:0:0:0:
241,327,84161,2,0,P|236:295|257:247,1,67.0999972355653,10|0,0:2|0:0,0:0:0:0:
321,174,84505,5,0,3:0:0:0:
399,212,84678,1,0,0:0:0:0:
470,162,84850,2,0,P|481:132|475:96,1,67.0999972355653,8|0,0:0|0:0,0:0:0:0:
373,25,85195,1,2,0:2:0:0:
373,25,85368,2,0,P|362:55|368:91,1,67.0999972355653,2|8,3:2|0:2,0:0:0:0:
400,169,85712,1,2,0:2:0:0:
329,221,85885,5,8,0:2:0:0:
97,99,86402,1,8,0:2:0:0:
256,306,86919,1,10,0:2:0:0:
415,99,87436,5,8,0:2:0:0:
466,169,87609,2,0,P|470:204|451:249,1,67.0999972355653,2|0,3:2|3:2,0:0:0:0:
399,296,87954,2,0,L|362:299,3,33.5499986177826,10|0|8|0,0:2|0:0|0:3|0:0,0:0:0:0:
296,270,88299,2,0,L|259:267,3,33.5499986177826,10|0|4|0,0:2|0:0|0:3|0:0,0:0:0:0:
192,245,88643,6,0,P|204:179|147:119,1,134.199994471131,6|8,3:2|0:2,0:0:0:0:
60,306,89333,2,0,L|70:388,2,67.0999972355653,0|0|8,0:0|3:0|0:0,0:0:0:0:
47,219,89850,1,0,0:0:0:0:
33,125,90023,6,0,P|71:132|117:119,1,67.0999972355653,0|0,3:2|0:0,0:0:0:0:
188,97,90368,2,0,L|181:182,1,67.0999972355653,10|0,0:2|0:0,0:0:0:0:
68,260,90712,2,0,L|129:232,1,67.0999972355653,0|0,0:0|3:0,0:0:0:0:
270,280,91057,2,0,L|215:242,1,67.0999972355653,8|0,0:0|0:0,0:0:0:0:
188,97,91402,6,0,B|245:118|245:118|321:90,1,134.199994471131,2|10,3:2|0:2,0:0:0:0:
394,60,91919,1,0,0:0:0:0:
471,100,92092,2,0,L|468:175,1,67.0999972355653,0|0,0:0|3:0,0:0:0:0:
382,260,92436,2,0,L|385:193,1,67.0999972355653,8|0,0:0|0:0,0:0:0:0:
471,100,92781,6,0,L|468:167,1,67.0999972355653,2|0,3:2|0:0,0:0:0:0:
382,260,93126,1,10,0:2:0:0:
332,332,93299,1,0,0:0:0:0:
261,280,93471,2,0,P|230:268|181:278,1,67.0999972355653,0|0,0:0|3:0,0:0:0:0:
95,340,93816,2,0,P|126:352|160:350,1,67.0999972355653,8|0,0:0|0:0,0:0:0:0:
261,280,94161,6,0,P|292:218|262:142,1,134.199994471131,2|8,3:2|0:2,0:0:0:0:
222,89,94678,1,0,0:0:0:0:
166,155,94850,2,0,P|139:163|84:149,1,67.0999972355653,0|0,0:0|3:0,0:0:0:0:
30,106,95195,2,0,P|24:73|33:40,1,67.0999972355653,8|0,0:0|0:0,0:0:0:0:
139,14,95540,5,2,3:2:0:0:
198,77,95712,1,0,0:0:0:0:
166,155,95885,2,0,P|175:189|168:224,1,67.0999972355653,10|0,0:2|0:0,0:0:0:0:
98,330,96230,2,0,P|89:298|95:266,1,67.0999972355653,0|0,0:0|3:0,0:0:0:0:
287,238,96574,2,0,P|246:207|176:212,1,100.649995853348,8|2,0:2|0:0,0:0:0:0:
176,213,96919,5,2,3:2:0:0:
217,294,97092,1,0,0:0:0:0:
287,238,97264,2,0,P|273:186|286:137,1,100.649995853348,10|0,0:2|3:2,0:0:0:0:
314,109,97609,2,0,L|388:95,1,67.0999972355653,2|0,0:2|3:2,0:0:0:0:
375,185,97954,6,0,L|494:162,2,100.649995853348,8|0|0,0:2|3:2|3:2,0:0:0:0:
323,254,98643,2,0,L|224:272,1,100.649995853348,8|0,0:0|3:2,0:0:0:0:
174,284,98988,2,0,L|175:210,1,67.0999972355653,2|0,0:2|3:2,0:0:0:0:
161,129,99333,1,8,0:0:0:0:
242,160,99505,1,0,3:2:0:0:
330,94,99678,6,0,P|356:160|331:229,1,134.199994471131,2|10,3:2|0:2,0:0:0:0:
170,317,100368,2,0,L|84:303,2,67.0999972355653,0|0|8,0:0|3:0|0:0,0:0:0:0:
256,331,100885,1,0,0:0:0:0:
348,347,101057,5,0,3:2:0:0:
332,260,101230,1,0,2:0:0:0:
318,173,101402,2,0,P|355:180|397:160,1,67.0999972355653,8|0,0:0|0:0,0:0:0:0:
478,57,101747,2,0,P|456:81|448:114,1,67.0999972355653,0|0,0:0|3:0,0:0:0:0:
500,253,102092,2,0,P|490:222|467:199,1,67.0999972355653,8|0,0:0|0:0,0:0:0:0:
318,173,102436,6,0,P|329:105|273:43,1,134.199994471131,2|10,3:2|0:2,0:0:0:0:
244,126,102954,1,0,0:0:0:0:
318,173,103126,2,0,P|334:206|375:228,1,67.0999972355653,0|0,0:0|3:0,0:0:0:0:
506,230,103471,2,0,P|473:226|442:240,1,67.0999972355653,8|0,0:0|0:0,0:0:0:0:
363,366,103816,6,0,P|381:339|386:307,1,67.0999972355653,2|0,3:2|0:0,0:0:0:0:
318,173,104161,2,0,P|261:192|195:161,2,134.199994471131,10|0|8,0:2|0:0|0:0,0:0:0:0:
481,72,105195,6,0,L|476:-7,2,67.0999972355653,2|0|8,3:2|0:0|0:2,0:0:0:0:
486,159,105712,1,0,0:0:0:0:
489,246,105885,2,0,P|458:237|399:246,1,67.0999972355653,0|0,0:0|3:0,0:0:0:0:
346,280,106230,1,8,0:0:0:0:
346,280,106402,1,0,0:0:0:0:
305,180,106574,5,2,3:2:0:0:
223,212,106747,1,0,0:0:0:0:
148,167,106919,2,0,P|136:132|142:90,1,67.0999972355653,8|0,0:0|0:0,0:0:0:0:
248,67,107264,2,0,P|208:109|128:95,1,134.199994471131,0|8,0:0|0:0,0:0:0:0:
63,54,107781,1,0,0:0:0:0:
0,167,107954,6,0,P|35:158|91:176,1,67.0999972355653,2|2,3:2|3:2,0:0:0:0:
139,208,108299,2,0,P|151:243|137:293,1,67.0999972355653,2|0,3:2|3:0,0:0:0:0:
87,335,108643,1,2,3:2:0:0:
147,272,108816,1,0,3:0:0:0:
255,378,108988,1,0,3:2:0:0:
230,295,109161,1,0,3:0:0:0:
353,363,109333,6,0,P|385:368|427:357,1,67.0999972355653,0|0,3:2|3:0,0:0:0:0:
512,251,109678,2,0,P|479:266|424:259,1,67.0999972355653,0|0,3:2|3:0,0:0:0:0:
380,203,110023,2,0,L|396:144,3,33.5499986177826
399,139,110368,2,0,P|369:128|329:131,1,67.0999972355653,8|0,0:2|3:0,0:0:0:0:
256,192,110712,5,4,0:2:0:0:
256,192,110799,12,0,118988,0:0:0:0:
