osu file format v14

[General]
AudioFilename: audio.mp3
AudioLeadIn: 0
PreviewTime: 52257
Countdown: 0
SampleSet: Normal
StackLeniency: 0.7
Mode: 1
LetterboxInBreaks: 0
WidescreenStoryboard: 1

[Editor]
Bookmarks: 55361,66395,88464,110533,113292
DistanceSpacing: 0.6
BeatDivisor: 4
GridSize: 32
TimelineZoom: 1.6

[Metadata]
Title:On & On (feat. Daniel Levi) (Cut Ver.)
TitleUnicode:On & On (feat. Daniel Levi) (Cut Ver.)
Artist:Cartoon
ArtistUnicode:Cartoon
Creator:Toofu
Version:Muzukashii
Source:
Tags:english edm electronic dance music ncs nocopyrightsounds and swake scarlet remilia doug d0ug doug_yt d0ug_yt Friggy-chan
BeatmapID:2985217
BeatmapSetID:1450975

[Difficulty]
HPDrainRate:6
CircleSize:5
OverallDifficulty:5
ApproachRate:5
SliderMultiplier:1.4
SliderTickRate:1

[Events]
//Background and Video events
0,0,"bg.jpg",0,-40
//Break Periods
//Storyboard Layer 0 (Background)
//Storyboard Layer 1 (Fail)
//Storyboard Layer 2 (Pass)
//Storyboard Layer 3 (Foreground)
//Storyboard Layer 4 (Overlay)
//Storyboard Sound Samples

[TimingPoints]
189,689.655172413793,4,1,0,30,1,0
189,-50,4,1,0,30,0,0
11223,-50,4,1,0,50,0,0
55361,-50,4,1,0,70,0,1
77430,-50,4,1,0,50,0,0
102257,-50,4,1,0,70,0,1
121568,-50,4,1,0,50,0,0

[HitObjects]
256,192,8464,12,0,10878,1:0:0:0:
296,137,11223,5,8,1:0:0:0:
231,201,11568,1,0,1:0:0:0:
213,172,11740,1,0,1:0:0:0:
213,172,11913,1,8,1:0:0:0:
222,176,12257,1,8,1:0:0:0:
222,176,12430,1,0,1:0:0:0:
222,176,12775,1,0,1:0:0:0:
198,187,12947,1,8,1:0:0:0:
162,165,13120,1,0,1:0:0:0:
184,129,13637,1,0,1:0:0:0:
296,137,13982,5,8,1:0:0:0:
239,68,14326,1,0,1:0:0:0:
213,172,14671,1,8,1:0:0:0:
213,172,14844,1,0,1:0:0:0:
222,176,15188,1,8,1:0:0:0:
222,176,15361,1,0,1:0:0:0:
194,161,15706,1,0,1:0:0:0:
198,187,15878,1,8,1:0:0:0:
184,129,16395,1,8,1:0:0:0:
173,138,16740,1,0,1:0:0:0:
206,142,17257,1,0,1:0:0:0:
180,217,17775,1,0,1:0:0:0:
173,138,18120,1,8,1:0:0:0:
231,117,18292,1,8,1:0:0:0:
205,90,18464,1,0,1:0:0:0:
222,125,18809,1,8,1:0:0:0:
238,114,19154,1,0,1:0:0:0:
173,138,19499,1,8,1:0:0:0:
265,120,20016,1,0,1:0:0:0:
254,126,20533,1,8,1:0:0:0:
253,140,20878,1,0,1:0:0:0:
279,130,21395,1,0,1:0:0:0:
193,151,21913,1,0,1:0:0:0:
296,137,22257,5,8,1:0:0:0:
288,131,22602,1,0,1:0:0:0:
286,151,22775,1,0,1:0:0:0:
211,132,22947,5,8,1:0:0:0:
151,224,23292,1,8,1:0:0:0:
257,123,23464,1,0,1:0:0:0:
211,132,23809,1,0,1:0:0:0:
257,123,23982,1,8,1:0:0:0:
190,94,24154,1,8,1:0:0:0:
196,84,24671,1,0,1:0:0:0:
349,208,24844,1,0,1:0:0:0:
195,112,25016,1,8,1:0:0:0:
251,134,25361,1,8,1:0:0:0:
235,115,25706,1,8,1:0:0:0:
251,134,26051,1,0,1:0:0:0:
212,169,26223,1,8,1:0:0:0:
257,123,26395,1,0,1:0:0:0:
239,149,26913,1,0,1:0:0:0:
118,187,27430,1,0,1:0:0:0:
173,138,27775,1,8,1:0:0:0:
206,83,28292,1,8,1:0:0:0:
180,217,28809,1,0,1:0:0:0:
173,138,29154,1,8,1:0:0:0:
264,130,29326,1,8,1:0:0:0:
273,167,29499,1,0,1:0:0:0:
222,125,29844,1,0,1:0:0:0:
237,128,30188,1,0,1:0:0:0:
173,138,30533,1,8,1:0:0:0:
267,156,31051,1,0,1:0:0:0:
254,126,31568,1,8,1:0:0:0:
253,140,31913,1,0,1:0:0:0:
313,203,32430,1,0,1:0:0:0:
265,126,32947,5,0,1:0:0:0:
296,137,33292,5,12,1:0:0:0:
257,127,33982,1,0,1:0:0:0:
182,177,34499,1,0,1:0:0:0:
243,114,35361,1,8,1:0:0:0:
243,114,36051,1,0,1:0:0:0:
192,166,37430,1,0,1:0:0:0:
248,132,38120,1,8,1:0:0:0:
269,84,38464,1,8,1:0:0:0:
248,132,38637,1,0,1:0:0:0:
203,131,38809,1,8,1:0:0:0:
244,178,39154,1,0,1:0:0:0:
203,131,39499,1,0,1:0:0:0:
269,84,39844,1,0,1:0:0:0:
203,131,40188,1,8,1:0:0:0:
225,123,41223,1,8,1:0:0:0:
248,132,41395,1,8,1:0:0:0:
203,131,41568,1,8,1:0:0:0:
232,186,41913,1,0,1:0:0:0:
203,131,42257,1,0,1:0:0:0:
248,132,42602,1,0,1:0:0:0:
203,131,42947,1,8,1:0:0:0:
160,142,43982,1,0,1:0:0:0:
203,131,44326,1,8,1:0:0:0:
238,122,45016,1,8,1:0:0:0:
284,116,45533,1,0,1:0:0:0:
206,180,46395,1,0,1:0:0:0:
203,131,47085,1,8,1:0:0:0:
203,131,48464,1,0,1:0:0:0:
292,162,48982,1,0,1:0:0:0:
321,172,49154,1,0,1:0:0:0:
129,245,49499,1,8,1:0:0:0:
228,147,49671,1,0,1:0:0:0:
217,174,49844,1,8,1:0:0:0:
226,112,50188,1,0,1:0:0:0:
241,111,50533,1,0,1:0:0:0:
230,95,50878,1,0,1:0:0:0:
217,174,51223,1,8,1:0:0:0:
211,169,52257,1,0,1:0:0:0:
217,173,52602,1,8,1:0:0:0:
227,62,53292,1,0,1:0:0:0:
210,117,53637,1,8,1:0:0:0:
169,171,54326,5,0,1:0:0:0:
199,164,54499,1,8,1:0:0:0:
223,60,55016,1,8,1:0:0:0:
271,196,55361,1,12,1:0:0:0:
289,200,55533,1,8,1:0:0:0:
289,200,55620,1,8,1:0:0:0:
236,146,55706,1,8,1:0:0:0:
269,155,55878,1,0,1:0:0:0:
271,196,56051,1,8,1:0:0:0:
271,196,56395,1,8,1:0:0:0:
271,196,56568,1,0,1:0:0:0:
271,196,56740,1,0,1:0:0:0:
271,196,56826,1,0,1:0:0:0:
271,196,56913,1,0,1:0:0:0:
271,196,57085,1,8,1:0:0:0:
232,137,57257,1,0,1:0:0:0:
271,196,57775,5,8,1:0:0:0:
271,196,57947,1,0,1:0:0:0:
243,143,58120,1,8,1:0:0:0:
274,169,58206,1,8,1:0:0:0:
274,169,58292,1,8,1:0:0:0:
271,196,58464,1,0,1:0:0:0:
271,196,58637,1,0,1:0:0:0:
271,196,58809,1,8,1:0:0:0:
272,95,59154,1,0,1:0:0:0:
286,202,59499,1,0,1:0:0:0:
286,202,59585,1,0,1:0:0:0:
286,202,59671,1,0,1:0:0:0:
293,212,59844,1,8,1:0:0:0:
262,126,60016,1,8,1:0:0:0:
223,127,60361,1,0,1:0:0:0:
241,121,60533,1,8,1:0:0:0:
271,196,60878,1,0,1:0:0:0:
289,200,60964,1,0,1:0:0:0:
289,200,61051,1,0,1:0:0:0:
236,146,61223,1,8,1:0:0:0:
269,155,61395,1,0,1:0:0:0:
271,196,61568,1,8,1:0:0:0:
271,196,61913,1,0,1:0:0:0:
271,196,62085,1,0,1:0:0:0:
271,196,62257,1,8,1:0:0:0:
271,196,62344,1,8,1:0:0:0:
271,196,62430,1,8,1:0:0:0:
271,196,62602,1,8,1:0:0:0:
232,137,62775,1,0,1:0:0:0:
271,196,63292,1,8,1:0:0:0:
271,196,63464,1,0,1:0:0:0:
243,143,63637,1,8,1:0:0:0:
274,169,63723,1,8,1:0:0:0:
274,169,63809,1,8,1:0:0:0:
271,196,63982,1,8,1:0:0:0:
271,196,64154,1,0,1:0:0:0:
271,196,64326,1,8,1:0:0:0:
200,146,64671,1,0,1:0:0:0:
286,202,65016,1,0,1:0:0:0:
286,202,65102,1,0,1:0:0:0:
286,202,65188,1,0,1:0:0:0:
293,212,65361,5,8,1:0:0:0:
262,126,65533,1,8,1:0:0:0:
223,127,65878,1,0,1:0:0:0:
241,121,66051,1,8,1:0:0:0:
271,196,66395,5,12,1:0:0:0:
289,200,66568,1,0,1:0:0:0:
289,200,66654,1,0,1:0:0:0:
236,146,66740,1,0,1:0:0:0:
269,155,66913,1,0,1:0:0:0:
271,196,67085,1,8,1:0:0:0:
271,196,67430,1,8,1:0:0:0:
271,196,67602,1,8,1:0:0:0:
271,196,67775,1,0,1:0:0:0:
271,196,67861,1,0,1:0:0:0:
271,196,67947,1,0,1:0:0:0:
271,196,68120,1,8,1:0:0:0:
232,137,68292,1,0,1:0:0:0:
271,196,68809,1,0,1:0:0:0:
271,196,68982,1,0,1:0:0:0:
243,143,69154,1,8,1:0:0:0:
274,169,69240,1,8,1:0:0:0:
274,169,69326,1,8,1:0:0:0:
271,196,69499,1,8,1:0:0:0:
271,196,69671,1,0,1:0:0:0:
271,196,69844,1,8,1:0:0:0:
224,201,70188,1,0,1:0:0:0:
286,202,70533,1,8,1:0:0:0:
286,202,70620,1,8,1:0:0:0:
286,202,70706,1,8,1:0:0:0:
293,212,70878,1,0,1:0:0:0:
262,126,71051,1,0,1:0:0:0:
223,127,71395,1,0,1:0:0:0:
241,121,71568,1,8,1:0:0:0:
271,196,71913,5,8,1:0:0:0:
289,200,71999,1,8,1:0:0:0:
289,200,72085,1,8,1:0:0:0:
236,146,72257,1,0,1:0:0:0:
269,155,72430,1,0,1:0:0:0:
271,196,72602,1,8,1:0:0:0:
271,196,72947,1,8,1:0:0:0:
271,196,73120,1,8,1:0:0:0:
271,196,73292,1,0,1:0:0:0:
271,196,73378,1,0,1:0:0:0:
271,196,73464,1,0,1:0:0:0:
271,196,73637,1,8,1:0:0:0:
232,137,73809,1,0,1:0:0:0:
271,196,74326,1,8,1:0:0:0:
271,196,74499,1,0,1:0:0:0:
243,143,74671,1,0,1:0:0:0:
274,169,74757,1,0,1:0:0:0:
274,169,74844,1,0,1:0:0:0:
271,196,75016,1,8,1:0:0:0:
271,196,75188,1,0,1:0:0:0:
271,196,75361,1,8,1:0:0:0:
244,104,75706,1,0,1:0:0:0:
286,202,76051,1,8,1:0:0:0:
286,202,76137,1,8,1:0:0:0:
286,202,76223,1,8,1:0:0:0:
293,212,76395,5,0,1:0:0:0:
262,126,76568,1,0,1:0:0:0:
241,121,76913,5,8,1:0:0:0:
223,127,77085,1,0,1:0:0:0:
276,98,77430,1,8,1:0:0:0:
226,90,77947,1,0,1:0:0:0:
326,158,78120,1,8,1:0:0:0:
181,87,78464,1,0,1:0:0:0:
235,103,78637,5,8,1:0:0:0:
235,103,78809,1,0,1:0:0:0:
235,103,79154,1,8,1:0:0:0:
242,109,79326,1,0,1:0:0:0:
242,109,79844,1,0,1:0:0:0:
242,109,80188,1,8,1:0:0:0:
181,105,80706,1,0,1:0:0:0:
242,109,80878,1,8,1:0:0:0:
98,113,81223,1,8,1:0:0:0:
251,119,81395,1,0,1:0:0:0:
251,119,81568,1,8,1:0:0:0:
251,119,81913,1,0,1:0:0:0:
242,131,82257,5,8,1:0:0:0:
242,131,82602,1,0,1:0:0:0:
242,131,82947,1,8,1:0:0:0:
226,115,83464,1,0,1:0:0:0:
226,115,83637,1,8,1:0:0:0:
237,168,83982,1,0,1:0:0:0:
236,114,84326,1,8,1:0:0:0:
236,114,84671,1,8,1:0:0:0:
236,114,84844,1,0,1:0:0:0:
236,114,85016,1,8,1:0:0:0:
174,76,85361,1,0,1:0:0:0:
236,114,85706,1,8,1:0:0:0:
251,127,86223,1,8,1:0:0:0:
215,88,86395,1,0,1:0:0:0:
251,127,86740,1,0,1:0:0:0:
251,127,87085,1,8,1:0:0:0:
251,127,87602,1,0,1:0:0:0:
236,121,87947,1,8,1:0:0:0:
242,122,88120,1,0,1:0:0:0:
276,98,88464,1,8,1:0:0:0:
192,88,88982,1,0,1:0:0:0:
326,158,89154,1,8,1:0:0:0:
180,106,89499,1,0,1:0:0:0:
235,103,89671,5,0,1:0:0:0:
235,103,89844,1,8,1:0:0:0:
235,103,90188,1,8,1:0:0:0:
242,109,90361,1,0,1:0:0:0:
242,109,90878,1,0,1:0:0:0:
242,109,91223,1,8,1:0:0:0:
192,91,91740,1,8,1:0:0:0:
242,109,91913,1,8,1:0:0:0:
246,109,92257,1,0,1:0:0:0:
251,119,92430,1,0,1:0:0:0:
251,119,92602,1,8,1:0:0:0:
251,119,92947,1,0,1:0:0:0:
242,131,93292,5,8,1:0:0:0:
182,93,93637,1,0,1:0:0:0:
242,131,93982,1,8,1:0:0:0:
226,115,94499,1,0,1:0:0:0:
226,115,94671,1,8,1:0:0:0:
262,169,95016,1,0,1:0:0:0:
236,114,95361,1,8,1:0:0:0:
236,114,95706,1,8,1:0:0:0:
236,114,95878,1,0,1:0:0:0:
236,114,96051,1,8,1:0:0:0:
236,114,96395,1,0,1:0:0:0:
236,114,96740,5,8,1:0:0:0:
251,127,97430,1,8,1:0:0:0:
256,192,97602,12,0,98809,1:0:0:0:
242,122,99154,5,0,1:0:0:0:
251,119,99499,1,8,1:0:0:0:
238,178,99844,1,0,1:0:0:0:
255,125,100016,1,8,1:0:0:0:
274,188,100361,1,8,1:0:0:0:
277,174,100533,1,0,1:0:0:0:
274,188,100878,1,0,1:0:0:0:
208,113,101223,1,0,1:0:0:0:
197,89,101395,1,8,1:0:0:0:
267,168,101568,1,8,1:0:0:0:
264,144,102257,1,12,1:0:0:0:
283,66,102430,1,0,1:0:0:0:
264,144,102602,1,8,1:0:0:0:
264,144,102775,1,0,1:0:0:0:
264,144,102947,1,0,1:0:0:0:
264,144,103292,1,0,1:0:0:0:
264,144,103637,1,8,1:0:0:0:
264,144,103809,1,0,1:0:0:0:
259,115,103895,1,0,1:0:0:0:
264,144,103982,1,0,1:0:0:0:
259,115,104154,1,8,1:0:0:0:
259,115,104326,1,8,1:0:0:0:
259,115,104671,1,0,1:0:0:0:
259,115,104844,1,8,1:0:0:0:
356,86,104930,1,8,1:0:0:0:
259,115,105016,1,8,1:0:0:0:
287,75,105361,1,8,1:0:0:0:
260,86,105533,1,0,1:0:0:0:
280,113,105620,1,0,1:0:0:0:
279,114,105706,1,0,1:0:0:0:
259,78,105878,1,0,1:0:0:0:
259,78,106051,1,8,1:0:0:0:
259,78,106395,1,0,1:0:0:0:
269,73,106913,1,8,1:0:0:0:
287,75,107430,1,0,1:0:0:0:
287,75,107602,1,8,1:0:0:0:
294,122,107688,1,8,1:0:0:0:
287,75,107775,1,8,1:0:0:0:
287,75,108120,1,0,1:0:0:0:
287,75,108292,1,8,1:0:0:0:
287,75,108464,1,8,1:0:0:0:
294,122,108551,1,8,1:0:0:0:
287,75,108637,1,8,1:0:0:0:
287,75,108809,1,0,1:0:0:0:
287,75,109154,1,8,1:0:0:0:
287,75,109499,1,0,1:0:0:0:
287,75,109671,1,8,1:0:0:0:
287,75,110188,1,0,1:0:0:0:
287,75,110533,1,8,1:0:0:0:
297,65,110878,1,0,1:0:0:0:
297,65,111051,1,8,1:0:0:0:
297,65,111223,1,0,1:0:0:0:
297,65,111568,1,8,1:0:0:0:
297,65,111913,1,0,1:0:0:0:
297,65,112085,1,8,1:0:0:0:
297,65,112171,1,8,1:0:0:0:
297,65,112257,1,8,1:0:0:0:
297,65,112430,1,0,1:0:0:0:
297,65,112602,1,0,1:0:0:0:
157,122,112947,1,0,1:0:0:0:
264,144,113292,1,8,1:0:0:0:
283,66,113464,1,0,1:0:0:0:
264,144,113637,1,8,1:0:0:0:
264,144,113809,1,8,1:0:0:0:
264,144,113982,1,0,1:0:0:0:
264,144,114326,1,0,1:0:0:0:
264,144,114671,1,0,1:0:0:0:
264,144,114844,1,8,1:0:0:0:
259,115,114930,1,8,1:0:0:0:
264,144,115016,1,8,1:0:0:0:
259,115,115188,1,8,1:0:0:0:
259,115,115361,1,0,1:0:0:0:
259,115,115706,1,0,1:0:0:0:
259,115,115878,1,8,1:0:0:0:
356,86,115964,1,8,1:0:0:0:
259,115,116051,1,8,1:0:0:0:
287,75,116395,1,0,1:0:0:0:
260,86,116568,1,8,1:0:0:0:
280,113,116654,1,8,1:0:0:0:
279,114,116740,1,8,1:0:0:0:
259,78,116913,1,0,1:0:0:0:
259,78,117085,1,8,1:0:0:0:
259,78,117430,1,0,1:0:0:0:
269,73,117947,1,8,1:0:0:0:
287,75,118464,1,0,1:0:0:0:
287,75,118637,1,8,1:0:0:0:
294,122,118723,1,8,1:0:0:0:
287,75,118809,1,8,1:0:0:0:
287,75,119154,1,0,1:0:0:0:
287,75,119326,1,8,1:0:0:0:
287,75,119499,1,0,1:0:0:0:
294,122,119585,1,0,1:0:0:0:
287,75,119671,1,0,1:0:0:0:
287,75,119844,1,8,1:0:0:0:
287,75,120188,1,0,1:0:0:0:
287,75,120533,1,0,1:0:0:0:
287,75,120706,1,8,1:0:0:0:
242,37,121051,1,8,1:0:0:0:
287,75,121223,1,0,1:0:0:0:
287,75,121568,1,8,1:0:0:0:
