osu file format v14

[General]
AudioFilename: audio.mp3
AudioLeadIn: 0
PreviewTime:52257
Countdown: 0
SampleSet: Normal
StackLeniency: 0.7
Mode: 1
LetterboxInBreaks: 0
WidescreenStoryboard: 1

[Editor]
Bookmarks:11223,22257,33292,44326,55361,66395,110188,117947
DistanceSpacing: 0.6
BeatDivisor: 4
GridSize: 32
TimelineZoom: 0.6

[Metadata]
Title:On & On (feat. Daniel Levi) (Cut Ver.)
TitleUnicode:On & On (feat. Daniel Levi) (Cut Ver.)
Artist:Cartoon
ArtistUnicode:Cartoon
Creator:Toofu
Version:Futsuu
Source:
Tags:english edm electronic dance music ncs nocopyrightsounds and swake scarlet remilia doug d0ug doug_yt d0ug_yt Friggy-chan
BeatmapID:2983107
BeatmapSetID:1450975

[Difficulty]
HPDrainRate:7
CircleSize:5
OverallDifficulty:4
ApproachRate:5
SliderMultiplier:1.4
SliderTickRate:1

[Events]
//Background and Video events
0,0,"bg.jpg",0,-40
//Break Periods
//Storyboard Layer 0 (Background)
//Storyboard Layer 1 (Fail)
//Storyboard Layer 2 (Pass)
//Storyboard Layer 3 (Foreground)
//Storyboard Layer 4 (Overlay)
//Storyboard Sound Samples

[TimingPoints]
189,689.655172413793,4,1,0,30,1,0
189,-50,4,1,0,30,0,0
11223,-50,4,1,0,50,0,0
55361,-50,4,1,0,70,0,1
77430,-50,4,1,0,50,0,0
102257,-50,4,1,0,70,0,1
121568,-50,4,1,0,50,0,0

[HitObjects]
256,192,8464,8,0,10878,1:0:0:0:
286,129,11223,5,8,1:0:0:0:
286,129,11913,1,0,1:0:0:0:
294,150,12257,1,0,1:0:0:0:
294,127,12430,1,8,1:0:0:0:
294,127,12775,1,8,1:0:0:0:
294,127,12947,1,0,1:0:0:0:
286,75,13982,1,8,1:0:0:0:
294,82,14326,1,0,1:0:0:0:
294,82,14671,1,0,1:0:0:0:
294,82,14844,1,8,1:0:0:0:
294,82,15188,1,0,1:0:0:0:
294,82,15361,1,8,1:0:0:0:
294,82,15706,1,8,1:0:0:0:
294,82,16395,1,0,1:0:0:0:
301,65,16740,1,8,1:0:0:0:
301,65,17257,1,0,1:0:0:0:
301,65,18120,1,8,1:0:0:0:
301,65,18292,1,8,1:0:0:0:
301,65,18464,1,0,1:0:0:0:
301,65,18809,1,8,1:0:0:0:
301,65,19154,1,0,1:0:0:0:
266,83,19499,1,8,1:0:0:0:
287,122,20016,1,0,1:0:0:0:
266,83,20533,1,8,1:0:0:0:
266,83,20878,1,0,1:0:0:0:
266,83,21395,1,0,1:0:0:0:
221,123,22257,1,8,1:0:0:0:
221,123,22602,1,0,1:0:0:0:
231,129,22947,1,8,1:0:0:0:
231,129,23292,1,8,1:0:0:0:
231,129,23464,1,0,1:0:0:0:
231,129,23809,1,8,1:0:0:0:
231,129,23982,1,8,1:0:0:0:
235,126,25016,1,8,1:0:0:0:
235,126,25361,1,8,1:0:0:0:
235,126,25706,1,0,1:0:0:0:
235,126,26051,1,0,1:0:0:0:
233,117,26223,1,8,1:0:0:0:
233,117,26395,1,0,1:0:0:0:
233,117,26913,1,0,1:0:0:0:
233,117,27430,1,0,1:0:0:0:
233,117,27775,1,8,1:0:0:0:
239,103,28809,1,8,1:0:0:0:
239,103,29154,1,0,1:0:0:0:
239,103,29326,1,0,1:0:0:0:
239,103,29499,1,0,1:0:0:0:
239,103,29844,1,8,1:0:0:0:
239,103,30188,1,0,1:0:0:0:
239,103,30533,1,8,1:0:0:0:
230,104,31568,1,8,1:0:0:0:
230,104,31913,1,0,1:0:0:0:
230,104,32430,1,0,1:0:0:0:
230,104,32947,1,0,1:0:0:0:
296,137,33292,1,12,1:0:0:0:
29,12,34499,1,8,1:0:0:0:
243,114,35361,1,0,1:0:0:0:
243,114,36051,1,8,1:0:0:0:
192,166,37430,1,0,1:0:0:0:
269,84,38464,1,0,1:0:0:0:
203,131,38809,1,8,1:0:0:0:
203,131,39499,1,8,1:0:0:0:
269,84,39844,1,0,1:0:0:0:
203,131,40188,1,8,1:0:0:0:
225,123,41223,1,0,1:0:0:0:
203,131,41568,1,8,1:0:0:0:
203,131,42257,1,0,1:0:0:0:
242,66,42602,1,0,1:0:0:0:
203,131,42947,1,8,1:0:0:0:
160,142,43982,1,0,1:0:0:0:
203,131,44326,1,8,1:0:0:0:
238,122,45016,1,8,1:0:0:0:
151,148,45533,1,0,1:0:0:0:
206,180,46395,1,0,1:0:0:0:
203,131,47085,1,8,1:0:0:0:
203,131,48464,1,0,1:0:0:0:
129,245,49499,1,0,1:0:0:0:
217,174,49844,1,8,1:0:0:0:
241,111,50533,1,0,1:0:0:0:
230,95,50878,1,8,1:0:0:0:
217,174,51223,1,0,1:0:0:0:
211,169,52257,1,0,1:0:0:0:
217,173,52602,1,8,1:0:0:0:
227,62,53292,1,0,1:0:0:0:
210,117,53637,1,8,1:0:0:0:
169,171,54499,1,0,1:0:0:0:
224,62,55016,1,0,1:0:0:0:
222,278,55361,1,12,1:0:0:0:
186,142,55706,1,0,1:0:0:0:
279,75,55878,1,0,1:0:0:0:
235,171,56051,1,8,1:0:0:0:
105,204,56395,1,0,1:0:0:0:
297,150,56740,1,8,1:0:0:0:
235,171,57085,1,0,1:0:0:0:
215,95,57257,1,8,1:0:0:0:
199,86,57775,1,8,1:0:0:0:
199,86,58120,1,0,1:0:0:0:
196,99,58464,1,8,1:0:0:0:
196,99,58637,1,0,1:0:0:0:
199,86,58809,1,8,1:0:0:0:
196,99,59154,1,0,1:0:0:0:
199,86,59499,1,8,1:0:0:0:
196,99,59671,1,0,1:0:0:0:
196,99,59844,1,8,1:0:0:0:
248,121,60016,1,8,1:0:0:0:
226,61,60533,1,0,1:0:0:0:
222,278,60878,1,8,1:0:0:0:
186,142,61223,1,0,1:0:0:0:
186,142,61395,1,8,1:0:0:0:
235,171,61568,1,0,1:0:0:0:
105,204,61913,1,0,1:0:0:0:
297,150,62257,1,8,1:0:0:0:
235,171,62602,1,8,1:0:0:0:
215,95,62775,1,0,1:0:0:0:
199,86,63292,1,0,1:0:0:0:
222,278,63637,1,8,1:0:0:0:
186,142,63982,1,0,1:0:0:0:
186,142,64154,1,8,1:0:0:0:
235,171,64326,1,8,1:0:0:0:
105,204,64671,1,0,1:0:0:0:
186,182,65016,1,8,1:0:0:0:
235,171,65361,1,0,1:0:0:0:
215,95,65533,1,8,1:0:0:0:
199,86,66051,1,0,1:0:0:0:
222,278,66395,1,12,1:0:0:0:
186,142,66740,1,8,1:0:0:0:
279,75,66913,1,0,1:0:0:0:
235,171,67085,1,8,1:0:0:0:
105,204,67430,1,0,1:0:0:0:
297,150,67775,1,8,1:0:0:0:
235,171,68120,1,0,1:0:0:0:
215,95,68292,1,8,1:0:0:0:
199,86,68809,1,0,1:0:0:0:
199,86,69154,1,8,1:0:0:0:
196,99,69499,1,0,1:0:0:0:
196,99,69671,1,8,1:0:0:0:
199,86,69844,1,0,1:0:0:0:
196,99,70188,1,0,1:0:0:0:
199,86,70533,1,8,1:0:0:0:
196,99,70706,1,0,1:0:0:0:
196,99,70878,1,8,1:0:0:0:
248,121,71051,1,0,1:0:0:0:
226,61,71568,1,0,1:0:0:0:
222,278,71913,1,8,1:0:0:0:
186,142,72257,1,8,1:0:0:0:
186,142,72430,1,0,1:0:0:0:
235,171,72602,1,8,1:0:0:0:
105,204,72947,1,0,1:0:0:0:
297,150,73292,1,8,1:0:0:0:
235,171,73637,1,8,1:0:0:0:
215,95,73809,1,0,1:0:0:0:
199,86,74326,1,0,1:0:0:0:
222,278,74671,1,8,1:0:0:0:
186,142,75016,1,0,1:0:0:0:
186,142,75188,1,0,1:0:0:0:
235,171,75361,1,8,1:0:0:0:
105,204,75706,1,0,1:0:0:0:
297,150,76051,1,8,1:0:0:0:
235,171,76395,1,8,1:0:0:0:
215,95,76568,1,8,1:0:0:0:
199,86,77085,1,8,1:0:0:0:
236,151,77430,1,0,1:0:0:0:
236,151,78120,1,0,1:0:0:0:
240,132,78637,1,0,1:0:0:0:
240,132,79154,1,8,1:0:0:0:
258,124,80188,1,8,1:0:0:0:
258,124,80878,1,0,1:0:0:0:
260,117,81395,1,8,1:0:0:0:
271,128,81913,1,0,1:0:0:0:
271,128,82257,1,8,1:0:0:0:
271,128,82947,1,8,1:0:0:0:
153,172,83637,1,0,1:0:0:0:
272,122,84671,1,8,1:0:0:0:
272,122,85016,1,0,1:0:0:0:
272,122,85706,1,0,1:0:0:0:
285,116,86395,1,8,1:0:0:0:
288,107,87947,1,8,1:0:0:0:
286,92,88120,1,0,1:0:0:0:
236,151,88464,1,8,1:0:0:0:
236,151,89154,1,8,1:0:0:0:
240,132,89671,1,0,1:0:0:0:
240,132,90188,1,8,1:0:0:0:
258,124,91223,1,8,1:0:0:0:
258,124,91913,1,0,1:0:0:0:
260,117,92430,1,0,1:0:0:0:
271,128,92947,1,0,1:0:0:0:
271,128,93292,1,8,1:0:0:0:
271,128,93982,1,8,1:0:0:0:
271,128,94671,1,8,1:0:0:0:
272,122,95706,1,0,1:0:0:0:
272,122,96051,1,8,1:0:0:0:
272,122,96740,1,8,1:0:0:0:
285,117,97430,1,0,1:0:0:0:
278,104,99154,1,0,1:0:0:0:
279,94,99499,1,8,1:0:0:0:
279,94,99844,1,0,1:0:0:0:
279,94,100016,1,8,1:0:0:0:
294,95,100361,1,8,1:0:0:0:
255,61,100533,1,0,1:0:0:0:
271,40,100878,1,8,1:0:0:0:
208,96,102257,1,12,1:0:0:0:
249,218,102602,1,0,1:0:0:0:
249,218,102775,1,8,1:0:0:0:
249,218,102947,1,8,1:0:0:0:
272,269,103292,1,8,1:0:0:0:
191,148,103637,1,8,1:0:0:0:
263,145,103809,1,0,1:0:0:0:
263,145,103982,1,8,1:0:0:0:
263,145,104154,1,0,1:0:0:0:
263,145,104326,1,0,1:0:0:0:
263,168,104671,1,0,1:0:0:0:
207,113,104844,1,0,1:0:0:0:
184,139,105016,1,8,1:0:0:0:
207,113,105361,1,8,1:0:0:0:
207,113,105533,1,0,1:0:0:0:
184,139,105706,1,8,1:0:0:0:
224,103,106051,1,0,1:0:0:0:
184,139,106395,1,8,1:0:0:0:
224,103,106913,1,0,1:0:0:0:
238,98,107430,1,8,1:0:0:0:
224,103,107602,1,0,1:0:0:0:
183,137,107775,1,8,1:0:0:0:
233,103,108120,1,0,1:0:0:0:
183,137,108464,1,0,1:0:0:0:
233,103,108637,1,0,1:0:0:0:
233,103,108809,1,8,1:0:0:0:
233,103,108982,1,0,1:0:0:0:
233,103,109154,1,8,1:0:0:0:
224,130,110188,1,0,1:0:0:0:
183,137,110533,1,8,1:0:0:0:
249,98,110706,1,0,1:0:0:0:
249,98,110878,1,0,1:0:0:0:
320,142,111223,1,8,1:0:0:0:
249,98,111568,1,0,1:0:0:0:
226,88,111740,1,0,1:0:0:0:
182,137,111913,1,8,1:0:0:0:
182,137,112430,1,0,1:0:0:0:
229,123,112775,1,8,1:0:0:0:
249,98,112947,1,8,1:0:0:0:
208,96,113292,1,8,1:0:0:0:
249,218,113637,1,0,1:0:0:0:
249,218,113809,1,8,1:0:0:0:
249,218,113982,1,0,1:0:0:0:
272,269,114326,1,8,1:0:0:0:
191,148,114671,1,8,1:0:0:0:
263,145,114844,1,0,1:0:0:0:
263,145,115016,1,8,1:0:0:0:
263,145,115188,1,8,1:0:0:0:
263,145,115361,1,0,1:0:0:0:
263,168,115706,1,8,1:0:0:0:
207,113,115878,1,0,1:0:0:0:
184,139,116051,1,8,1:0:0:0:
207,113,116395,1,8,1:0:0:0:
207,113,116568,1,0,1:0:0:0:
184,139,116740,1,0,1:0:0:0:
224,103,117085,1,0,1:0:0:0:
184,139,117430,1,8,1:0:0:0:
238,98,118464,1,0,1:0:0:0:
224,103,118637,1,0,1:0:0:0:
183,137,118809,1,8,1:0:0:0:
233,103,119154,1,0,1:0:0:0:
183,137,119499,1,0,1:0:0:0:
233,103,119671,1,8,1:0:0:0:
233,103,119844,1,8,1:0:0:0:
233,103,120016,1,0,1:0:0:0:
233,103,120188,1,8,1:0:0:0:
266,107,120533,1,8,1:0:0:0:
266,107,120706,1,0,1:0:0:0:
266,107,120878,1,8,1:0:0:0:
266,107,121223,1,0,1:0:0:0:
266,107,121568,1,8,1:0:0:0:
