osu file format v14

[General]
AudioFilename: audio.mp3
AudioLeadIn: 0
PreviewTime: 52689
Countdown: 0
SampleSet: Soft
StackLeniency: 0.7
Mode: 0
LetterboxInBreaks: 0
EpilepsyWarning: 1
WidescreenStoryboard: 1

[Editor]
Bookmarks: 11223,33292,44327,55361,66051,66396,77430,88465,99499,102258,110189,110534,121568
DistanceSpacing: 0.8
BeatDivisor: 4
GridSize: 4
TimelineZoom: 1

[Metadata]
Title:On & On (feat. Daniel Levi) (Cut Ver.)
TitleUnicode:On & On (feat. Daniel Levi) (Cut Ver.)
Artist:Cartoon
ArtistUnicode:Cartoon
Creator:Sylas
Version:Mimari's Insane
Source:
Tags:english and edm electronic ncs nocopyrightsounds pop mimari browiec jaybone -Ady Partyu thekoala storyboard
BeatmapID:2889020
BeatmapSetID:1400282

[Difficulty]
HPDrainRate:5
CircleSize:3.8
OverallDifficulty:8
ApproachRate:8.8
SliderMultiplier:2.2
SliderTickRate:1

[Events]
//Background and Video events
0,0,"bg.jpg",0,0
//Break Periods
2,52803,54732
//Storyboard Layer 0 (Background)
//Storyboard Layer 1 (Fail)
//Storyboard Layer 2 (Pass)
//Storyboard Layer 3 (Foreground)
Sprite,Foreground,Centre,"storyboard\circle.png",0,0 M,0,55361,55447,104,331,139.36,325.7336 F,2,55361,56255,1,0 S,2,55361,56255,0.3,0.45 P,0,55361,56255,A M,0,55447,55533,139.36,325.7336,172.7587,334.0833 M,0,55533,55619,172.7587,334.0833,206.2247,339.9735 M,0,55619,55705,206.2247,339.9735,241.192,332.5336
Sprite,Foreground,Centre,"storyboard\circle.png",405,299 F,2,55878,56428,1,0 S,2,55878,56428,0.3,0.45 P,0,55878,56428,A
Sprite,Foreground,Centre,"storyboard\circle.png",0,0 M,0,56051,56137,217,183,210.5148,218.1568 F,2,56051,56773,1,0 S,2,56051,56773,0.3,0.45 P,0,56051,56773,A M,0,56137,56223,210.5148,218.1568,204.0295,253.3137
Sprite,Foreground,Centre,"storyboard\circle.png",249,417 F,2,56396,56946,1,0 S,2,56396,56946,0.3,0.45 P,0,56396,56946,A
Sprite,Foreground,Centre,"storyboard\circle.png",317,230 F,2,56568,57118,1,0 S,2,56568,57118,0.3,0.45 P,0,56568,57118,A
Sprite,Foreground,Centre,"storyboard\circle.png",0,0 M,0,56740,56826,389,420,424.2412,413.9899 F,2,56740,57548,1,0 S,2,56740,57548,0.3,0.45 P,0,56740,57548,A M,0,56826,56912,424.2412,413.9899,459.4824,407.9797 M,0,56912,56998,459.4824,407.9797,494.7235,401.9696
Sprite,Foreground,Centre,"storyboard\circle.png",511,412 F,2,57085,57635,1,0 S,2,57085,57635,0.3,0.45 P,0,57085,57635,A
Sprite,Foreground,Centre,"storyboard\circle.png",0,0 M,0,57258,57344,484,212,448.765,213.2505 F,2,57258,58152,1,0 S,2,57258,58152,0.3,0.45 P,0,57258,58152,A M,0,57344,57430,448.765,213.2505,419.0423,232.0403 M,0,57430,57516,419.0423,232.0403,402.874,263.1987 M,0,57516,57602,402.874,263.1987,404,298
Sprite,Foreground,Centre,"storyboard\circle.png",0,0 M,0,57775,57861,548,327,554.0166,291.7599 F,2,57775,58497,1,0 S,2,57775,58497,0.3,0.45 P,0,57775,58497,A M,0,57861,57947,554.0166,291.7599,560.0332,256.5198
Sprite,Foreground,Centre,"storyboard\circle.png",0,0 M,0,58120,58206,434,128,398.64,133.2664 F,2,58120,59014,1,0 S,2,58120,59014,0.3,0.45 P,0,58120,59014,A M,0,58206,58292,398.64,133.2664,369.5513,151.4517 M,0,58292,58378,369.5513,151.4517,340.4942,169.6779 M,0,58378,58464,340.4942,169.6779,305.1184,174.8369
Sprite,Foreground,Centre,"storyboard\circle.png",157,187 F,2,58637,59187,1,0 S,2,58637,59187,0.3,0.45 P,0,58637,59187,A
Sprite,Foreground,Centre,"storyboard\circle.png",0,0 M,0,58809,58895,254,62,288.4218,68.12416 F,2,58809,59531,1,0 S,2,58809,59531,0.3,0.45 P,0,58809,59531,A M,0,58895,58981,288.4218,68.12416,311.9233,93.79702
Sprite,Foreground,Centre,"storyboard\circle.png",197,276 F,2,59154,59704,1,0 S,2,59154,59704,0.3,0.45 P,0,59154,59704,A
Sprite,Foreground,Centre,"storyboard\circle.png",141,86 F,2,59327,59877,1,0 S,2,59327,59877,0.3,0.45 P,0,59327,59877,A
Sprite,Foreground,Centre,"storyboard\circle.png",0,0 M,0,59499,59585,305,174,300.343,209.4454 F,2,59499,60307,1,0 S,2,59499,60307,0.3,0.45 P,0,59499,60307,A M,0,59585,59671,300.343,209.4454,295.6859,244.8907 M,0,59671,59757,295.6859,244.8907,291.0288,280.3361
Sprite,Foreground,Centre,"storyboard\circle.png",302,293 F,2,59844,60394,1,0 S,2,59844,60394,0.3,0.45 P,0,59844,60394,A
Sprite,Foreground,Centre,"storyboard\circle.png",0,0 M,0,60016,60102,108,380,143.048,372.9501 F,2,60016,60910,1,0 S,2,60016,60910,0.3,0.45 P,0,60016,60910,A M,0,60102,60188,143.048,372.9501,178.096,365.9002 M,0,60188,60274,178.096,365.9002,213.144,358.8503 M,0,60274,60360,213.144,358.8503,248.192,351.8005
Sprite,Foreground,Centre,"storyboard\circle.png",0,0 M,0,60534,60620,392,395,357.0069,397.3441 F,2,60534,61256,1,0 S,2,60534,61256,0.3,0.45 P,0,60534,61256,A M,0,60620,60706,357.0069,397.3441,327.5606,378.4827
Sprite,Foreground,Centre,"storyboard\circle.png",0,0 M,0,60878,60964,487,274,511.9101,299.6427 F,2,60878,61772,1,0 S,2,60878,61772,0.3,0.45 P,0,60878,61772,A M,0,60964,61050,511.9101,299.6427,511.8355,329.7728 M,0,61050,61136,511.8355,329.7728,497.4054,362.4811 M,0,61136,61222,497.4054,362.4811,482.9753,395.1894
Sprite,Foreground,Centre,"storyboard\circle.png",321,280 F,2,61396,61946,1,0 S,2,61396,61946,0.3,0.45 P,0,61396,61946,A
Sprite,Foreground,Centre,"storyboard\circle.png",493,182 F,2,61568,62118,1,0 S,2,61568,62118,0.3,0.45 P,0,61568,62118,A
Sprite,Foreground,Centre,"storyboard\circle.png",407,318 F,2,61740,62290,1,0 S,2,61740,62290,0.3,0.45 P,0,61740,62290,A
Sprite,Foreground,Centre,"storyboard\circle.png",418,105 F,2,61913,62463,1,0 S,2,61913,62463,0.3,0.45 P,0,61913,62463,A
Sprite,Foreground,Centre,"storyboard\circle.png",487,274 F,2,62085,62635,1,0 S,2,62085,62635,0.3,0.45 P,0,62085,62635,A
Sprite,Foreground,Centre,"storyboard\circle.png",0,0 M,0,62258,62344,309,130,273.629,124.8079 F,2,62258,63066,1,0 S,2,62258,63066,0.3,0.45 P,0,62258,63066,A M,0,62344,62430,273.629,124.8079,238.2581,119.6159 M,0,62430,62516,238.2581,119.6159,202.8871,114.4238
Sprite,Foreground,Centre,"storyboard\circle.png",181,124 F,2,62603,63153,1,0 S,2,62603,63153,0.3,0.45 P,0,62603,63153,A
Sprite,Foreground,Centre,"storyboard\circle.png",0,0 M,0,62775,62861,149,282,184.1992,285.6746 F,2,62775,63669,1,0 S,2,62775,63669,0.3,0.45 P,0,62775,63669,A M,0,62861,62947,184.1992,285.6746,217.4882,273.8739 M,0,62947,63033,217.4882,273.8739,242.7948,249.1504 M,0,63033,63119,242.7948,249.1504,254.3573,215.7022
Sprite,Foreground,Centre,"storyboard\circle.png",0,0 M,0,63292,63378,78,146,83.59361,181.3097 F,2,63292,64014,1,0 S,2,63292,64014,0.3,0.45 P,0,63292,64014,A M,0,63378,63464,83.59361,181.3097,89.18723,216.6194
Sprite,Foreground,Centre,"storyboard\circle.png",0,0 M,0,63637,63723,185,367,220.3285,361.5266 F,2,63637,64531,1,0 S,2,63637,64531,0.3,0.45 P,0,63637,64531,A M,0,63723,63809,220.3285,361.5266,255.657,356.0531 M,0,63809,63895,255.657,356.0531,290.9855,350.5797 M,0,63895,63981,290.9855,350.5797,326.3141,345.1063
Sprite,Foreground,Centre,"storyboard\circle.png",503,385 F,2,64154,64704,1,0 S,2,64154,64704,0.3,0.45 P,0,64154,64704,A
Sprite,Foreground,Centre,"storyboard\circle.png",0,0 M,0,64327,64413,367,236,331.6284,230.8122 F,2,64327,65049,1,0 S,2,64327,65049,0.3,0.45 P,0,64327,65049,A M,0,64413,64499,331.6284,230.8122,296.2568,225.6243
Sprite,Foreground,Centre,"storyboard\circle.png",426,427 F,2,64672,65222,1,0 S,2,64672,65222,0.3,0.45 P,0,64672,65222,A
Sprite,Foreground,Centre,"storyboard\circle.png",489,218 F,2,64844,65394,1,0 S,2,64844,65394,0.3,0.45 P,0,64844,65394,A
Sprite,Foreground,Centre,"storyboard\circle.png",0,0 M,0,65016,65102,336,358,300.7578,364.0042 F,2,65016,65824,1,0 S,2,65016,65824,0.3,0.45 P,0,65016,65824,A M,0,65102,65188,300.7578,364.0042,265.5156,370.0085 M,0,65188,65274,265.5156,370.0085,230.2734,376.0127
Sprite,Foreground,Centre,"storyboard\circle.png",218,387 F,2,65361,65911,1,0 S,2,65361,65911,0.3,0.45 P,0,65361,65911,A
Sprite,Foreground,Centre,"storyboard\circle.png",0,0 M,0,65534,65620,417,306,441.0773,332.4263 F,2,65534,66428,1,0 S,2,65534,66428,0.3,0.45 P,0,65534,66428,A M,0,65620,65706,441.0773,332.4263,453.7529,360.7372 M,0,65706,65792,453.7529,360.7372,439.4603,393.5058 M,0,65792,65878,439.4603,393.5058,425.1676,426.2744
Sprite,Foreground,Centre,"storyboard\circle.png",0,0 M,0,66051,66137,268,331,262.8892,295.6172 F,2,66051,66773,1,0 S,2,66051,66773,0.3,0.45 P,0,66051,66773,A M,0,66137,66223,262.8892,295.6172,257.7783,260.2344
Sprite,Foreground,Centre,"storyboard\circle.png",0,0 M,0,66396,66482,298,161,333.36,155.7336 F,2,66396,67290,1,0 S,2,66396,67290,0.3,0.45 P,0,66396,67290,A M,0,66482,66568,333.36,155.7336,366.7587,164.0833 M,0,66568,66654,366.7587,164.0833,400.3401,170.5789 M,0,66654,66740,400.3401,170.5789,435.5913,164.6274
Sprite,Foreground,Centre,"storyboard\circle.png",548,166 F,2,66913,67463,1,0 S,2,66913,67463,0.3,0.45 P,0,66913,67463,A
Sprite,Foreground,Centre,"storyboard\circle.png",0,0 M,0,67085,67171,424,56,389.1004,59.3128 F,2,67085,67807,1,0 S,2,67085,67807,0.3,0.45 P,0,67085,67807,A M,0,67171,67257,389.1004,59.3128,363.5672,83.22784
Sprite,Foreground,Centre,"storyboard\circle.png",453,274 F,2,67431,67981,1,0 S,2,67431,67981,0.3,0.45 P,0,67431,67981,A
Sprite,Foreground,Centre,"storyboard\circle.png",475,124 F,2,67603,68153,1,0 S,2,67603,68153,0.3,0.45 P,0,67603,68153,A
Sprite,Foreground,Centre,"storyboard\circle.png",0,0 M,0,67775,67861,338,263,344.8907,298.0797 F,2,67775,68583,1,0 S,2,67775,68583,0.3,0.45 P,0,67775,68583,A M,0,67861,67947,344.8907,298.0797,351.7813,333.1593 M,0,67947,68033,351.7813,333.1593,358.6719,368.2389
Sprite,Foreground,Centre,"storyboard\circle.png",362,386 F,2,68120,68670,1,0 S,2,68120,68670,0.3,0.45 P,0,68120,68670,A
Sprite,Foreground,Centre,"storyboard\circle.png",0,0 M,0,68292,68378,406,203,375.3032,220.5452 F,2,68292,69186,1,0 S,2,68292,69186,0.3,0.45 P,0,68292,69186,A M,0,68378,68464,375.3032,220.5452,340.0775,222.4781 M,0,68464,68550,340.0775,222.4781,307.5001,208.782 M,0,68550,68636,307.5001,208.782,285.0421,181.4806
Sprite,Foreground,Centre,"storyboard\circle.png",0,0 M,0,68809,68895,363,75,357.6217,110.3431 F,2,68809,69531,1,0 S,2,68809,69531,0.3,0.45 P,0,68809,69531,A M,0,68895,68981,357.6217,110.3431,352.2434,145.6862
Sprite,Foreground,Centre,"storyboard\circle.png",0,0 M,0,69155,69241,214,240,208.7336,204.64 F,2,69155,70049,1,0 S,2,69155,70049,0.3,0.45 P,0,69155,70049,A M,0,69241,69327,208.7336,204.64,190.5483,175.5513 M,0,69327,69413,190.5483,175.5513,172.3221,146.4942 M,0,69413,69499,172.3221,146.4942,167.1631,111.1184
Sprite,Foreground,Centre,"storyboard\circle.png",248,117 F,2,69672,70222,1,0 S,2,69672,70222,0.3,0.45 P,0,69672,70222,A
Sprite,Foreground,Centre,"storyboard\circle.png",0,0 M,0,69844,69930,133,234,98.28802,225.4478 F,2,69844,70566,1,0 S,2,69844,70566,0.3,0.45 P,0,69844,70566,A M,0,69930,70016,98.28802,225.4478,64,217
Sprite,Foreground,Centre,"storyboard\circle.png",142,313 F,2,70189,70739,1,0 S,2,70189,70739,0.3,0.45 P,0,70189,70739,A
Sprite,Foreground,Centre,"storyboard\circle.png",167,111 F,2,70362,70912,1,0 S,2,70362,70912,0.3,0.45 P,0,70362,70912,A
Sprite,Foreground,Centre,"storyboard\circle.png",0,0 M,0,70534,70620,295,272,290.343,307.4454 F,2,70534,71342,1,0 S,2,70534,71342,0.3,0.45 P,0,70534,71342,A M,0,70620,70706,290.343,307.4454,285.6859,342.8907 M,0,70706,70792,285.6859,342.8907,281.0288,378.3361
Sprite,Foreground,Centre,"storyboard\circle.png",270,389 F,2,70879,71429,1,0 S,2,70879,71429,0.3,0.45 P,0,70879,71429,A
Sprite,Foreground,Centre,"storyboard\circle.png",0,0 M,0,71051,71137,395,288,430.2421,285.4517 F,2,71051,71945,1,0 S,2,71051,71945,0.3,0.45 P,0,71051,71945,A M,0,71137,71223,430.2421,285.4517,462.5547,299.5495 M,0,71223,71309,462.5547,299.5495,484.5735,327.0184 M,0,71309,71395,484.5735,327.0184,491.7095,361.5741
Sprite,Foreground,Centre,"storyboard\circle.png",0,0 M,0,71568,71654,425,434,409.3543,402.3559 F,2,71568,72290,1,0 S,2,71568,72290,0.3,0.45 P,0,71568,72290,A M,0,71654,71740,409.3543,402.3559,410.6577,367.1692
Sprite,Foreground,Centre,"storyboard\circle.png",0,0 M,0,71913,71999,553,287,549.4646,322.5748 F,2,71913,72807,1,0 S,2,71913,72807,0.3,0.45 P,0,71913,72807,A M,0,71999,72085,549.4646,322.5748,545.9292,358.1495 M,0,72085,72171,545.9292,358.1495,542.3939,393.7243 M,0,72171,72257,542.3939,393.7243,538.8585,429.299
Sprite,Foreground,Centre,"storyboard\circle.png",395,288 F,2,72431,72981,1,0 S,2,72431,72981,0.3,0.45 P,0,72431,72981,A
Sprite,Foreground,Centre,"storyboard\circle.png",551,196 F,2,72603,73153,1,0 S,2,72603,73153,0.3,0.45 P,0,72603,73153,A
Sprite,Foreground,Centre,"storyboard\circle.png",410,148 F,2,72775,73325,1,0 S,2,72775,73325,0.3,0.45 P,0,72775,73325,A
Sprite,Foreground,Centre,"storyboard\circle.png",476,303 F,2,72948,73498,1,0 S,2,72948,73498,0.3,0.45 P,0,72948,73498,A
Sprite,Foreground,Centre,"storyboard\circle.png",519,110 F,2,73120,73670,1,0 S,2,73120,73670,0.3,0.45 P,0,73120,73670,A
Sprite,Foreground,Centre,"storyboard\circle.png",0,0 M,0,73293,73379,350,213,314.629,207.8079 F,2,73293,74101,1,0 S,2,73293,74101,0.3,0.45 P,0,73293,74101,A M,0,73379,73465,314.629,207.8079,279.2581,202.6159 M,0,73465,73551,279.2581,202.6159,243.8871,197.4238
Sprite,Foreground,Centre,"storyboard\circle.png",234,188 F,2,73638,74188,1,0 S,2,73638,74188,0.3,0.45 P,0,73638,74188,A
Sprite,Foreground,Centre,"storyboard\circle.png",0,0 M,0,73809,73895,156,299,191.36,293.7336 F,2,73809,74703,1,0 S,2,73809,74703,0.3,0.45 P,0,73809,74703,A M,0,73895,73981,191.36,293.7336,224.7587,302.0833 M,0,73981,74067,224.7587,302.0833,258.3401,308.5789 M,0,74067,74153,258.3401,308.5789,293.5913,302.6274
Sprite,Foreground,Centre,"storyboard\circle.png",0,0 M,0,74327,74413,312,129,298.6693,96.40562 F,2,74327,75049,1,0 S,2,74327,75049,0.3,0.45 P,0,74327,75049,A M,0,74413,74499,298.6693,96.40562,269.8213,76.31879
Sprite,Foreground,Centre,"storyboard\circle.png",0,0 M,0,74671,74757,93,163,128.2148,169.1626 F,2,74671,75565,1,0 S,2,74671,75565,0.3,0.45 P,0,74671,75565,A M,0,74757,74843,128.2148,169.1626,163.4297,175.3252 M,0,74843,74929,163.4297,175.3252,198.6445,181.4878 M,0,74929,75015,198.6445,181.4878,233.8594,187.6504
Sprite,Foreground,Centre,"storyboard\circle.png",409,212 F,2,75189,75739,1,0 S,2,75189,75739,0.3,0.45 P,0,75189,75739,A
Sprite,Foreground,Centre,"storyboard\circle.png",0,0 M,0,75361,75447,293,302,298.1766,337.3732 F,2,75361,76083,1,0 S,2,75361,76083,0.3,0.45 P,0,75361,76083,A M,0,75447,75533,298.1766,337.3732,303.3531,372.7465
Sprite,Foreground,Centre,"storyboard\circle.png",329,217 F,2,75707,76257,1,0 S,2,75707,76257,0.3,0.45 P,0,75707,76257,A
Sprite,Foreground,Centre,"storyboard\circle.png",194,273 F,2,75879,76429,1,0 S,2,75879,76429,0.3,0.45 P,0,75879,76429,A
Sprite,Foreground,Centre,"storyboard\circle.png",0,0 M,0,76051,76137,375,403,410.2957,406.2352 F,2,76051,76859,1,0 S,2,76051,76859,0.3,0.45 P,0,76051,76859,A M,0,76137,76223,410.2957,406.2352,443.7518,394.6863 M,0,76223,76309,443.7518,394.6863,469.4695,370.4268
Sprite,Foreground,Centre,"storyboard\circle.png",479,355 F,2,76396,76946,1,0 S,2,76396,76946,0.3,0.45 P,0,76396,76946,A
Sprite,Foreground,Centre,"storyboard\circle.png",0,0 M,0,76568,76654,446,144,442.3463,179.5628 F,2,76568,77462,1,0 S,2,76568,77462,0.3,0.45 P,0,76568,77462,A M,0,76654,76740,442.3463,179.5628,438.6926,215.1256 M,0,76740,76826,438.6926,215.1256,435.0388,250.6884 M,0,76826,76912,435.0388,250.6884,431.3852,286.2512
Sprite,Foreground,Centre,"storyboard\circle.png",0,0 M,0,77085,77171,560,331,543.2056,296.9717 F,2,77085,77807,1,0 S,2,77085,77807,0.3,0.45 P,0,77085,77807,A M,0,77171,77257,543.2056,296.9717,511.7649,275.9154
Sprite,Foreground,Centre,"storyboard\line.png",320,248 F,2,99499,102118,0.25,0 S,2,99499,102118,4 P,0,99499,102118,A
Sprite,Foreground,Centre,"storyboard\line.png",0,0 M,0,102258,102602,158,114,169.6012,256.5286 F,2,102258,103152,0.25,0 S,2,102258,103152,4 P,0,102258,103152,A
Sprite,Foreground,Centre,"storyboard\line.png",186,393 F,2,102775,103325,0.25,0 S,2,102775,103325,4 P,0,102775,103325,A
Sprite,Foreground,Centre,"storyboard\line.png",255,213 F,2,102947,103497,0.25,0 S,2,102947,103497,4 P,0,102947,103497,A
Sprite,Foreground,Centre,"storyboard\line.png",95,282 F,2,103120,103670,0.25,0 S,2,103120,103670,4 P,0,103120,103670,A
Sprite,Foreground,Centre,"storyboard\line.png",0,0 M,0,103292,103464,280,349,349.0924,330.6053 F,2,103292,104014,0.25,0 S,2,103292,104014,4 P,0,103292,104014,A
Sprite,Foreground,Centre,"storyboard\line.png",0,0 M,0,103637,103981,430,157,341.1552,247.9404 F,2,103637,104531,0.25,0 S,2,103637,104531,4 P,0,103637,104531,A
Sprite,Foreground,Centre,"storyboard\line.png",0,0 M,0,104154,104498,432,384 F,2,104154,105048,0.25,0 S,2,104154,105048,4 P,0,104154,105048,A
Sprite,Foreground,Centre,"storyboard\line.png",521,271 F,2,104671,105221,0.25,0 S,2,104671,105221,4 P,0,104671,105221,A
Sprite,Foreground,Centre,"storyboard\line.png",349,331 F,2,104844,105394,0.25,0 S,2,104844,105394,4 P,0,104844,105394,A
Sprite,Foreground,Centre,"storyboard\line.png",0,0 M,0,105016,105188,535,431,523.2455,360.4728 F,2,105016,105738,0.25,0 S,2,105016,105738,4 P,0,105016,105738,A
Sprite,Foreground,Centre,"storyboard\line.png",0,0 M,0,105361,105533,395,189,383.2455,259.5272 F,2,105361,106083,0.25,0 S,2,105361,106083,4 P,0,105361,106083,A
Sprite,Foreground,Centre,"storyboard\line.png",437,403 F,2,105706,106256,0.25,0 S,2,105706,106256,4 P,0,105706,106256,A
Sprite,Foreground,Centre,"storyboard\line.png",512,190 F,2,105878,106428,0.25,0 S,2,105878,106428,4 P,0,105878,106428,A
Sprite,Foreground,Centre,"storyboard\line.png",0,0 M,0,106051,106223,349,331,279.2397,346.6765 F,2,106051,106773,0.25,0 S,2,106051,106773,4 P,0,106051,106773,A
Sprite,Foreground,Centre,"storyboard\line.png",0,0 M,0,106396,106740,158,155,278.1658,200.0001 F,2,106396,107290,0.25,0 S,2,106396,107290,4 P,0,106396,107290,A
Sprite,Foreground,Centre,"storyboard\line.png",0,0 M,0,106913,107085,181,347,164.5403,277.4203 F,2,106913,107635,0.25,0 S,2,106913,107635,4 P,0,106913,107635,A
Sprite,Foreground,Centre,"storyboard\line.png",278,89 F,2,107258,107808,0.25,0 S,2,107258,107808,4 P,0,107258,107808,A
Sprite,Foreground,Centre,"storyboard\line.png",237,272 F,2,107430,107980,0.25,0 S,2,107430,107980,4 P,0,107430,107980,A
Sprite,Foreground,Centre,"storyboard\line.png",158,155 F,2,107603,108153,0.25,0 S,2,107603,108153,4 P,0,107603,108153,A
Sprite,Foreground,Centre,"storyboard\line.png",0,0 M,0,107775,107947,346,237,415.5891,220.5801 F,2,107775,108497,0.25,0 S,2,107775,108497,4 P,0,107775,108497,A
Sprite,Foreground,Centre,"storyboard\line.png",0,0 M,0,108120,108292,278,89,208.4109,72.58011 F,2,108120,108842,0.25,0 S,2,108120,108842,4 P,0,108120,108842,A
Sprite,Foreground,Centre,"storyboard\line.png",315,318 F,2,108465,109015,0.25,0 S,2,108465,109015,4 P,0,108465,109015,A
Sprite,Foreground,Centre,"storyboard\line.png",387,121 F,2,108637,109187,0.25,0 S,2,108637,109187,4 P,0,108637,109187,A
Sprite,Foreground,Centre,"storyboard\line.png",0,0 M,0,108809,108981,237,272,225.0921,341.4135 F,2,108809,109531,0.25,0 S,2,108809,109531,4 P,0,108809,109531,A
Sprite,Foreground,Centre,"storyboard\line.png",0,0 M,0,109154,109498,424,423,415.3298,302.7889 F,2,109154,110048,0.25,0 S,2,109154,110048,4 P,0,109154,110048,A
Sprite,Foreground,Centre,"storyboard\line.png",0,0 M,0,109671,109843,341,210,270.3528,198.9901 F,2,109671,110393,0.25,0 S,2,109671,110393,4 P,0,109671,110393,A
Sprite,Foreground,Centre,"storyboard\line.png",280,400 F,2,110016,110566,0.25,0 S,2,110016,110566,4 P,0,110016,110566,A
Sprite,Foreground,Centre,"storyboard\line.png",0,0 M,0,110189,110447,415,302,520.0525,280.4004 F,2,110189,110997,0.25,0 S,2,110189,110997,4 P,0,110189,110997,A
Sprite,Foreground,Centre,"storyboard\line.png",0,0 M,0,110534,110878,539,268,532.2078,141.6638 F,2,110534,111428,0.25,0 S,2,110534,111428,4 P,0,110534,111428,A
Sprite,Foreground,Centre,"storyboard\line.png",0,0 M,0,111051,111223,398,57,408.8721,127.6686 F,2,111051,111773,0.25,0 S,2,111051,111773,4 P,0,111051,111773,A
Sprite,Foreground,Centre,"storyboard\line.png",469,254 F,2,111396,111946,0.25,0 S,2,111396,111946,4 P,0,111396,111946,A
Sprite,Foreground,Centre,"storyboard\line.png",0,0 M,0,111568,111740,341,210,270.6903,222.992 F,2,111568,112290,0.25,0 S,2,111568,112290,4 P,0,111568,112290,A
Sprite,Foreground,Centre,"storyboard\line.png",0,0 M,0,111913,112257,144,101,284.6533,126.8003 F,2,111913,112807,0.25,0 S,2,111913,112807,4 P,0,111913,112807,A
Sprite,Foreground,Centre,"storyboard\line.png",425,143 F,2,112430,112980,0.25,0 S,2,112430,112980,4 P,0,112430,112980,A
Sprite,Foreground,Centre,"storyboard\line.png",0,0 M,0,112603,112775,270,222,199.7462,208.7087 F,2,112603,113325,0.25,0 S,2,112603,113325,4 P,0,112603,113325,A
Sprite,Foreground,Centre,"storyboard\line.png",0,0 M,0,112947,113119,354,273,368.7021,206.7537 F,2,112947,113669,0.25,0 S,2,112947,113669,4 P,0,112947,113669,A
Sprite,Foreground,Centre,"storyboard\line.png",0,0 M,0,113292,113636,252,342,390.8024,347.7908 F,2,113292,114186,0.25,0 S,2,113292,114186,4 P,0,113292,114186,A
Sprite,Foreground,Centre,"storyboard\line.png",545,327 F,2,113809,114359,0.25,0 S,2,113809,114359,4 P,0,113809,114359,A
Sprite,Foreground,Centre,"storyboard\line.png",354,273 F,2,113981,114531,0.25,0 S,2,113981,114531,4 P,0,113981,114531,A
Sprite,Foreground,Centre,"storyboard\line.png",418,440 F,2,114154,114704,0.25,0 S,2,114154,114704,4 P,0,114154,114704,A
Sprite,Foreground,Centre,"storyboard\line.png",0,0 M,0,114327,114499,483,257,468.3055,187.0263 F,2,114327,115049,0.25,0 S,2,114327,115049,4 P,0,114327,115049,A
Sprite,Foreground,Centre,"storyboard\line.png",0,0 M,0,114671,115015,305,76,216.2928,162.2006 F,2,114671,115565,0.25,0 S,2,114671,115565,4 P,0,114671,115565,A
Sprite,Foreground,Centre,"storyboard\line.png",0,0 M,0,115189,115533,382,149 F,2,115189,116083,0.25,0 S,2,115189,116083,4 P,0,115189,116083,A
Sprite,Foreground,Centre,"storyboard\line.png",468,187 F,2,115705,116255,0.25,0 S,2,115705,116255,4 P,0,115705,116255,A
Sprite,Foreground,Centre,"storyboard\line.png",296,162 F,2,115878,116428,0.25,0 S,2,115878,116428,4 P,0,115878,116428,A
Sprite,Foreground,Centre,"storyboard\line.png",0,0 M,0,116051,116223,482,101,551,84 F,2,116051,116773,0.25,0 S,2,116051,116773,4 P,0,116051,116773,A
Sprite,Foreground,Centre,"storyboard\line.png",0,0 M,0,116396,116568,379,255,308.422,243.5549 F,2,116396,117118,0.25,0 S,2,116396,117118,4 P,0,116396,117118,A
Sprite,Foreground,Centre,"storyboard\line.png",456,299 F,2,116740,117290,0.25,0 S,2,116740,117290,4 P,0,116740,117290,A
Sprite,Foreground,Centre,"storyboard\line.png",393,78 F,2,116912,117462,0.25,0 S,2,116912,117462,4 P,0,116912,117462,A
Sprite,Foreground,Centre,"storyboard\line.png",0,0 M,0,117085,117257,308,243,293.6395,310.1855 F,2,117085,117807,0.25,0 S,2,117085,117807,4 P,0,117085,117807,A
Sprite,Foreground,Centre,"storyboard\line.png",0,0 M,0,117430,117774,436,411,294.2141,392.4051 F,2,117430,118324,0.25,0 S,2,117430,118324,4 P,0,117430,118324,A
Sprite,Foreground,Centre,"storyboard\line.png",0,0 M,0,117947,118119,141,364,211.5082,352.1323 F,2,117947,118669,0.25,0 S,2,117947,118669,4 P,0,117947,118669,A
Sprite,Foreground,Centre,"storyboard\line.png",381,325 F,2,118292,118842,0.25,0 S,2,118292,118842,4 P,0,118292,118842,A
Sprite,Foreground,Centre,"storyboard\line.png",0,0 M,0,118465,118637,203,253,132.4918,241.1323 F,2,118465,119187,0.25,0 S,2,118465,119187,4 P,0,118465,119187,A
Sprite,Foreground,Centre,"storyboard\line.png",0,0 M,0,118809,119153,271,126,378.8661,179.17 F,2,118809,119703,0.25,0 S,2,118809,119703,4 P,0,118809,119703,A
Sprite,Foreground,Centre,"storyboard\line.png",290,303 F,2,119327,119877,0.25,0 S,2,119327,119877,4 P,0,119327,119877,A
Sprite,Foreground,Centre,"storyboard\line.png",0,0 M,0,119499,119671,180,171,168.8128,100.3806 F,2,119499,120221,0.25,0 S,2,119499,120221,4 P,0,119499,120221,A
Sprite,Foreground,Centre,"storyboard\line.png",0,0 M,0,119844,120016,299,233,288.0364,303.6544 F,2,119844,120566,0.25,0 S,2,119844,120566,4 P,0,119844,120566,A
Sprite,Foreground,Centre,"storyboard\line.png",0,0 M,0,120189,120533,216,414,188.244,273.7195 F,2,120189,121083,0.25,0 S,2,120189,121083,4 P,0,120189,121083,A
Sprite,Foreground,Centre,"storyboard\line.png",364,130 F,2,120706,121256,0.25,0 S,2,120706,121256,4 P,0,120706,121256,A
Sprite,Foreground,Centre,"storyboard\line.png",394,315 F,2,120878,121428,0.25,0 S,2,120878,121428,4 P,0,120878,121428,A
Sprite,Foreground,Centre,"storyboard\line.png",299,233 F,2,121051,121601,0.25,0 S,2,121051,121601,4 P,0,121051,121601,A
Sprite,Foreground,Centre,"storyboard\line.png",0,0 M,0,121223,121481,444,185,539.1267,220.3271 F,2,121223,122031,0.25,0 S,2,121223,122031,4 P,0,121223,122031,A
Sprite,Foreground,Centre,"storyboard\circle.png",0,0 M,0,102258,102344,158,114,160.9003,149.6322 F,2,102258,103152,1,0 S,2,102258,103152,0.3,0.45 P,0,102258,103152,A M,0,102344,102430,160.9003,149.6322,163.8006,185.2643 M,0,102430,102516,163.8006,185.2643,166.7009,220.8965 M,0,102516,102602,166.7009,220.8965,169.6012,256.5286
Sprite,Foreground,Centre,"storyboard\circle.png",186,393 F,2,102775,103325,1,0 S,2,102775,103325,0.3,0.45 P,0,102775,103325,A
Sprite,Foreground,Centre,"storyboard\circle.png",255,213 F,2,102947,103497,1,0 S,2,102947,103497,0.3,0.45 P,0,102947,103497,A
Sprite,Foreground,Centre,"storyboard\circle.png",95,282 F,2,103120,103670,1,0 S,2,103120,103670,0.3,0.45 P,0,103120,103670,A
Sprite,Foreground,Centre,"storyboard\circle.png",0,0 M,0,103292,103378,280,349,314.5096,339.6654 F,2,103292,104014,1,0 S,2,103292,104014,0.3,0.45 P,0,103292,104014,A M,0,103378,103464,314.5096,339.6654,349.0924,330.6053
Sprite,Foreground,Centre,"storyboard\circle.png",0,0 M,0,103637,103723,430,157,395.1434,163.4282 F,2,103637,104531,1,0 S,2,103637,104531,0.3,0.45 P,0,103637,104531,A M,0,103723,103809,395.1434,163.4282,365.8029,183.2057 M,0,103809,103895,365.8029,183.2057,346.8194,213.028 M,0,103895,103981,346.8194,213.028,341.1552,247.9404
Sprite,Foreground,Centre,"storyboard\circle.png",0,0 M,0,104154,104240,432,384,437.8773,348.7364 F,2,104154,105048,1,0 S,2,104154,105048,0.3,0.45 P,0,104154,105048,A M,0,104240,104326,437.8773,348.7364,443.7545,313.4728 M,0,104326,104412,443.7545,313.4728,437.8773,348.7364 M,0,104412,104498,437.8773,348.7364,432,384
Sprite,Foreground,Centre,"storyboard\circle.png",521,271 F,2,104671,105221,1,0 S,2,104671,105221,0.3,0.45 P,0,104671,105221,A
Sprite,Foreground,Centre,"storyboard\circle.png",349,331 F,2,104844,105394,1,0 S,2,104844,105394,0.3,0.45 P,0,104844,105394,A
Sprite,Foreground,Centre,"storyboard\circle.png",0,0 M,0,105016,105102,535,431,529.1227,395.7364 F,2,105016,105738,1,0 S,2,105016,105738,0.3,0.45 P,0,105016,105738,A M,0,105102,105188,529.1227,395.7364,523.2455,360.4728
Sprite,Foreground,Centre,"storyboard\circle.png",0,0 M,0,105361,105447,395,189,389.1227,224.2636 F,2,105361,106083,1,0 S,2,105361,106083,0.3,0.45 P,0,105361,106083,A M,0,105447,105533,389.1227,224.2636,383.2455,259.5272
Sprite,Foreground,Centre,"storyboard\circle.png",437,403 F,2,105706,106256,1,0 S,2,105706,106256,0.3,0.45 P,0,105706,106256,A
Sprite,Foreground,Centre,"storyboard\circle.png",512,190 F,2,105878,106428,1,0 S,2,105878,106428,0.3,0.45 P,0,105878,106428,A
Sprite,Foreground,Centre,"storyboard\circle.png",0,0 M,0,106051,106137,349,331,314.1198,338.8382 F,2,106051,106773,1,0 S,2,106051,106773,0.3,0.45 P,0,106051,106773,A M,0,106137,106223,314.1198,338.8382,279.2397,346.6765
Sprite,Foreground,Centre,"storyboard\circle.png",0,0 M,0,106396,106482,158,155,192.5091,146.8028 F,2,106396,107290,1,0 S,2,106396,107290,0.3,0.45 P,0,106396,107290,A M,0,106482,106568,192.5091,146.8028,227.4577,152.5274 M,0,106568,106654,227.4577,152.5274,257.4732,171.2618 M,0,106654,106740,257.4732,171.2618,278.1658,200.0001
Sprite,Foreground,Centre,"storyboard\circle.png",0,0 M,0,106913,106999,181,347,172.7701,312.2102 F,2,106913,107635,1,0 S,2,106913,107635,0.3,0.45 P,0,106913,107635,A M,0,106999,107085,172.7701,312.2102,164.5403,277.4203
Sprite,Foreground,Centre,"storyboard\circle.png",278,89 F,2,107258,107808,1,0 S,2,107258,107808,0.3,0.45 P,0,107258,107808,A
Sprite,Foreground,Centre,"storyboard\circle.png",237,272 F,2,107430,107980,1,0 S,2,107430,107980,0.3,0.45 P,0,107430,107980,A
Sprite,Foreground,Centre,"storyboard\circle.png",158,155 F,2,107603,108153,1,0 S,2,107603,108153,0.3,0.45 P,0,107603,108153,A
Sprite,Foreground,Centre,"storyboard\circle.png",0,0 M,0,107775,107861,346,237,380.7945,228.7901 F,2,107775,108497,1,0 S,2,107775,108497,0.3,0.45 P,0,107775,108497,A M,0,107861,107947,380.7945,228.7901,415.5891,220.5801
Sprite,Foreground,Centre,"storyboard\circle.png",0,0 M,0,108120,108206,278,89,243.2055,80.79005 F,2,108120,108842,1,0 S,2,108120,108842,0.3,0.45 P,0,108120,108842,A M,0,108206,108292,243.2055,80.79005,208.4109,72.58011
Sprite,Foreground,Centre,"storyboard\circle.png",315,318 F,2,108465,109015,1,0 S,2,108465,109015,0.3,0.45 P,0,108465,109015,A
Sprite,Foreground,Centre,"storyboard\circle.png",387,121 F,2,108637,109187,1,0 S,2,108637,109187,0.3,0.45 P,0,108637,109187,A
Sprite,Foreground,Centre,"storyboard\circle.png",0,0 M,0,108809,108895,237,272,226.005,305.8575 F,2,108809,109531,1,0 S,2,108809,109531,0.3,0.45 P,0,108809,109531,A M,0,108895,108981,226.005,305.8575,225.0921,341.4135
Sprite,Foreground,Centre,"storyboard\circle.png",0,0 M,0,109154,109240,424,423,442.6404,392.6058 F,2,109154,110048,1,0 S,2,109154,110048,0.3,0.45 P,0,109154,110048,A M,0,109240,109326,442.6404,392.6058,451.7039,364.3452 M,0,109326,109412,451.7039,364.3452,433.5169,333.567 M,0,109412,109498,433.5169,333.567,415.3298,302.7889
Sprite,Foreground,Centre,"storyboard\circle.png",0,0 M,0,109671,109757,341,210,305.6764,204.495 F,2,109671,110393,1,0 S,2,109671,110393,0.3,0.45 P,0,109671,110393,A M,0,109757,109843,305.6764,204.495,270.3528,198.9901
Sprite,Foreground,Centre,"storyboard\circle.png",280,400 F,2,110016,110566,1,0 S,2,110016,110566,0.3,0.45 P,0,110016,110566,A
Sprite,Foreground,Centre,"storyboard\circle.png",0,0 M,0,110189,110275,415,302,450.0175,294.8001 F,2,110189,110997,1,0 S,2,110189,110997,0.3,0.45 P,0,110189,110997,A M,0,110275,110361,450.0175,294.8001,485.035,287.6003 M,0,110361,110447,485.035,287.6003,520.0525,280.4004
Sprite,Foreground,Centre,"storyboard\circle.png",0,0 M,0,110534,110620,539,268,558.1255,238.1819 F,2,110534,111428,1,0 S,2,110534,111428,0.3,0.45 P,0,110534,111428,A M,0,110620,110706,558.1255,238.1819,563.5897,203.2447 M,0,110706,110792,563.5897,203.2447,554.5788,169.0581 M,0,110792,110878,554.5788,169.0581,532.2078,141.6638
Sprite,Foreground,Centre,"storyboard\circle.png",0,0 M,0,111051,111137,398,57,403.436,92.33429 F,2,111051,111773,1,0 S,2,111051,111773,0.3,0.45 P,0,111051,111773,A M,0,111137,111223,403.436,92.33429,408.8721,127.6686
Sprite,Foreground,Centre,"storyboard\circle.png",469,254 F,2,111396,111946,1,0 S,2,111396,111946,0.3,0.45 P,0,111396,111946,A
Sprite,Foreground,Centre,"storyboard\circle.png",0,0 M,0,111568,111654,341,210,305.8452,216.496 F,2,111568,112290,1,0 S,2,111568,112290,0.3,0.45 P,0,111568,112290,A M,0,111654,111740,305.8452,216.496,270.6903,222.992
Sprite,Foreground,Centre,"storyboard\circle.png",0,0 M,0,111913,111999,144,101,179.1633,107.4501 F,2,111913,112807,1,0 S,2,111913,112807,0.3,0.45 P,0,111913,112807,A M,0,111999,112085,179.1633,107.4501,214.3266,113.9002 M,0,112085,112171,214.3266,113.9002,249.49,120.3502 M,0,112171,112257,249.49,120.3502,284.6533,126.8003
Sprite,Foreground,Centre,"storyboard\circle.png",425,143 F,2,112430,112980,1,0 S,2,112430,112980,0.3,0.45 P,0,112430,112980,A
Sprite,Foreground,Centre,"storyboard\circle.png",0,0 M,0,112603,112689,270,222,234.8731,215.3544 F,2,112603,113325,1,0 S,2,112603,113325,0.3,0.45 P,0,112603,113325,A M,0,112689,112775,234.8731,215.3544,199.7462,208.7087
Sprite,Foreground,Centre,"storyboard\circle.png",0,0 M,0,112947,113033,354,273,370.5935,241.9222 F,2,112947,113669,1,0 S,2,112947,113669,0.3,0.45 P,0,112947,113669,A M,0,113033,113119,370.5935,241.9222,368.7021,206.7537
Sprite,Foreground,Centre,"storyboard\circle.png",0,0 M,0,113292,113378,252,342,287.6558,339.4069 F,2,113292,114186,1,0 S,2,113292,114186,0.3,0.45 P,0,113292,114186,A M,0,113378,113464,287.6558,339.4069,321.7162,345.1351 M,0,113464,113550,321.7162,345.1351,355.3165,352.128 M,0,113550,113636,355.3165,352.128,390.8024,347.7908
Sprite,Foreground,Centre,"storyboard\circle.png",545,327 F,2,113809,114359,1,0 S,2,113809,114359,0.3,0.45 P,0,113809,114359,A
Sprite,Foreground,Centre,"storyboard\circle.png",354,273 F,2,113981,114531,1,0 S,2,113981,114531,0.3,0.45 P,0,113981,114531,A
Sprite,Foreground,Centre,"storyboard\circle.png",418,440 F,2,114154,114704,1,0 S,2,114154,114704,0.3,0.45 P,0,114154,114704,A
Sprite,Foreground,Centre,"storyboard\circle.png",0,0 M,0,114327,114413,483,257,475.6528,222.0131 F,2,114327,115049,1,0 S,2,114327,115049,0.3,0.45 P,0,114327,115049,A M,0,114413,114499,475.6528,222.0131,468.3055,187.0263
Sprite,Foreground,Centre,"storyboard\circle.png",0,0 M,0,114671,114757,305,76,269.7852,79.28999 F,2,114671,115565,1,0 S,2,114671,115565,0.3,0.45 P,0,114671,115565,A M,0,114757,114843,269.7852,79.28999,239.5991,97.57671 M,0,114843,114929,239.5991,97.57671,220.2813,127.1167 M,0,114929,115015,220.2813,127.1167,216.2928,162.2006
Sprite,Foreground,Centre,"storyboard\circle.png",0,0 M,0,115189,115275,382,149,387.8773,113.7364 F,2,115189,116083,1,0 S,2,115189,116083,0.3,0.45 P,0,115189,116083,A M,0,115275,115361,387.8773,113.7364,393.7545,78.47284 M,0,115361,115447,393.7545,78.47284,387.8773,113.7364 M,0,115447,115533,387.8773,113.7364,382,149
Sprite,Foreground,Centre,"storyboard\circle.png",468,187 F,2,115705,116255,1,0 S,2,115705,116255,0.3,0.45 P,0,115705,116255,A
Sprite,Foreground,Centre,"storyboard\circle.png",296,162 F,2,115878,116428,1,0 S,2,115878,116428,0.3,0.45 P,0,115878,116428,A
Sprite,Foreground,Centre,"storyboard\circle.png",0,0 M,0,116051,116137,482,101,516.712,92.44777 F,2,116051,116773,1,0 S,2,116051,116773,0.3,0.45 P,0,116051,116773,A M,0,116137,116223,516.712,92.44777,551,84
Sprite,Foreground,Centre,"storyboard\circle.png",0,0 M,0,116396,116482,379,255,343.711,249.2775 F,2,116396,117118,1,0 S,2,116396,117118,0.3,0.45 P,0,116396,117118,A M,0,116482,116568,343.711,249.2775,308.422,243.5549
Sprite,Foreground,Centre,"storyboard\circle.png",456,299 F,2,116740,117290,1,0 S,2,116740,117290,0.3,0.45 P,0,116740,117290,A
Sprite,Foreground,Centre,"storyboard\circle.png",393,78 F,2,116912,117462,1,0 S,2,116912,117462,0.3,0.45 P,0,116912,117462,A
Sprite,Foreground,Centre,"storyboard\circle.png",0,0 M,0,117085,117171,308,243,292.8329,274.9279 F,2,117085,117807,1,0 S,2,117085,117807,0.3,0.45 P,0,117085,117807,A M,0,117171,117257,292.8329,274.9279,293.6395,310.1855
Sprite,Foreground,Centre,"storyboard\circle.png",0,0 M,0,117430,117516,436,411,400.5535,406.3513 F,2,117430,118324,1,0 S,2,117430,118324,0.3,0.45 P,0,117430,118324,A M,0,117516,117602,400.5535,406.3513,365.1071,401.7026 M,0,117602,117688,365.1071,401.7026,329.6606,397.0539 M,0,117688,117774,329.6606,397.0539,294.2141,392.4051
Sprite,Foreground,Centre,"storyboard\circle.png",0,0 M,0,117947,118033,141,364,176.2541,358.0661 F,2,117947,118669,1,0 S,2,117947,118669,0.3,0.45 P,0,117947,118669,A M,0,118033,118119,176.2541,358.0661,211.5082,352.1323
Sprite,Foreground,Centre,"storyboard\circle.png",381,325 F,2,118292,118842,1,0 S,2,118292,118842,0.3,0.45 P,0,118292,118842,A
Sprite,Foreground,Centre,"storyboard\circle.png",0,0 M,0,118465,118551,203,253,167.7459,247.0661 F,2,118465,119187,1,0 S,2,118465,119187,0.3,0.45 P,0,118465,119187,A M,0,118551,118637,167.7459,247.0661,132.4918,241.1323
Sprite,Foreground,Centre,"storyboard\circle.png",0,0 M,0,118809,118895,271,126,304.9188,116.2407 F,2,118809,119703,1,0 S,2,118809,119703,0.3,0.45 P,0,118809,119703,A M,0,118895,118981,304.9188,116.2407,339.3448,123.6165 M,0,118981,119067,339.3448,123.6165,366.2663,146.2865 M,0,119067,119153,366.2663,146.2865,378.8661,179.17
Sprite,Foreground,Centre,"storyboard\circle.png",290,303 F,2,119327,119877,1,0 S,2,119327,119877,0.3,0.45 P,0,119327,119877,A
Sprite,Foreground,Centre,"storyboard\circle.png",0,0 M,0,119499,119585,180,171,174.4064,135.6903 F,2,119499,120221,1,0 S,2,119499,120221,0.3,0.45 P,0,119499,120221,A M,0,119585,119671,174.4064,135.6903,168.8128,100.3806
Sprite,Foreground,Centre,"storyboard\circle.png",0,0 M,0,119844,119930,299,233,293.5182,268.3272 F,2,119844,120566,1,0 S,2,119844,120566,0.3,0.45 P,0,119844,120566,A M,0,119930,120016,293.5182,268.3272,288.0364,303.6544
Sprite,Foreground,Centre,"storyboard\circle.png",0,0 M,0,120189,120275,216,414,209.061,378.9299 F,2,120189,121083,1,0 S,2,120189,121083,0.3,0.45 P,0,120189,121083,A M,0,120275,120361,209.061,378.9299,202.122,343.8598 M,0,120361,120447,202.122,343.8598,195.183,308.7897 M,0,120447,120533,195.183,308.7897,188.244,273.7195
Sprite,Foreground,Centre,"storyboard\circle.png",364,130 F,2,120706,121256,1,0 S,2,120706,121256,0.3,0.45 P,0,120706,121256,A
Sprite,Foreground,Centre,"storyboard\circle.png",394,315 F,2,120878,121428,1,0 S,2,120878,121428,0.3,0.45 P,0,120878,121428,A
Sprite,Foreground,Centre,"storyboard\circle.png",299,233 F,2,121051,121601,1,0 S,2,121051,121601,0.3,0.45 P,0,121051,121601,A
Sprite,Foreground,Centre,"storyboard\circle.png",0,0 M,0,121223,121309,444,185,479.4921,184.3714 F,2,121223,122031,1,0 S,2,121223,122031,0.3,0.45 P,0,121223,122031,A M,0,121309,121395,479.4921,184.3714,512.7191,196.7207 M,0,121395,121481,512.7191,196.7207,539.1267,220.3271
Sprite,Foreground,Centre,"storyboard\highlight.png",0,0 C,0,77430,,138,170,213 M,0,77430,77516,349,306,324.966,311.91 F,2,77430,79447,0.55,0 S,2,77430,79447,1 P,0,77430,79447,A M,0,77516,77602,324.966,311.91,300.9319,317.82 M,0,77602,77688,300.9319,317.82,282.1715,330.8355 M,0,77688,77774,282.1715,330.8355,267.3105,349.0152 M,0,77774,77861,267.3105,349.0152,243.1209,354.2522 M,0,77861,77947,243.1209,354.2522,218.9313,359.4891
Sprite,Foreground,Centre,"storyboard\highlight.png",0,0 C,0,78120,,146,136,202 M,0,78120,78206,140,394,132.459,370.5474 F,2,78120,79964,0.55,0 S,2,78120,79964,1 P,0,78120,79964,A M,0,78206,78292,132.459,370.5474,132.774,345.9234 M,0,78292,78378,132.774,345.9234,140.9065,322.6884 M,0,78378,78464,140.9065,322.6884,156.0058,303.2565
Sprite,Foreground,Centre,"storyboard\highlight.png",0,0 C,0,78637,,146,136,202 M,0,78637,78723,93,241,111.2857,224.4976 F,2,78637,80481,0.55,0 S,2,78637,80481,1 P,0,78637,80481,A M,0,78723,78809,111.2857,224.4976,133.8611,214.6814 M,0,78809,78895,133.8611,214.6814,158.3737,212.5649 M,0,78895,78981,158.3737,212.5649,182.2725,218.3602
Sprite,Foreground,Centre,"storyboard\highlight.png",0,0 C,0,79154,,226,220,171 M,0,79154,79240,228,280,230.6841,255.396 F,2,79154,81343,0.55,0 S,2,79154,81343,1 P,0,79154,81343,A M,0,79240,79326,230.6841,255.396,233.3681,230.7919 M,0,79326,79412,233.3681,230.7919,236.0522,206.1879 M,0,79412,79498,236.0522,206.1879,238.7363,181.5839 M,0,79498,79585,238.7363,181.5839,241.4204,156.9799 M,0,79585,79671,241.4204,156.9799,244.1045,132.3758 M,0,79671,79757,244.1045,132.3758,246.7885,107.7718 M,0,79757,79843,246.7885,107.7718,249.4726,83.16777
Sprite,Foreground,Centre,"storyboard\highlight.png",0,0 C,0,80189,,138,170,213 M,0,80189,80275,249,83,272.8442,76.96631 F,2,80189,82206,0.55,0 S,2,80189,82206,1 P,0,80189,82206,A M,0,80275,80361,272.8442,76.96631,297.2382,79.97483 M,0,80361,80447,297.2382,79.97483,318.8726,91.60551 M,0,80447,80533,318.8726,91.60551,334.8166,110.27 M,0,80533,80620,334.8166,110.27,342.9142,133.4282 M,0,80620,80706,342.9142,133.4282,342.0755,157.9335
Sprite,Foreground,Centre,"storyboard\highlight.png",0,0 C,0,80878,,138,170,213 M,0,80878,80964,381,229,356.519,232.6391 F,2,80878,82550,0.55,0 S,2,80878,82550,1 P,0,80878,82550,A M,0,80964,81050,356.519,232.6391,332.038,236.2781
Sprite,Foreground,Centre,"storyboard\highlight.png",413,305 C,0,81223,,138,170,213 F,2,81223,82723,0.55,0 S,2,81223,82723,1 P,0,81223,82723,A
Sprite,Foreground,Centre,"storyboard\highlight.png",0,0 C,0,81396,,138,170,213 M,0,81396,81482,413,305,388.58,309.028 F,2,81396,83240,0.55,0 S,2,81396,83240,1 P,0,81396,83240,A M,0,81482,81568,388.58,309.028,364.16,313.0561 M,0,81568,81654,364.16,313.0561,339.7399,317.0841 M,0,81654,81740,339.7399,317.0841,316,321
Sprite,Foreground,Centre,"storyboard\highlight.png",0,0 C,0,81913,,146,136,202 M,0,81913,81999,489,359,501.5778,337.8553 F,2,81913,83585,0.55,0 S,2,81913,83585,1 P,0,81913,83585,A M,0,81999,82085,501.5778,337.8553,506.0834,313.6938
Sprite,Foreground,Centre,"storyboard\highlight.png",0,0 C,0,82258,,146,136,202 M,0,82258,82344,574,264,557.3188,245.9556 F,2,82258,83930,0.55,0 S,2,82258,83930,1 P,0,82258,83930,A M,0,82344,82430,557.3188,245.9556,535.0121,235.7004
Sprite,Foreground,Centre,"storyboard\highlight.png",459,248 C,0,82603,,146,136,202 F,2,82603,84103,0.55,0 S,2,82603,84103,1 P,0,82603,84103,A
Sprite,Foreground,Centre,"storyboard\highlight.png",0,0 C,0,82947,,226,220,171 M,0,82947,83033,459,248,434.966,242.09 F,2,82947,84964,0.55,0 S,2,82947,84964,1 P,0,82947,84964,A M,0,83033,83119,434.966,242.09,410.9319,236.18 M,0,83119,83205,410.9319,236.18,392.1715,223.1645 M,0,83205,83291,392.1715,223.1645,377.3105,204.9848 M,0,83291,83378,377.3105,204.9848,353.1209,199.7478 M,0,83378,83464,353.1209,199.7478,328.9313,194.5109
Sprite,Foreground,Centre,"storyboard\highlight.png",0,0 C,0,83637,,226,220,171 M,0,83637,83723,255,219,258.4698,243.5056 F,2,83637,85826,0.55,0 S,2,83637,85826,1 P,0,83637,85826,A M,0,83723,83809,258.4698,243.5056,261.9396,268.0111 M,0,83809,83895,261.9396,268.0111,265.4094,292.5167 M,0,83895,83981,265.4094,292.5167,268.8793,317.0223 M,0,83981,84068,268.8793,317.0223,265.4094,292.5167 M,0,84068,84154,265.4094,292.5167,261.9396,268.0111 M,0,84154,84240,261.9396,268.0111,258.4698,243.5056 M,0,84240,84326,258.4698,243.5056,255,219
Sprite,Foreground,Centre,"storyboard\highlight.png",0,0 C,0,84671,,138,170,213 M,0,84671,84757,102,69,96.8362,93.20532 F,2,84671,86343,0.55,0 S,2,84671,86343,1 P,0,84671,86343,A M,0,84757,84843,96.8362,93.20532,91.67239,117.4106
Sprite,Foreground,Centre,"storyboard\highlight.png",0,0 C,0,85016,,138,170,213 M,0,85016,85102,173,195,175.4284,219.6306 F,2,85016,86688,0.55,0 S,2,85016,86688,1 P,0,85016,86688,A M,0,85102,85188,175.4284,219.6306,177.8567,244.2612
Sprite,Foreground,Centre,"storyboard\highlight.png",110,311 C,0,85361,,138,170,213 F,2,85361,86861,0.55,0 S,2,85361,86861,1 P,0,85361,86861,A
Sprite,Foreground,Centre,"storyboard\highlight.png",0,0 C,0,85706,,146,136,202 M,0,85706,85792,110,311,132.5641,300.8335 F,2,85706,87723,0.55,0 S,2,85706,87723,1 P,0,85706,87723,A M,0,85792,85878,132.5641,300.8335,154.772,289.9101 M,0,85878,85964,154.772,289.9101,176.7259,287.5169 M,0,85964,86050,176.7259,287.5169,198.7056,298.8947 M,0,86050,86137,198.7056,298.8947,220.6854,310.2724 M,0,86137,86223,220.6854,310.2724,242.6651,321.6502
Sprite,Foreground,Centre,"storyboard\highlight.png",0,0 C,0,86396,,146,136,202 M,0,86396,86482,338,183,314.172,189.1575 F,2,86396,88585,0.55,0 S,2,86396,88585,1 P,0,86396,88585,A M,0,86482,86568,314.172,189.1575,293.856,203.0104 M,0,86568,86654,293.856,203.0104,279.445,222.9105 M,0,86654,86740,279.445,222.9105,272.4915,246.4942 M,0,86740,86827,272.4915,246.4942,279.445,222.9105 M,0,86827,86913,279.445,222.9105,293.856,203.0104 M,0,86913,86999,293.856,203.0104,314.1721,189.1575 M,0,86999,87085,314.1721,189.1575,338,183
Sprite,Foreground,Centre,"storyboard\highlight.png",338,183 C,0,87603,,226,220,171 F,2,87603,89103,0.55,0 S,2,87603,89103,1 P,0,87603,89103,A
Sprite,Foreground,Centre,"storyboard\highlight.png",490,398 C,0,87947,,138,170,213 F,2,87947,89447,0.55,0 S,2,87947,89447,1 P,0,87947,89447,A
Sprite,Foreground,Centre,"storyboard\highlight.png",0,0 C,0,88120,,138,170,213 M,0,88120,88206,501,385,504.6577,360.5218 F,2,88120,89878,0.55,0 S,2,88120,89878,1 P,0,88120,89878,A M,0,88206,88292,504.6577,360.5218,508.3153,336.0435 M,0,88292,88378,508.3153,336.0435,511.973,311.5653
Sprite,Foreground,Centre,"storyboard\highlight.png",0,0 C,0,88465,,146,136,202 M,0,88465,88551,515,290,520.0145,265.8592 F,2,88465,90482,0.55,0 S,2,88465,90482,1 P,0,88465,90482,A M,0,88551,88637,520.0145,265.8592,517.8013,241.3086 M,0,88637,88723,517.8013,241.3086,508.5544,218.4648 M,0,88723,88809,508.5544,218.4648,493.0742,199.2964 M,0,88809,88896,493.0742,199.2964,472.6981,185.454 M,0,88896,88982,472.6981,185.454,449.1848,178.1288
Sprite,Foreground,Centre,"storyboard\highlight.png",0,0 C,0,89154,,226,220,171 M,0,89154,89240,361,118,364.5002,142.5013 F,2,89154,90998,0.55,0 S,2,89154,90998,1 P,0,89154,90998,A M,0,89240,89326,364.5002,142.5013,368.0004,167.0025 M,0,89326,89412,368.0004,167.0025,371.5005,191.5038 M,0,89412,89498,371.5005,191.5038,375.0007,216.005
Sprite,Foreground,Centre,"storyboard\highlight.png",0,0 C,0,89671,,226,220,171 M,0,89671,89757,435,80,438.5002,104.5013 F,2,89671,91515,0.55,0 S,2,89671,91515,1 P,0,89671,91515,A M,0,89757,89843,438.5002,104.5013,442.0004,129.0025 M,0,89843,89929,442.0004,129.0025,445.5005,153.5038 M,0,89929,90015,445.5005,153.5038,449.0007,178.005
Sprite,Foreground,Centre,"storyboard\highlight.png",0,0 C,0,90189,,138,170,213 M,0,90189,90275,442,263,417.6703,258.4584 F,2,90189,92378,0.55,0 S,2,90189,92378,1 P,0,90189,92378,A M,0,90275,90361,417.6703,258.4584,393.3405,253.9169 M,0,90361,90447,393.3405,253.9169,369.0107,249.3753 M,0,90447,90533,369.0107,249.3753,346.6924,259.1538 M,0,90533,90620,346.6924,259.1538,324.0972,267.1904 M,0,90620,90706,324.0972,267.1904,299.6779,263.1578 M,0,90706,90792,299.6779,263.1578,275.2586,259.1253 M,0,90792,90878,275.2586,259.1253,250.8394,255.0927
Sprite,Foreground,Centre,"storyboard\highlight.png",0,0 C,0,91223,,146,136,202 M,0,91223,91309,250,255,226.1557,248.9663 F,2,91223,93240,0.55,0 S,2,91223,93240,1 P,0,91223,93240,A M,0,91309,91395,226.1557,248.9663,201.7618,251.9748 M,0,91395,91481,201.7618,251.9748,180.1274,263.6055 M,0,91481,91567,180.1274,263.6055,164.1834,282.27 M,0,91567,91654,164.1834,282.27,156.0858,305.4282 M,0,91654,91740,156.0858,305.4282,156.9245,329.9335
Sprite,Foreground,Centre,"storyboard\highlight.png",0,0 C,0,91912,,146,136,202 M,0,91912,91998,143,405,167.2028,406.9682 F,2,91912,93584,0.55,0 S,2,91912,93584,1 P,0,91912,93584,A M,0,91998,92084,167.2028,406.9682,189.7159,397.9006
Sprite,Foreground,Centre,"storyboard\highlight.png",270,434 C,0,92257,,146,136,202 F,2,92257,93757,0.55,0 S,2,92257,93757,1 P,0,92257,93757,A
Sprite,Foreground,Centre,"storyboard\highlight.png",0,0 C,0,92430,,146,136,202 M,0,92430,92516,270,434,272.2577,409.3532 F,2,92430,94274,0.55,0 S,2,92430,94274,1 P,0,92430,94274,A M,0,92516,92602,272.2577,409.3532,274.5154,384.7064 M,0,92602,92688,274.5154,384.7064,276.7732,360.0596 M,0,92688,92774,276.7732,360.0596,279.0309,335.4128
Sprite,Foreground,Centre,"storyboard\highlight.png",0,0 C,0,92947,,226,220,171 M,0,92947,93033,244,205,246.7332,229.5986 F,2,92947,94619,0.55,0 S,2,92947,94619,1 P,0,92947,94619,A M,0,93033,93119,246.7332,229.5986,249.4664,254.1972
Sprite,Foreground,Centre,"storyboard\highlight.png",0,0 C,0,93292,,226,220,171 M,0,93292,93378,362,303,358.9919,327.5665 F,2,93292,94964,0.55,0 S,2,93292,94964,1 P,0,93292,94964,A M,0,93378,93464,358.9919,327.5665,356,352
Sprite,Foreground,Centre,"storyboard\highlight.png",190,398 C,0,93637,,226,220,171 F,2,93637,95137,0.55,0 S,2,93637,95137,1 P,0,93637,95137,A
Sprite,Foreground,Centre,"storyboard\highlight.png",0,0 C,0,93982,,138,170,213 M,0,93982,94068,190,398,162.78,395.8995 F,2,93982,95999,0.55,0 S,2,93982,95999,1 P,0,93982,95999,A M,0,94068,94154,162.78,395.8995,137.9336,384.7164 M,0,94154,94240,137.9336,384.7164,118.2363,365.8907 M,0,94240,94326,118.2363,365.8907,106.5443,341.2658 M,0,94326,94413,106.5443,341.2658,103.6197,314.1505 M,0,94413,94499,103.6197,314.1505,110.6663,287.8001
Sprite,Foreground,Centre,"storyboard\highlight.png",0,0 C,0,94671,,146,136,202 M,0,94671,94757,64,221,90.94747,215.5151 F,2,94671,96515,0.55,0 S,2,94671,96515,1 P,0,94671,96515,A M,0,94757,94843,90.94747,215.5151,117.8949,210.0302 M,0,94843,94929,117.8949,210.0302,144.8424,204.5453 M,0,94929,95015,144.8424,204.5453,171.7899,199.0605
Sprite,Foreground,Centre,"storyboard\highlight.png",369,158 C,0,95361,,146,136,202 F,2,95361,96861,0.55,0 S,2,95361,96861,1 P,0,95361,96861,A
Sprite,Foreground,Centre,"storyboard\highlight.png",0,0 C,0,95705,,226,220,171 M,0,95705,95791,222,70,206.8634,92.40887 F,2,95705,97377,0.55,0 S,2,95705,97377,1 P,0,95705,97377,A M,0,95791,95877,206.8634,92.40887,205.4205,119.283
Sprite,Foreground,Centre,"storyboard\highlight.png",0,0 C,0,96051,,226,220,171 M,0,96051,96137,292,202,306.4453,224.8276 F,2,96051,97723,0.55,0 S,2,96051,97723,1 P,0,96051,97723,A M,0,96137,96223,306.4453,224.8276,330.5675,236.681
Sprite,Foreground,Centre,"storyboard\highlight.png",478,158 C,0,96395,,226,220,171 F,2,96395,97895,0.55,0 S,2,96395,97895,1 P,0,96395,97895,A
Sprite,Foreground,Centre,"storyboard\highlight.png",0,0 C,0,96740,,138,170,213 M,0,96740,96826,478,158,457.459,135.7935 F,2,96740,98757,0.55,0 S,2,96740,98757,1 P,0,96740,98757,A M,0,96826,96912,457.459,135.7935,441.9079,123.9425 M,0,96912,96998,441.9079,123.9425,446.4764,153.8456 M,0,96998,97084,446.4764,153.8456,451.0449,183.7486 M,0,97084,97171,451.0449,183.7486,455.6134,213.6516 M,0,97171,97257,455.6134,213.6516,460.1819,243.5546
Sprite,Foreground,Centre,"storyboard\highlight.png",0,0 C,0,97430,,146,136,202 M,0,97430,97516,546,257,524.7632,251.3275 F,2,97430,100654,0.55,0 S,2,97430,100654,1 P,0,97430,100654,A M,0,97516,97602,524.7632,251.3275,502.8914,249.3208 M,0,97602,97688,502.8914,249.3208,481.1704,252.3871 M,0,97688,97774,481.1704,252.3871,461.177,261.3764 M,0,97774,97861,461.177,261.3764,444.4199,275.537 M,0,97861,97947,444.4199,275.537,431.2327,293.1039 M,0,97947,98033,431.2327,293.1039,421.0809,312.6021 M,0,98033,98119,421.0809,312.6021,411.175,332.2046 M,0,98119,98205,411.175,332.2046,398.7051,350.3108 M,0,98205,98292,398.7051,350.3108,383.6302,366.2931 M,0,98292,98378,383.6302,366.2931,365.544,378.7212 M,0,98378,98464,365.544,378.7212,344.8071,385.831 M,0,98464,98550,344.8071,385.831,322.896,386.7572 M,0,98550,98636,322.896,386.7572,301.3874,382.3358 M,0,98636,98723,301.3874,382.3358,281.0121,374.0952 M,0,98723,98809,281.0121,374.0952,289.4812,375.6827 M,0,98809,98895,289.4812,375.6827,311.3035,378.0099 M,0,98895,98981,311.3035,378.0099,333.0744,375.188 M,0,98981,99067,333.0744,375.188,353.7419,367.7627 M,0,99067,99154,353.7419,367.7627,372.5128,356.3575
Sprite,Foreground,Centre,"storyboard\line.png",0,0 M,0,55361,55705,104,331,241.192,332.5336 F,2,55361,56255,0.25,0 S,2,55361,56255,4 P,0,55361,56255,A
Sprite,Foreground,Centre,"storyboard\line.png",405,299 F,2,55878,56428,0.25,0 S,2,55878,56428,4 P,0,55878,56428,A
Sprite,Foreground,Centre,"storyboard\line.png",0,0 M,0,56051,56223,217,183,204.0295,253.3137 F,2,56051,56773,0.25,0 S,2,56051,56773,4 P,0,56051,56773,A
Sprite,Foreground,Centre,"storyboard\line.png",249,417 F,2,56396,56946,0.25,0 S,2,56396,56946,4 P,0,56396,56946,A
Sprite,Foreground,Centre,"storyboard\line.png",317,230 F,2,56568,57118,0.25,0 S,2,56568,57118,4 P,0,56568,57118,A
Sprite,Foreground,Centre,"storyboard\line.png",0,0 M,0,56740,56998,389,420,494.7235,401.9696 F,2,56740,57548,0.25,0 S,2,56740,57548,4 P,0,56740,57548,A
Sprite,Foreground,Centre,"storyboard\line.png",511,412 F,2,57085,57635,0.25,0 S,2,57085,57635,4 P,0,57085,57635,A
Sprite,Foreground,Centre,"storyboard\line.png",0,0 M,0,57258,57602,484,212,404,298 F,2,57258,58152,0.25,0 S,2,57258,58152,4 P,0,57258,58152,A
Sprite,Foreground,Centre,"storyboard\line.png",0,0 M,0,57775,57947,548,327,560.0332,256.5198 F,2,57775,58497,0.25,0 S,2,57775,58497,4 P,0,57775,58497,A
Sprite,Foreground,Centre,"storyboard\line.png",0,0 M,0,58120,58464,434,128,305.1184,174.8369 F,2,58120,59014,0.25,0 S,2,58120,59014,4 P,0,58120,59014,A
Sprite,Foreground,Centre,"storyboard\line.png",157,187 F,2,58637,59187,0.25,0 S,2,58637,59187,4 P,0,58637,59187,A
Sprite,Foreground,Centre,"storyboard\line.png",0,0 M,0,58809,58981,254,62,311.9233,93.79702 F,2,58809,59531,0.25,0 S,2,58809,59531,4 P,0,58809,59531,A
Sprite,Foreground,Centre,"storyboard\line.png",197,276 F,2,59154,59704,0.25,0 S,2,59154,59704,4 P,0,59154,59704,A
Sprite,Foreground,Centre,"storyboard\line.png",141,86 F,2,59327,59877,0.25,0 S,2,59327,59877,4 P,0,59327,59877,A
Sprite,Foreground,Centre,"storyboard\line.png",0,0 M,0,59499,59757,305,174,291.0288,280.3361 F,2,59499,60307,0.25,0 S,2,59499,60307,4 P,0,59499,60307,A
Sprite,Foreground,Centre,"storyboard\line.png",302,293 F,2,59844,60394,0.25,0 S,2,59844,60394,4 P,0,59844,60394,A
Sprite,Foreground,Centre,"storyboard\line.png",0,0 M,0,60016,60360,108,380,248.192,351.8005 F,2,60016,60910,0.25,0 S,2,60016,60910,4 P,0,60016,60910,A
Sprite,Foreground,Centre,"storyboard\line.png",0,0 M,0,60534,60706,392,395,327.5606,378.4827 F,2,60534,61256,0.25,0 S,2,60534,61256,4 P,0,60534,61256,A
Sprite,Foreground,Centre,"storyboard\line.png",0,0 M,0,60878,61222,487,274,482.9753,395.1894 F,2,60878,61772,0.25,0 S,2,60878,61772,4 P,0,60878,61772,A
Sprite,Foreground,Centre,"storyboard\line.png",321,280 F,2,61396,61946,0.25,0 S,2,61396,61946,4 P,0,61396,61946,A
Sprite,Foreground,Centre,"storyboard\line.png",493,182 F,2,61568,62118,0.25,0 S,2,61568,62118,4 P,0,61568,62118,A
Sprite,Foreground,Centre,"storyboard\line.png",407,318 F,2,61740,62290,0.25,0 S,2,61740,62290,4 P,0,61740,62290,A
Sprite,Foreground,Centre,"storyboard\line.png",418,105 F,2,61913,62463,0.25,0 S,2,61913,62463,4 P,0,61913,62463,A
Sprite,Foreground,Centre,"storyboard\line.png",487,274 F,2,62085,62635,0.25,0 S,2,62085,62635,4 P,0,62085,62635,A
Sprite,Foreground,Centre,"storyboard\line.png",0,0 M,0,62258,62516,309,130,202.8871,114.4238 F,2,62258,63066,0.25,0 S,2,62258,63066,4 P,0,62258,63066,A
Sprite,Foreground,Centre,"storyboard\line.png",181,124 F,2,62603,63153,0.25,0 S,2,62603,63153,4 P,0,62603,63153,A
Sprite,Foreground,Centre,"storyboard\line.png",0,0 M,0,62775,63119,149,282,254.3573,215.7022 F,2,62775,63669,0.25,0 S,2,62775,63669,4 P,0,62775,63669,A
Sprite,Foreground,Centre,"storyboard\line.png",0,0 M,0,63292,63464,78,146,89.18723,216.6194 F,2,63292,64014,0.25,0 S,2,63292,64014,4 P,0,63292,64014,A
Sprite,Foreground,Centre,"storyboard\line.png",0,0 M,0,63637,63981,185,367,326.3141,345.1063 F,2,63637,64531,0.25,0 S,2,63637,64531,4 P,0,63637,64531,A
Sprite,Foreground,Centre,"storyboard\line.png",503,385 F,2,64154,64704,0.25,0 S,2,64154,64704,4 P,0,64154,64704,A
Sprite,Foreground,Centre,"storyboard\line.png",0,0 M,0,64327,64499,367,236,296.2568,225.6243 F,2,64327,65049,0.25,0 S,2,64327,65049,4 P,0,64327,65049,A
Sprite,Foreground,Centre,"storyboard\line.png",426,427 F,2,64672,65222,0.25,0 S,2,64672,65222,4 P,0,64672,65222,A
Sprite,Foreground,Centre,"storyboard\line.png",489,218 F,2,64844,65394,0.25,0 S,2,64844,65394,4 P,0,64844,65394,A
Sprite,Foreground,Centre,"storyboard\line.png",0,0 M,0,65016,65274,336,358,230.2734,376.0127 F,2,65016,65824,0.25,0 S,2,65016,65824,4 P,0,65016,65824,A
Sprite,Foreground,Centre,"storyboard\line.png",218,387 F,2,65361,65911,0.25,0 S,2,65361,65911,4 P,0,65361,65911,A
Sprite,Foreground,Centre,"storyboard\line.png",0,0 M,0,65534,65878,417,306,425.1676,426.2744 F,2,65534,66428,0.25,0 S,2,65534,66428,4 P,0,65534,66428,A
Sprite,Foreground,Centre,"storyboard\line.png",0,0 M,0,66051,66223,268,331,257.7783,260.2344 F,2,66051,66773,0.25,0 S,2,66051,66773,4 P,0,66051,66773,A
Sprite,Foreground,Centre,"storyboard\line.png",0,0 M,0,66396,66740,298,161,435.5913,164.6274 F,2,66396,67290,0.25,0 S,2,66396,67290,4 P,0,66396,67290,A
Sprite,Foreground,Centre,"storyboard\line.png",548,166 F,2,66913,67463,0.25,0 S,2,66913,67463,4 P,0,66913,67463,A
Sprite,Foreground,Centre,"storyboard\line.png",0,0 M,0,67085,67257,424,56,363.5672,83.22784 F,2,67085,67807,0.25,0 S,2,67085,67807,4 P,0,67085,67807,A
Sprite,Foreground,Centre,"storyboard\line.png",453,274 F,2,67431,67981,0.25,0 S,2,67431,67981,4 P,0,67431,67981,A
Sprite,Foreground,Centre,"storyboard\line.png",475,124 F,2,67603,68153,0.25,0 S,2,67603,68153,4 P,0,67603,68153,A
Sprite,Foreground,Centre,"storyboard\line.png",0,0 M,0,67775,68033,338,263,358.6719,368.2389 F,2,67775,68583,0.25,0 S,2,67775,68583,4 P,0,67775,68583,A
Sprite,Foreground,Centre,"storyboard\line.png",362,386 F,2,68120,68670,0.25,0 S,2,68120,68670,4 P,0,68120,68670,A
Sprite,Foreground,Centre,"storyboard\line.png",0,0 M,0,68292,68636,406,203,285.0421,181.4806 F,2,68292,69186,0.25,0 S,2,68292,69186,4 P,0,68292,69186,A
Sprite,Foreground,Centre,"storyboard\line.png",0,0 M,0,68809,68981,363,75,352.2434,145.6862 F,2,68809,69531,0.25,0 S,2,68809,69531,4 P,0,68809,69531,A
Sprite,Foreground,Centre,"storyboard\line.png",0,0 M,0,69155,69499,214,240,167.1631,111.1184 F,2,69155,70049,0.25,0 S,2,69155,70049,4 P,0,69155,70049,A
Sprite,Foreground,Centre,"storyboard\line.png",248,117 F,2,69672,70222,0.25,0 S,2,69672,70222,4 P,0,69672,70222,A
Sprite,Foreground,Centre,"storyboard\line.png",0,0 M,0,69844,70016,133,234,64,217 F,2,69844,70566,0.25,0 S,2,69844,70566,4 P,0,69844,70566,A
Sprite,Foreground,Centre,"storyboard\line.png",142,313 F,2,70189,70739,0.25,0 S,2,70189,70739,4 P,0,70189,70739,A
Sprite,Foreground,Centre,"storyboard\line.png",167,111 F,2,70362,70912,0.25,0 S,2,70362,70912,4 P,0,70362,70912,A
Sprite,Foreground,Centre,"storyboard\line.png",0,0 M,0,70534,70792,295,272,281.0288,378.3361 F,2,70534,71342,0.25,0 S,2,70534,71342,4 P,0,70534,71342,A
Sprite,Foreground,Centre,"storyboard\line.png",270,389 F,2,70879,71429,0.25,0 S,2,70879,71429,4 P,0,70879,71429,A
Sprite,Foreground,Centre,"storyboard\line.png",0,0 M,0,71051,71395,395,288,491.7095,361.5741 F,2,71051,71945,0.25,0 S,2,71051,71945,4 P,0,71051,71945,A
Sprite,Foreground,Centre,"storyboard\line.png",0,0 M,0,71568,71740,425,434,410.6577,367.1692 F,2,71568,72290,0.25,0 S,2,71568,72290,4 P,0,71568,72290,A
Sprite,Foreground,Centre,"storyboard\line.png",0,0 M,0,71913,72257,553,287,538.8585,429.299 F,2,71913,72807,0.25,0 S,2,71913,72807,4 P,0,71913,72807,A
Sprite,Foreground,Centre,"storyboard\line.png",395,288 F,2,72431,72981,0.25,0 S,2,72431,72981,4 P,0,72431,72981,A
Sprite,Foreground,Centre,"storyboard\line.png",551,196 F,2,72603,73153,0.25,0 S,2,72603,73153,4 P,0,72603,73153,A
Sprite,Foreground,Centre,"storyboard\line.png",410,148 F,2,72775,73325,0.25,0 S,2,72775,73325,4 P,0,72775,73325,A
Sprite,Foreground,Centre,"storyboard\line.png",476,303 F,2,72948,73498,0.25,0 S,2,72948,73498,4 P,0,72948,73498,A
Sprite,Foreground,Centre,"storyboard\line.png",519,110 F,2,73120,73670,0.25,0 S,2,73120,73670,4 P,0,73120,73670,A
Sprite,Foreground,Centre,"storyboard\line.png",0,0 M,0,73293,73551,350,213,243.8871,197.4238 F,2,73293,74101,0.25,0 S,2,73293,74101,4 P,0,73293,74101,A
Sprite,Foreground,Centre,"storyboard\line.png",234,188 F,2,73638,74188,0.25,0 S,2,73638,74188,4 P,0,73638,74188,A
Sprite,Foreground,Centre,"storyboard\line.png",0,0 M,0,73809,74153,156,299,293.5913,302.6274 F,2,73809,74703,0.25,0 S,2,73809,74703,4 P,0,73809,74703,A
Sprite,Foreground,Centre,"storyboard\line.png",0,0 M,0,74327,74499,312,129,269.8213,76.31879 F,2,74327,75049,0.25,0 S,2,74327,75049,4 P,0,74327,75049,A
Sprite,Foreground,Centre,"storyboard\line.png",0,0 M,0,74671,75015,93,163,233.8594,187.6504 F,2,74671,75565,0.25,0 S,2,74671,75565,4 P,0,74671,75565,A
Sprite,Foreground,Centre,"storyboard\line.png",409,212 F,2,75189,75739,0.25,0 S,2,75189,75739,4 P,0,75189,75739,A
Sprite,Foreground,Centre,"storyboard\line.png",0,0 M,0,75361,75533,293,302,303.3531,372.7465 F,2,75361,76083,0.25,0 S,2,75361,76083,4 P,0,75361,76083,A
Sprite,Foreground,Centre,"storyboard\line.png",329,217 F,2,75707,76257,0.25,0 S,2,75707,76257,4 P,0,75707,76257,A
Sprite,Foreground,Centre,"storyboard\line.png",194,273 F,2,75879,76429,0.25,0 S,2,75879,76429,4 P,0,75879,76429,A
Sprite,Foreground,Centre,"storyboard\line.png",0,0 M,0,76051,76309,375,403,469.4695,370.4268 F,2,76051,76859,0.25,0 S,2,76051,76859,4 P,0,76051,76859,A
Sprite,Foreground,Centre,"storyboard\line.png",479,355 F,2,76396,76946,0.25,0 S,2,76396,76946,4 P,0,76396,76946,A
Sprite,Foreground,Centre,"storyboard\line.png",0,0 M,0,76568,76912,446,144,431.3852,286.2512 F,2,76568,77462,0.25,0 S,2,76568,77462,4 P,0,76568,77462,A
Sprite,Foreground,Centre,"storyboard\line.png",0,0 M,0,77085,77257,560,331,511.7649,275.9154 F,2,77085,77807,0.25,0 S,2,77085,77807,4 P,0,77085,77807,A
Sprite,Foreground,Centre,"storyboard\lyrics\77.png",250,160 L,189,2 F,2,0,517,1,0 F,2,517,1034,0.75,0 F,2,1034,1379,0.5,0 S,0,189,2947,0.05,0.055 MX,0,189,2947,250,243
Sprite,Foreground,Centre,"storyboard\lyrics\77-glow.png",250,160 L,189,2 F,1,0,517,1,0 F,1,517,1034,0.75,0 F,1,1034,1379,0.5,0 S,0,189,2947,0.05,0.055 MX,0,189,2947,250,243
Sprite,Foreground,Centre,"storyboard\lyrics\97.png",259,160 L,189,2 F,2,0,517,1,0 F,2,517,1034,0.75,0 F,2,1034,1379,0.5,0 S,0,189,2947,0.05,0.055 MX,0,189,2947,259,253
Sprite,Foreground,Centre,"storyboard\lyrics\97-glow.png",259,160 L,189,2 F,1,0,517,1,0 F,1,517,1034,0.75,0 F,1,1034,1379,0.5,0 S,0,189,2947,0.05,0.055 MX,0,189,2947,259,253
Sprite,Foreground,Centre,"storyboard\lyrics\112.png",269,160 L,189,2 F,2,0,517,1,0 F,2,517,1034,0.75,0 F,2,1034,1379,0.5,0 S,0,189,2947,0.05,0.055 MX,0,189,2947,269,264
Sprite,Foreground,Centre,"storyboard\lyrics\112-glow.png",269,160 L,189,2 F,1,0,517,1,0 F,1,517,1034,0.75,0 F,1,1034,1379,0.5,0 S,0,189,2947,0.05,0.055 MX,0,189,2947,269,264
Sprite,Foreground,Centre,"storyboard\lyrics\112.png",278,160 L,189,2 F,2,0,517,1,0 F,2,517,1034,0.75,0 F,2,1034,1379,0.5,0 S,0,189,2947,0.05,0.055 MX,0,189,2947,278,274
Sprite,Foreground,Centre,"storyboard\lyrics\112-glow.png",278,160 L,189,2 F,1,0,517,1,0 F,1,517,1034,0.75,0 F,1,1034,1379,0.5,0 S,0,189,2947,0.05,0.055 MX,0,189,2947,278,274
Sprite,Foreground,Centre,"storyboard\lyrics\101.png",287,160 L,189,2 F,2,0,517,1,0 F,2,517,1034,0.75,0 F,2,1034,1379,0.5,0 S,0,189,2947,0.05,0.055 MX,0,189,2947,287,284
Sprite,Foreground,Centre,"storyboard\lyrics\101-glow.png",287,160 L,189,2 F,1,0,517,1,0 F,1,517,1034,0.75,0 F,1,1034,1379,0.5,0 S,0,189,2947,0.05,0.055 MX,0,189,2947,287,284
Sprite,Foreground,Centre,"storyboard\lyrics\100.png",296,160 L,189,2 F,2,0,517,1,0 F,2,517,1034,0.75,0 F,2,1034,1379,0.5,0 S,0,189,2947,0.05,0.055 MX,0,189,2947,296,294
Sprite,Foreground,Centre,"storyboard\lyrics\100-glow.png",296,160 L,189,2 F,1,0,517,1,0 F,1,517,1034,0.75,0 F,1,1034,1379,0.5,0 S,0,189,2947,0.05,0.055 MX,0,189,2947,296,294
Sprite,Foreground,Centre,"storyboard\lyrics\98.png",315,160 L,189,2 F,2,0,517,1,0 F,2,517,1034,0.75,0 F,2,1034,1379,0.5,0 S,0,189,2947,0.05,0.055 MX,0,189,2947,315,314
Sprite,Foreground,Centre,"storyboard\lyrics\98-glow.png",315,160 L,189,2 F,1,0,517,1,0 F,1,517,1034,0.75,0 F,1,1034,1379,0.5,0 S,0,189,2947,0.05,0.055 MX,0,189,2947,315,314
Sprite,Foreground,Centre,"storyboard\lyrics\121.png",324,160 L,189,2 F,2,0,517,1,0 F,2,517,1034,0.75,0 F,2,1034,1379,0.5,0 S,0,189,2947,0.05,0.055 MX,0,189,2947,324,325
Sprite,Foreground,Centre,"storyboard\lyrics\121-glow.png",324,160 L,189,2 F,1,0,517,1,0 F,1,517,1034,0.75,0 F,1,1034,1379,0.5,0 S,0,189,2947,0.05,0.055 MX,0,189,2947,324,325
Sprite,Foreground,Centre,"storyboard\lyrics\77.png",343,160 L,189,2 F,2,0,517,1,0 F,2,517,1034,0.75,0 F,2,1034,1379,0.5,0 S,0,189,2947,0.05,0.055 MX,0,189,2947,343,345
Sprite,Foreground,Centre,"storyboard\lyrics\77-glow.png",343,160 L,189,2 F,1,0,517,1,0 F,1,517,1034,0.75,0 F,1,1034,1379,0.5,0 S,0,189,2947,0.05,0.055 MX,0,189,2947,343,345
Sprite,Foreground,Centre,"storyboard\lyrics\105.png",352,160 L,189,2 F,2,0,517,1,0 F,2,517,1034,0.75,0 F,2,1034,1379,0.5,0 S,0,189,2947,0.05,0.055 MX,0,189,2947,352,355
Sprite,Foreground,Centre,"storyboard\lyrics\105-glow.png",352,160 L,189,2 F,1,0,517,1,0 F,1,517,1034,0.75,0 F,1,1034,1379,0.5,0 S,0,189,2947,0.05,0.055 MX,0,189,2947,352,355
Sprite,Foreground,Centre,"storyboard\lyrics\109.png",361,160 L,189,2 F,2,0,517,1,0 F,2,517,1034,0.75,0 F,2,1034,1379,0.5,0 S,0,189,2947,0.05,0.055 MX,0,189,2947,361,365
Sprite,Foreground,Centre,"storyboard\lyrics\109-glow.png",361,160 L,189,2 F,1,0,517,1,0 F,1,517,1034,0.75,0 F,1,1034,1379,0.5,0 S,0,189,2947,0.05,0.055 MX,0,189,2947,361,365
Sprite,Foreground,Centre,"storyboard\lyrics\97.png",370,160 L,189,2 F,2,0,517,1,0 F,2,517,1034,0.75,0 F,2,1034,1379,0.5,0 S,0,189,2947,0.05,0.055 MX,0,189,2947,370,375
Sprite,Foreground,Centre,"storyboard\lyrics\97-glow.png",370,160 L,189,2 F,1,0,517,1,0 F,1,517,1034,0.75,0 F,1,1034,1379,0.5,0 S,0,189,2947,0.05,0.055 MX,0,189,2947,370,375
Sprite,Foreground,Centre,"storyboard\lyrics\114.png",380,160 L,189,2 F,2,0,517,1,0 F,2,517,1034,0.75,0 F,2,1034,1379,0.5,0 S,0,189,2947,0.05,0.055 MX,0,189,2947,380,386
Sprite,Foreground,Centre,"storyboard\lyrics\114-glow.png",380,160 L,189,2 F,1,0,517,1,0 F,1,517,1034,0.75,0 F,1,1034,1379,0.5,0 S,0,189,2947,0.05,0.055 MX,0,189,2947,380,386
Sprite,Foreground,Centre,"storyboard\lyrics\105.png",389,160 L,189,2 F,2,0,517,1,0 F,2,517,1034,0.75,0 F,2,1034,1379,0.5,0 S,0,189,2947,0.05,0.055 MX,0,189,2947,389,396
Sprite,Foreground,Centre,"storyboard\lyrics\105-glow.png",389,160 L,189,2 F,1,0,517,1,0 F,1,517,1034,0.75,0 F,1,1034,1379,0.5,0 S,0,189,2947,0.05,0.055 MX,0,189,2947,389,396
Sprite,Foreground,Centre,"storyboard\lyrics\83.png",177,160 L,2947,2 F,2,0,517,1,0 F,2,517,1034,0.75,0 F,2,1034,1379,0.5,0 S,0,2947,5706,0.055,0.06 MX,0,2947,5706,177,164
Sprite,Foreground,Centre,"storyboard\lyrics\83-glow.png",177,160 L,2947,2 F,1,0,517,1,0 F,1,517,1034,0.75,0 F,1,1034,1379,0.5,0 S,0,2947,5706,0.055,0.06 MX,0,2947,5706,177,164
Sprite,Foreground,Centre,"storyboard\lyrics\116.png",187,160 L,2947,2 F,2,0,517,1,0 F,2,517,1034,0.75,0 F,2,1034,1379,0.5,0 S,0,2947,5706,0.055,0.06 MX,0,2947,5706,187,175
Sprite,Foreground,Centre,"storyboard\lyrics\116-glow.png",187,160 L,2947,2 F,1,0,517,1,0 F,1,517,1034,0.75,0 F,1,1034,1379,0.5,0 S,0,2947,5706,0.055,0.06 MX,0,2947,5706,187,175
Sprite,Foreground,Centre,"storyboard\lyrics\111.png",197,160 L,2947,2 F,2,0,517,1,0 F,2,517,1034,0.75,0 F,2,1034,1379,0.5,0 S,0,2947,5706,0.055,0.06 MX,0,2947,5706,197,186
Sprite,Foreground,Centre,"storyboard\lyrics\111-glow.png",197,160 L,2947,2 F,1,0,517,1,0 F,1,517,1034,0.75,0 F,1,1034,1379,0.5,0 S,0,2947,5706,0.055,0.06 MX,0,2947,5706,197,186
Sprite,Foreground,Centre,"storyboard\lyrics\114.png",208,160 L,2947,2 F,2,0,517,1,0 F,2,517,1034,0.75,0 F,2,1034,1379,0.5,0 S,0,2947,5706,0.055,0.06 MX,0,2947,5706,208,197
Sprite,Foreground,Centre,"storyboard\lyrics\114-glow.png",208,160 L,2947,2 F,1,0,517,1,0 F,1,517,1034,0.75,0 F,1,1034,1379,0.5,0 S,0,2947,5706,0.055,0.06 MX,0,2947,5706,208,197
Sprite,Foreground,Centre,"storyboard\lyrics\121.png",218,160 L,2947,2 F,2,0,517,1,0 F,2,517,1034,0.75,0 F,2,1034,1379,0.5,0 S,0,2947,5706,0.055,0.06 MX,0,2947,5706,218,209
Sprite,Foreground,Centre,"storyboard\lyrics\121-glow.png",218,160 L,2947,2 F,1,0,517,1,0 F,1,517,1034,0.75,0 F,1,1034,1379,0.5,0 S,0,2947,5706,0.055,0.06 MX,0,2947,5706,218,209
Sprite,Foreground,Centre,"storyboard\lyrics\98.png",228,160 L,2947,2 F,2,0,517,1,0 F,2,517,1034,0.75,0 F,2,1034,1379,0.5,0 S,0,2947,5706,0.055,0.06 MX,0,2947,5706,228,220
Sprite,Foreground,Centre,"storyboard\lyrics\98-glow.png",228,160 L,2947,2 F,1,0,517,1,0 F,1,517,1034,0.75,0 F,1,1034,1379,0.5,0 S,0,2947,5706,0.055,0.06 MX,0,2947,5706,228,220
Sprite,Foreground,Centre,"storyboard\lyrics\111.png",238,160 L,2947,2 F,2,0,517,1,0 F,2,517,1034,0.75,0 F,2,1034,1379,0.5,0 S,0,2947,5706,0.055,0.06 MX,0,2947,5706,238,231
Sprite,Foreground,Centre,"storyboard\lyrics\111-glow.png",238,160 L,2947,2 F,1,0,517,1,0 F,1,517,1034,0.75,0 F,1,1034,1379,0.5,0 S,0,2947,5706,0.055,0.06 MX,0,2947,5706,238,231
Sprite,Foreground,Centre,"storyboard\lyrics\97.png",248,160 L,2947,2 F,2,0,517,1,0 F,2,517,1034,0.75,0 F,2,1034,1379,0.5,0 S,0,2947,5706,0.055,0.06 MX,0,2947,5706,248,242
Sprite,Foreground,Centre,"storyboard\lyrics\97-glow.png",248,160 L,2947,2 F,1,0,517,1,0 F,1,517,1034,0.75,0 F,1,1034,1379,0.5,0 S,0,2947,5706,0.055,0.06 MX,0,2947,5706,248,242
Sprite,Foreground,Centre,"storyboard\lyrics\114.png",258,160 L,2947,2 F,2,0,517,1,0 F,2,517,1034,0.75,0 F,2,1034,1379,0.5,0 S,0,2947,5706,0.055,0.06 MX,0,2947,5706,258,253
Sprite,Foreground,Centre,"storyboard\lyrics\114-glow.png",258,160 L,2947,2 F,1,0,517,1,0 F,1,517,1034,0.75,0 F,1,1034,1379,0.5,0 S,0,2947,5706,0.055,0.06 MX,0,2947,5706,258,253
Sprite,Foreground,Centre,"storyboard\lyrics\100.png",269,160 L,2947,2 F,2,0,517,1,0 F,2,517,1034,0.75,0 F,2,1034,1379,0.5,0 S,0,2947,5706,0.055,0.06 MX,0,2947,5706,269,264
Sprite,Foreground,Centre,"storyboard\lyrics\100-glow.png",269,160 L,2947,2 F,1,0,517,1,0 F,1,517,1034,0.75,0 F,1,1034,1379,0.5,0 S,0,2947,5706,0.055,0.06 MX,0,2947,5706,269,264
Sprite,Foreground,Centre,"storyboard\lyrics\101.png",279,160 L,2947,2 F,2,0,517,1,0 F,2,517,1034,0.75,0 F,2,1034,1379,0.5,0 S,0,2947,5706,0.055,0.06 MX,0,2947,5706,279,275
Sprite,Foreground,Centre,"storyboard\lyrics\101-glow.png",279,160 L,2947,2 F,1,0,517,1,0 F,1,517,1034,0.75,0 F,1,1034,1379,0.5,0 S,0,2947,5706,0.055,0.06 MX,0,2947,5706,279,275
Sprite,Foreground,Centre,"storyboard\lyrics\100.png",289,160 L,2947,2 F,2,0,517,1,0 F,2,517,1034,0.75,0 F,2,1034,1379,0.5,0 S,0,2947,5706,0.055,0.06 MX,0,2947,5706,289,286
Sprite,Foreground,Centre,"storyboard\lyrics\100-glow.png",289,160 L,2947,2 F,1,0,517,1,0 F,1,517,1034,0.75,0 F,1,1034,1379,0.5,0 S,0,2947,5706,0.055,0.06 MX,0,2947,5706,289,286
Sprite,Foreground,Centre,"storyboard\lyrics\98.png",309,160 L,2947,2 F,2,0,517,1,0 F,2,517,1034,0.75,0 F,2,1034,1379,0.5,0 S,0,2947,5706,0.055,0.06 MX,0,2947,5706,309,308
Sprite,Foreground,Centre,"storyboard\lyrics\98-glow.png",309,160 L,2947,2 F,1,0,517,1,0 F,1,517,1034,0.75,0 F,1,1034,1379,0.5,0 S,0,2947,5706,0.055,0.06 MX,0,2947,5706,309,308
Sprite,Foreground,Centre,"storyboard\lyrics\121.png",320,160 L,2947,2 F,2,0,517,1,0 F,2,517,1034,0.75,0 F,2,1034,1379,0.5,0 S,0,2947,5706,0.055,0.06 MX,0,2947,5706,320
Sprite,Foreground,Centre,"storyboard\lyrics\121-glow.png",320,160 L,2947,2 F,1,0,517,1,0 F,1,517,1034,0.75,0 F,1,1034,1379,0.5,0 S,0,2947,5706,0.055,0.06 MX,0,2947,5706,320
Sprite,Foreground,Centre,"storyboard\lyrics\45.png",340,160 L,2947,2 F,2,0,517,1,0 F,2,517,1034,0.75,0 F,2,1034,1379,0.5,0 S,0,2947,5706,0.055,0.06 MX,0,2947,5706,340,342
Sprite,Foreground,Centre,"storyboard\lyrics\45-glow.png",340,160 L,2947,2 F,1,0,517,1,0 F,1,517,1034,0.75,0 F,1,1034,1379,0.5,0 S,0,2947,5706,0.055,0.06 MX,0,2947,5706,340,342
Sprite,Foreground,Centre,"storyboard\lyrics\65.png",350,160 L,2947,2 F,2,0,517,1,0 F,2,517,1034,0.75,0 F,2,1034,1379,0.5,0 S,0,2947,5706,0.055,0.06 MX,0,2947,5706,350,353
Sprite,Foreground,Centre,"storyboard\lyrics\65-glow.png",350,160 L,2947,2 F,1,0,517,1,0 F,1,517,1034,0.75,0 F,1,1034,1379,0.5,0 S,0,2947,5706,0.055,0.06 MX,0,2947,5706,350,353
Sprite,Foreground,Centre,"storyboard\lyrics\100.png",360,160 L,2947,2 F,2,0,517,1,0 F,2,517,1034,0.75,0 F,2,1034,1379,0.5,0 S,0,2947,5706,0.055,0.06 MX,0,2947,5706,360,364
Sprite,Foreground,Centre,"storyboard\lyrics\100-glow.png",360,160 L,2947,2 F,1,0,517,1,0 F,1,517,1034,0.75,0 F,1,1034,1379,0.5,0 S,0,2947,5706,0.055,0.06 MX,0,2947,5706,360,364
Sprite,Foreground,Centre,"storyboard\lyrics\121.png",370,160 L,2947,2 F,2,0,517,1,0 F,2,517,1034,0.75,0 F,2,1034,1379,0.5,0 S,0,2947,5706,0.055,0.06 MX,0,2947,5706,370,375
Sprite,Foreground,Centre,"storyboard\lyrics\121-glow.png",370,160 L,2947,2 F,1,0,517,1,0 F,1,517,1034,0.75,0 F,1,1034,1379,0.5,0 S,0,2947,5706,0.055,0.06 MX,0,2947,5706,370,375
Sprite,Foreground,Centre,"storyboard\lyrics\38.png",391,160 L,2947,2 F,2,0,517,1,0 F,2,517,1034,0.75,0 F,2,1034,1379,0.5,0 S,0,2947,5706,0.055,0.06 MX,0,2947,5706,391,397
Sprite,Foreground,Centre,"storyboard\lyrics\38-glow.png",391,160 L,2947,2 F,1,0,517,1,0 F,1,517,1034,0.75,0 F,1,1034,1379,0.5,0 S,0,2947,5706,0.055,0.06 MX,0,2947,5706,391,397
Sprite,Foreground,Centre,"storyboard\lyrics\80.png",411,160 L,2947,2 F,2,0,517,1,0 F,2,517,1034,0.75,0 F,2,1034,1379,0.5,0 S,0,2947,5706,0.055,0.06 MX,0,2947,5706,411,419
Sprite,Foreground,Centre,"storyboard\lyrics\80-glow.png",411,160 L,2947,2 F,1,0,517,1,0 F,1,517,1034,0.75,0 F,1,1034,1379,0.5,0 S,0,2947,5706,0.055,0.06 MX,0,2947,5706,411,419
Sprite,Foreground,Centre,"storyboard\lyrics\97.png",421,160 L,2947,2 F,2,0,517,1,0 F,2,517,1034,0.75,0 F,2,1034,1379,0.5,0 S,0,2947,5706,0.055,0.06 MX,0,2947,5706,421,431
Sprite,Foreground,Centre,"storyboard\lyrics\97-glow.png",421,160 L,2947,2 F,1,0,517,1,0 F,1,517,1034,0.75,0 F,1,1034,1379,0.5,0 S,0,2947,5706,0.055,0.06 MX,0,2947,5706,421,431
Sprite,Foreground,Centre,"storyboard\lyrics\114.png",431,160 L,2947,2 F,2,0,517,1,0 F,2,517,1034,0.75,0 F,2,1034,1379,0.5,0 S,0,2947,5706,0.055,0.06 MX,0,2947,5706,431,442
Sprite,Foreground,Centre,"storyboard\lyrics\114-glow.png",431,160 L,2947,2 F,1,0,517,1,0 F,1,517,1034,0.75,0 F,1,1034,1379,0.5,0 S,0,2947,5706,0.055,0.06 MX,0,2947,5706,431,442
Sprite,Foreground,Centre,"storyboard\lyrics\116.png",442,160 L,2947,2 F,2,0,517,1,0 F,2,517,1034,0.75,0 F,2,1034,1379,0.5,0 S,0,2947,5706,0.055,0.06 MX,0,2947,5706,442,453
Sprite,Foreground,Centre,"storyboard\lyrics\116-glow.png",442,160 L,2947,2 F,1,0,517,1,0 F,1,517,1034,0.75,0 F,1,1034,1379,0.5,0 S,0,2947,5706,0.055,0.06 MX,0,2947,5706,442,453
Sprite,Foreground,Centre,"storyboard\lyrics\121.png",452,160 L,2947,2 F,2,0,517,1,0 F,2,517,1034,0.75,0 F,2,1034,1379,0.5,0 S,0,2947,5706,0.055,0.06 MX,0,2947,5706,452,464
Sprite,Foreground,Centre,"storyboard\lyrics\121-glow.png",452,160 L,2947,2 F,1,0,517,1,0 F,1,517,1034,0.75,0 F,1,1034,1379,0.5,0 S,0,2947,5706,0.055,0.06 MX,0,2947,5706,452,464
Sprite,Foreground,Centre,"storyboard\lyrics\117.png",462,160 L,2947,2 F,2,0,517,1,0 F,2,517,1034,0.75,0 F,2,1034,1379,0.5,0 S,0,2947,5706,0.055,0.06 MX,0,2947,5706,462,475
Sprite,Foreground,Centre,"storyboard\lyrics\117-glow.png",462,160 L,2947,2 F,1,0,517,1,0 F,1,517,1034,0.75,0 F,1,1034,1379,0.5,0 S,0,2947,5706,0.055,0.06 MX,0,2947,5706,462,475
//Storyboard Layer 4 (Overlay)
//Storyboard Sound Samples

[TimingPoints]
189,689.655172413793,4,2,1,50,1,0
11223,-125,4,2,1,50,0,0
33292,-200,4,2,1,70,0,0
33465,-200,4,2,1,5,0,0
35361,-200,4,2,1,60,0,0
36051,-200,4,2,1,5,0,0
38120,-200,4,2,1,60,0,0
38465,-125,4,2,1,60,0,0
44327,-166.666666666667,4,2,1,60,0,0
44499,-166.666666666667,4,2,1,5,0,0
46223,-166.666666666667,4,2,1,60,0,0
46395,-166.666666666667,4,2,1,60,0,0
47085,-166.666666666667,4,2,1,5,0,0
49154,-166.666666666667,4,2,1,60,0,0
49499,-125,4,2,1,65,0,0
52258,-125,4,2,1,70,0,0
52603,-125,4,2,1,50,0,0
55361,-76.9230769230769,4,2,2,85,0,1
56913,-76.9230769230769,4,2,2,85,0,1
56998,-76.9230769230769,4,2,2,5,0,1
57085,-76.9230769230769,4,2,2,85,0,1
59671,-76.9230769230769,4,2,2,85,0,1
59757,-76.9230769230769,4,2,2,5,0,1
59844,-76.9230769230769,4,2,2,85,0,1
62430,-76.9230769230769,4,2,2,85,0,1
62516,-76.9230769230769,4,2,2,5,0,1
62603,-76.9230769230769,4,2,2,85,0,1
65189,-76.9230769230769,4,2,2,85,0,1
65274,-76.9230769230769,4,2,2,5,0,1
65361,-76.9230769230769,4,2,2,85,0,1
66051,-76.9230769230769,4,2,2,85,0,0
66395,-76.9230769230769,4,2,2,85,0,1
67947,-76.9230769230769,4,2,2,85,0,1
68033,-76.9230769230769,4,2,2,5,0,1
68120,-76.9230769230769,4,2,2,85,0,1
70706,-76.9230769230769,4,2,2,85,0,1
70792,-76.9230769230769,4,2,2,5,0,1
70878,-76.9230769230769,4,2,2,85,0,1
73465,-76.9230769230769,4,2,2,85,0,1
73551,-76.9230769230769,4,2,2,5,0,1
73637,-76.9230769230769,4,2,2,85,0,1
76396,-76.9230769230769,4,2,2,85,0,1
77085,-71.4285714285714,4,2,2,85,0,1
77430,-111.111111111111,4,2,1,60,0,0
88465,-111.111111111111,4,2,1,65,0,0
93982,-100,4,2,1,70,0,0
96740,-90.9090909090909,4,2,1,70,0,0
97430,-125,4,2,1,70,0,0
99154,-125,4,2,1,50,0,0
99499,-166.666666666667,4,2,1,40,0,0
101568,-166.666666666667,4,2,1,60,0,0
102257,-76.9230769230769,4,2,2,85,0,1
110188,-76.9230769230769,4,2,2,85,0,0
110361,-76.9230769230769,4,2,2,85,0,0
110447,-76.9230769230769,4,2,2,5,0,0
110533,-76.9230769230769,4,2,2,85,0,1
113292,-76.9230769230769,4,2,2,85,0,1
121396,-76.9230769230769,4,2,2,85,0,1
121481,-76.9230769230769,4,2,2,5,0,1
121568,-76.9230769230769,4,2,2,60,0,0

[Colours]
Combo1 : 226,220,171
Combo2 : 138,170,213
Combo3 : 146,136,202

[HitObjects]
360,285,11223,6,0,B|350:193,1,88,6|2,3:2|0:0,0:0:0:0:
280,135,11913,2,0,L|274:71,1,44,2|0,0:0|0:0,0:0:0:0:
432,120,12258,1,2,3:2:0:0:
432,120,12430,2,0,L|445:222,1,88,2|2,0:0|0:0,0:0:0:0:
359,285,12947,2,0,B|288:278|288:278|257:301|257:301|175:295,1,176,2|0,0:0|3:0,0:0:0:0:
176,146,13982,6,0,P|211:174|222:238,1,88,2|2,3:2|0:0,0:0:0:0:
108,328,14671,1,2,0:0:0:0:
108,328,14844,2,0,L|102:264,1,44,2|0,0:0|3:0,0:0:0:0:
199,384,15189,2,0,L|190:293,1,88,2|0,0:0|0:0,0:0:0:0:
56,202,15706,2,0,B|121:196|121:196|153:220|153:220|223:213,1,176,2|0,0:0|3:0,0:0:0:0:
384,182,16740,6,0,L|401:69,1,88,0|0,3:0|0:0,0:0:0:0:
313,116,17258,2,0,L|330:3,1,88,0|0,3:0|0:0,0:0:0:0:
245,58,17775,1,0,3:0:0:0:
447,28,18120,6,0,L|505:16,2,44,2|2|2,3:2|0:0|0:0,0:0:0:0:
398,95,18637,1,2,3:2:0:0:
398,95,18809,2,0,L|289:121,1,88,2|2,0:0|3:2,0:0:0:0:
143,6,19499,6,0,P|199:3|246:70,2,132,2|0|0,3:2|3:0|3:0,0:0:0:0:
35,104,20878,6,0,L|49:217,1,88,0|0,3:0|0:0,0:0:0:0:
121,147,21396,2,0,L|135:260,1,88,0|0,3:0|0:0,0:0:0:0:
60,272,21913,1,0,3:0:0:0:
179,337,22258,6,0,B|277:320,1,88,2|2,3:2|0:0,0:0:0:0:
343,235,22948,2,0,L|406:222,1,44,2|0,0:0|0:0,0:0:0:0:
426,340,23293,1,2,3:2:0:0:
426,340,23465,2,0,B|339:355,1,88,2|2,0:0|0:0,0:0:0:0:
265,321,23982,6,0,B|230:213|230:213|291:132,1,176,2|0,0:0|3:0,0:0:0:0:
97,29,25017,6,0,P|62:57|51:121,1,88,2|2,3:2|0:0,0:0:0:0:
112,219,25706,2,0,L|182:209,1,44,2|0,0:0|0:0,0:0:0:0:
113,139,26051,1,2,3:2:0:0:
113,139,26223,2,0,L|231:124,1,88,2|0,0:0|0:0,0:0:0:0:
265,1,26741,2,0,B|259:66|259:66|283:98|283:98|276:168,1,176,2|0,0:0|3:0,0:0:0:0:
381,363,27775,6,0,L|364:250,1,88,2|0,3:2|0:0,0:0:0:0:
457,318,28292,2,0,L|440:205,1,88,0|0,3:0|0:0,0:0:0:0:
369,194,28810,1,2,3:2:0:0:
211,317,29155,6,0,L|170:330,2,44,2|2|2,3:2|0:0|0:0,0:0:0:0:
293,347,29672,1,2,3:2:0:0:
293,347,29844,2,0,L|276:234,1,88,2|2,0:0|3:2,0:0:0:0:
168,124,30534,6,0,P|102:132|79:208,2,132,2|0|0,3:2|3:0|3:0,0:0:0:0:
291,181,31913,6,0,L|404:167,1,88,0|0,3:0|0:0,0:0:0:0:
334,95,32431,2,0,L|447:81,1,88,0|0,3:0|0:0,0:0:0:0:
459,156,32948,1,2,3:2:0:0:
262,43,33292,6,0,B|212:64|169:30|169:30|163:63|138:79|113:79|113:79|74:18|-3:62|18:120,1,330,4|2,0:1|0:0,0:0:0:0:
75,251,35878,6,0,B|108:279|151:260|151:260|130:302|160:348|160:348|262:315|222:189,1,357.5,2|0,0:0|0:0,0:0:0:0:
135,128,38465,2,0,P|151:163|180:190,1,44,2|2,0:0|0:0,0:0:0:0:
226,200,38809,6,0,L|331:216,1,88,2|2,0:0|0:0,0:0:0:0:
342,64,39499,1,2,0:0:0:0:
342,64,39671,1,2,0:0:0:0:
306,135,39844,2,0,L|350:142,1,44,2|0,0:0|0:0,0:0:0:0:
452,111,40189,6,0,P|397:127|444:211,1,176,2|0,0:0|0:0,0:0:0:0:
512,310,41223,2,0,P|496:345|467:372,1,44,2|2,0:0|0:0,0:0:0:0:
423,376,41568,6,0,L|317:362,1,88,2|2,0:0|0:0,0:0:0:0:
348,213,42257,1,2,0:0:0:0:
348,213,42429,1,2,0:0:0:0:
319,286,42603,2,0,L|362:292,1,44,2|0,0:0|0:0,0:0:0:0:
263,222,42947,6,0,P|210:218|161:325,1,176,2|0,0:0|0:0,0:0:0:0:
348,213,43982,2,0,P|355:190|356:141,1,44,2|0,0:0|0:0,0:0:0:0:
345,94,44327,6,0,B|310:97|294:122|294:122|232:125|206:62|252:12|252:12|288:63|346:78|410:49,1,395.999987915039,2|2,0:0|0:0,0:0:0:0:
505,207,46913,6,0,B|455:186|412:220|412:220|406:187|381:171|356:171|356:171|338:226|293:266|236:252|236:252|208:210|143:224,1,428.999986907959,2|0,0:0|0:0,0:0:0:0:
47,102,49499,2,0,P|26:134|20:173,1,44,2|2,0:0|0:0,0:0:0:0:
11,217,49844,6,0,L|26:334,1,88,2|2,0:0|0:0,0:0:0:0:
184,341,50533,1,2,0:0:0:0:
184,341,50705,1,2,0:0:0:0:
97,343,50878,2,0,L|108:285,1,44,2|0,0:0|0:0,0:0:0:0:
192,212,51223,6,0,B|263:179|306:248|306:248|348:328|451:278,1,264,2|2,0:0|0:0,0:0:0:0:
382,217,52603,5,2,0:0:0:0:
40,275,55361,6,0,B|87:268|87:268|128:287|128:287|222:267,1,142.99999345398,6|0,1:2|0:0,0:0:0:0:
341,243,55878,1,0,1:0:0:0:
153,127,56051,2,0,L|134:230,1,71.4999967269899,10|0,0:0|0:0,0:0:0:0:
185,361,56396,1,0,1:0:0:0:
253,174,56568,1,0,0:0:0:0:
325,364,56740,6,0,L|454:342,1,107.249995090485,2|0,1:2|0:0,0:0:0:0:
447,356,57085,1,2,0:0:0:0:
420,156,57258,2,0,P|362:169|340:242,1,142.99999345398,2|0,1:2|0:0,0:0:0:0:
484,271,57775,2,0,L|498:189,1,71.4999967269899,10|0,1:2|0:0,0:0:0:0:
370,72,58120,6,0,B|323:79|323:79|288:112|288:112|192:126,1,142.99999345398,2|0,1:2|0:0,0:0:0:0:
93,131,58637,1,0,1:0:0:0:
190,6,58809,2,0,P|225:12|253:63,1,71.4999967269899,10|0,0:0|0:0,0:0:0:0:
133,220,59154,1,0,1:0:0:0:
77,30,59327,1,0,0:0:0:0:
241,118,59499,6,0,L|223:255,1,107.249995090485,2|0,1:2|0:0,0:0:0:0:
238,237,59844,1,2,0:0:0:0:
44,324,60016,2,0,L|218:289,1,142.99999345398,2|0,1:2|0:0,0:0:0:0:
328,339,60534,2,0,P|291:341|251:294,1,71.4999967269899,10|0,1:2|0:0,0:0:0:0:
423,218,60878,6,0,B|457:253|457:253|412:355,1,142.99999345398,2|0,1:2|0:0,0:0:0:0:
257,224,61396,1,0,1:0:0:0:
429,126,61568,1,10,0:0:0:0:
343,262,61740,5,0,0:0:0:0:
354,49,61913,1,0,1:0:0:0:
423,218,62085,1,0,0:0:0:0:
245,74,62258,6,0,L|136:58,1,107.249995090485,2|0,1:2|0:0,0:0:0:0:
117,68,62603,1,2,0:0:0:0:
85,226,62775,2,0,P|157:216|191:146,1,142.99999345398,2|0,1:2|0:0,0:0:0:0:
14,90,63292,2,0,L|30:191,1,71.4999967269899,10|0,1:2|0:0,0:0:0:0:
121,311,63637,6,0,P|192:300|263:289,1,142.99999345398,2|0,1:2|0:0,0:0:0:0:
439,329,64154,1,0,1:0:0:0:
303,180,64327,2,0,L|228:169,1,71.4999967269899,10|0,0:0|0:0,0:0:0:0:
362,371,64672,1,0,1:0:0:0:
425,162,64844,1,0,0:0:0:0:
272,302,65016,6,0,L|137:325,1,107.249995090485,2|0,1:2|0:0,0:0:0:0:
154,331,65361,1,2,0:0:0:0:
353,250,65534,2,0,B|394:295|394:295|353:389,1,142.99999345398,2|0,1:2|0:0,0:0:0:0:
204,275,66051,2,0,L|191:185,1,71.4999967269899,10|0,1:2|0:0,0:0:0:0:
234,105,66396,6,0,B|281:98|281:98|322:117|322:117|399:104,1,142.99999345398,6|0,1:2|0:0,0:0:0:0:
484,110,66913,1,0,1:0:0:0:
360,0,67085,2,0,P|318:7|294:42,1,71.4999967269899,10|0,0:0|0:0,0:0:0:0:
389,218,67431,1,0,1:0:0:0:
411,68,67603,1,0,0:0:0:0:
274,207,67775,6,0,L|296:319,1,107.249995090485,2|0,1:2|0:0,0:0:0:0:
298,330,68120,1,2,0:0:0:0:
342,147,68292,2,0,P|287:168|214:105,1,142.99999345398,2|0,1:2|0:0,0:0:0:0:
299,19,68809,2,0,L|285:111,1,71.4999967269899,10|0,1:2|0:0,0:0:0:0:
150,184,69155,6,0,B|143:137|143:137|110:102|110:102|96:6,1,142.99999345398,2|0,1:2|0:0,0:0:0:0:
184,61,69672,1,0,1:0:0:0:
69,178,69844,2,0,L|0:161,1,71.4999967269899,10|0,0:0|0:0,0:0:0:0:
78,257,70189,1,0,1:0:0:0:
103,55,70362,1,0,0:0:0:0:
231,216,70534,6,0,L|213:353,1,107.249995090485,2|0,1:2|0:0,0:0:0:0:
206,333,70879,1,2,0:0:0:0:
331,232,71051,2,0,P|401:245|427:313,1,142.99999345398,2|0,1:2|0:0,0:0:0:0:
361,378,71568,2,0,P|345:346|350:301,1,71.4999967269899,10|0,1:2|0:0,0:0:0:0:
489,231,71913,6,0,L|473:392,1,142.99999345398,2|0,1:2|0:0,0:0:0:0:
331,232,72431,1,0,1:0:0:0:
487,140,72603,1,10,0:0:0:0:
346,92,72775,5,0,0:0:0:0:
412,247,72948,1,0,1:0:0:0:
455,54,73120,1,0,0:0:0:0:
286,157,73293,6,0,L|177:141,1,107.249995090485,2|0,1:2|0:0,0:0:0:0:
170,132,73638,1,2,0:0:0:0:
92,243,73809,2,0,B|139:236|139:236|180:255|180:255|257:242,1,142.99999345398,2|0,1:2|0:0,0:0:0:0:
248,73,74327,2,0,P|230:35|182:17,1,71.4999967269899,10|0,1:2|0:0,0:0:0:0:
29,107,74671,6,0,L|189:135,1,142.99999345398,2|0,1:2|0:0,0:0:0:0:
345,156,75189,1,0,1:0:0:0:
229,246,75361,2,0,L|241:328,1,71.4999967269899,10|0,0:0|0:0,0:0:0:0:
265,161,75707,1,0,1:0:0:0:
130,217,75879,1,0,0:0:0:0:
311,347,76051,6,0,P|370:344|412:304,1,107.249995090485,2|0,1:2|0:0,0:0:0:0:
415,299,76396,1,2,0:0:0:0:
382,88,76568,2,0,L|367:234,1,142.99999345398,2|2,1:2|0:0,0:0:0:0:
496,275,77085,2,0,P|475:236|439:217,1,76.9999976501466,10|0,1:2|0:0,0:0:0:0:
285,250,77430,6,0,B|224:265|224:265|208:292|208:292|111:313,1,148.49999546814,2|0,3:2|3:0,0:0:0:0:
76,338,78120,6,0,P|68:295|104:238,1,98.9999969787599,2|0,0:0|3:0,0:0:0:0:
29,185,78637,2,0,P|65:160|131:169,1,98.9999969787599,2|0,0:0|0:0,0:0:0:0:
164,224,79154,6,0,L|188:4,1,197.99999395752,2|0,0:0|3:0,0:0:0:0:
185,27,80189,6,0,P|247:30|274:115,1,148.49999546814,2|0,3:2|3:0,0:0:0:0:
317,173,80878,2,0,L|243:184,1,49.4999984893799,2|0,0:0|0:0,0:0:0:0:
349,249,81223,1,0,3:0:0:0:
349,249,81396,2,0,L|252:265,1,98.9999969787599,2|2,0:0|0:0,0:0:0:0:
425,303,81913,6,0,P|439:278|436:228,1,49.4999984893799,2|0,0:0|3:0,0:0:0:0:
510,208,82258,2,0,P|489:187|440:180,1,49.4999984893799,2|0,0:0|0:0,0:0:0:0:
395,192,82603,1,2,3:2:0:0:
395,192,82947,6,0,B|334:177|334:177|318:150|318:150|221:129,1,148.49999546814,2|0,3:2|3:0,0:0:0:0:
191,163,83637,2,0,L|207:276,2,98.9999969787599,2|0|0,0:0|3:0|3:0,0:0:0:0:
38,13,84671,6,0,L|22:88,1,49.4999984893799,2|0,0:0|3:0,0:0:0:0:
109,139,85016,2,0,L|116:210,1,49.4999984893799,2|0,0:0|0:0,0:0:0:0:
46,255,85361,1,2,3:2:0:0:
46,255,85706,6,0,B|74:243|104:227|104:227|189:271,1,148.49999546814,2|0,3:2|3:0,0:0:0:0:
274,127,86396,2,0,P|225:152|208:196,2,98.9999969787599,2|0|0,0:0|3:0|3:0,0:0:0:0:
274,127,87603,5,0,3:0:0:0:
426,342,87947,5,2,0:0:0:0:
437,329,88120,2,0,L|450:242,1,74.2499977340699,2|0,3:2|0:0,0:0:0:0:
451,234,88465,6,0,P|449:171|354:123,1,148.49999546814,2|0,3:2|3:0,0:0:0:0:
297,62,89154,6,0,L|313:174,1,98.9999969787599,2|0,0:0|3:0,0:0:0:0:
371,24,89671,2,0,L|387:136,1,98.9999969787599,2|0,0:0|0:0,0:0:0:0:
378,207,90189,6,0,B|303:193|303:193|265:212|265:212|156:194,1,197.99999395752,2|0,0:0|3:0,0:0:0:0:
186,199,91223,6,0,P|124:202|97:287,1,148.49999546814,2|0,3:2|3:0,0:0:0:0:
79,349,91912,2,0,P|101:352|127:341,1,49.4999984893799,2|0,0:0|0:0,0:0:0:0:
206,378,92257,1,0,3:0:0:0:
206,378,92430,2,0,L|218:247,1,98.9999969787599,2|2,0:0|0:0,0:0:0:0:
180,149,92947,6,0,L|188:221,1,49.4999984893799,2|0,0:0|3:0,0:0:0:0:
298,247,93292,2,0,L|292:296,1,49.4999984893799,2|0,0:0|0:0,0:0:0:0:
126,342,93637,1,2,3:2:0:0:
126,342,93982,6,0,P|52:307|81:195,1,165,2|0,3:2|3:0,0:0:0:0:
0,165,94671,6,0,L|113:142,1,110,2|0,0:0|3:0,0:0:0:0:
305,102,95361,1,0,3:0:0:0:
158,14,95705,6,0,P|143:35|154:88,1,55,2|0,0:0|3:0,0:0:0:0:
228,146,96051,2,0,P|241:168|293:179,1,55,2|0,0:0|0:0,0:0:0:0:
414,102,96395,1,2,3:2:0:0:
414,102,96740,6,0,B|377:62|377:62|399:206,1,181.500005538941,2|0,3:2|0:0,0:0:0:0:
482,201,97430,6,0,B|391:170|354:264|354:264|302:364|211:315|211:315|254:333|300:314|325:285,1,440,2|2,0:0|0:0,0:0:0:0:
256,192,99499,12,2,101568,0:0:0:0:
94,58,102258,6,0,L|108:230,1,142.99999345398,4|0,1:2|0:0,0:0:0:0:
122,337,102775,1,0,1:0:0:0:
191,157,102947,1,8,0:0:0:0:
31,226,103120,1,0,0:0:0:0:
216,293,103292,2,0,P|253:283|315:267,1,71.4999967269899,0|0,1:0|0:0,0:0:0:0:
366,101,103637,6,0,P|297:132|281:214,1,142.99999345398,0|0,1:0|0:0,0:0:0:0:
368,328,104154,2,0,L|386:220,2,71.4999967269899,0|0|0,1:0|0:0|0:0,0:0:0:0:
457,215,104671,1,10,1:2:0:0:
285,275,104844,1,2,0:0:0:0:
471,375,105016,6,0,L|453:267,1,71.4999967269899,2|0,1:2|0:0,0:0:0:0:
331,133,105361,2,0,L|313:241,1,71.4999967269899,2|0,0:0|1:0,0:0:0:0:
373,347,105706,1,10,0:0:0:0:
448,134,105878,1,2,0:0:0:0:
285,275,106051,2,0,L|196:295,1,71.4999967269899,2|0,1:2|0:0,0:0:0:0:
94,99,106396,6,0,P|181:105|222:183,1,142.99999345398,2|0,1:2|0:0,0:0:0:0:
117,291,106913,2,0,L|95:198,1,71.4999967269899,0|0,1:0|0:0,0:0:0:0:
214,33,107258,1,0,0:0:0:0:
173,216,107430,1,10,1:2:0:0:
94,99,107603,1,2,0:0:0:0:
282,181,107775,6,0,L|371:160,1,71.4999967269899,2|0,1:2|0:0,0:0:0:0:
214,33,108120,2,0,L|125:12,1,71.4999967269899,2|0,0:0|1:0,0:0:0:0:
251,262,108465,5,10,0:0:0:0:
323,65,108637,1,2,0:0:0:0:
173,216,108809,2,0,P|162:249|167:312,1,71.4999967269899,2|0,1:2|0:0,0:0:0:0:
360,367,109154,6,0,B|370:344|394:319|394:319|329:209,1,142.99999345398,2|0,1:2|0:0,0:0:0:0:
277,154,109671,2,0,L|200:142,1,71.4999967269899,0|0,1:0|0:0,0:0:0:0:
216,344,110016,1,0,0:0:0:0:
351,246,110189,2,0,L|458:224,1,107.249995090485,10|0,1:2|0:0,0:0:0:0:
475,212,110534,6,0,P|500:148|461:80,1,142.99999345398,6|0,1:2|0:0,0:0:0:0:
334,1,111051,2,0,L|348:92,1,71.4999967269899,0|10,1:0|0:0,0:0:0:0:
405,198,111396,1,0,0:0:0:0:
277,154,111568,2,0,L|185:171,1,71.4999967269899,0|2,1:0|0:0,0:0:0:0:
80,45,111913,6,0,L|249:76,1,142.99999345398,0|0,1:0|0:0,0:0:0:0:
361,87,112430,1,0,1:0:0:0:
206,166,112603,2,0,L|132:152,1,71.4999967269899,2|0,0:0|0:0,0:0:0:0:
290,217,112947,2,0,P|307:185|303:146,1,71.4999967269899,8|2,1:2|0:0,0:0:0:0:
188,286,113292,6,0,B|243:282|243:282|276:298|276:298|366:287,1,142.99999345398,0|0,1:2|0:0,0:0:0:0:
481,271,113809,1,0,1:0:0:0:
290,217,113981,1,8,0:0:0:0:
354,384,114154,1,0,0:0:0:0:
419,201,114327,2,0,L|398:101,1,71.4999967269899,0|0,1:0|0:0,0:0:0:0:
241,20,114671,6,0,P|160:62|156:124,1,142.99999345398,0|0,1:0|0:0,0:0:0:0:
318,93,115189,2,0,L|336:-15,2,71.4999967269899,0|0|0,1:0|0:0|0:0,0:0:0:0:
404,131,115705,1,10,1:2:0:0:
232,106,115878,1,2,0:0:0:0:
418,45,116051,6,0,L|487:28,1,71.4999967269899,2|0,1:2|0:0,0:0:0:0:
315,199,116396,2,0,L|241:187,1,71.4999967269899,2|0,0:0|1:0,0:0:0:0:
392,243,116740,1,10,0:0:0:0:
329,22,116912,1,2,0:0:0:0:
244,187,117085,2,0,P|229:217|240:278,1,71.4999967269899,2|0,1:2|0:0,0:0:0:0:
372,355,117430,6,0,L|189:331,1,142.99999345398,2|0,1:2|0:0,0:0:0:0:
77,308,117947,2,0,L|178:291,1,71.4999967269899,0|0,1:0|0:0,0:0:0:0:
317,269,118292,1,0,0:0:0:0:
139,197,118465,2,0,L|38:180,1,71.4999967269899,10|0,1:2|0:0,0:0:0:0:
207,70,118809,6,0,P|288:75|314:148,1,142.99999345398,2|0,1:2|0:0,0:0:0:0:
226,247,119327,1,0,1:0:0:0:
116,115,119499,2,0,L|100:14,1,71.4999967269899,10|0,0:0|0:0,0:0:0:0:
235,177,119844,2,0,L|217:293,1,71.4999967269899,2|0,1:2|0:0,0:0:0:0:
152,358,120189,6,0,L|115:171,1,142.99999345398,0|2,1:0|0:0,0:0:0:0:
300,74,120706,1,0,1:0:0:0:
330,259,120878,1,0,0:0:0:0:
235,177,121051,1,0,0:0:0:0:
380,129,121223,2,0,P|436:134|488:186,1,107.249995090485,10|0,1:2|0:0,0:0:0:0:
478,181,121568,5,4,0:1:0:0:
