osu file format v14

[General]
AudioFilename: audio.mp3
AudioLeadIn: 0
PreviewTime: 52689
Countdown: 0
SampleSet: Soft
StackLeniency: 0.7
Mode: 0
LetterboxInBreaks: 0
EpilepsyWarning: 1
WidescreenStoryboard: 1

[Editor]
Bookmarks: 11223,33292,44327,55361,66051,66396,77430,88465,99499,102258,110189,110534,121568
DistanceSpacing: 0.8
BeatDivisor: 4
GridSize: 8
TimelineZoom: 1

[Metadata]
Title:On & On (feat. Daniel Levi) (Cut Ver.)
TitleUnicode:On & On (feat. Daniel Levi) (Cut Ver.)
Artist:Cartoon
ArtistUnicode:Cartoon
Creator:Sylas
Version:Hard
Source:
Tags:english and edm electronic ncs nocopyrightsounds pop mimari browiec jaybone -Ady Partyu thekoala storyboard
BeatmapID:2924731
BeatmapSetID:1400282

[Difficulty]
HPDrainRate:4
CircleSize:3.6
OverallDifficulty:7
ApproachRate:8
SliderMultiplier:2
SliderTickRate:1

[Events]
//Background and Video events
0,0,"bg.jpg",0,0
//Break Periods
2,52803,54611
2,83147,93232
2,99698,101508
//Storyboard Layer 0 (Background)
//Storyboard Layer 1 (Fail)
//Storyboard Layer 2 (Pass)
//Storyboard Layer 3 (Foreground)
Sprite,Foreground,Centre,"storyboard\circle.png",0,0 M,0,55361,55447,122,191,129.2761,161.8957 F,2,55361,56255,1,0 S,2,55361,56255,0.3,0.45 P,0,55361,56255,A M,0,55447,55533,129.2761,161.8957,156.8031,162.3785 M,0,55533,55619,156.8031,162.3785,186.5675,166.1304 M,0,55619,55705,186.5675,166.1304,216.332,169.8822
Sprite,Foreground,Centre,"storyboard\circle.png",310,187 F,2,55878,56428,1,0 S,2,55878,56428,0.3,0.45 P,0,55878,56428,A
Sprite,Foreground,Centre,"storyboard\circle.png",0,0 M,0,56051,56137,293,280,288.068,309.5918 F,2,56051,56773,1,0 S,2,56051,56773,0.3,0.45 P,0,56051,56773,A M,0,56137,56223,288.068,309.5918,283.136,339.1836
Sprite,Foreground,Centre,"storyboard\circle.png",199,264 F,2,56396,56946,1,0 S,2,56396,56946,0.3,0.45 P,0,56396,56946,A
Sprite,Foreground,Centre,"storyboard\circle.png",0,0 M,0,56740,56826,390,135,417.3904,123.2363 F,2,56740,57462,1,0 S,2,56740,57462,0.3,0.45 P,0,56740,57462,A M,0,56826,56912,417.3904,123.2363,447.0346,120.5112
Sprite,Foreground,Centre,"storyboard\circle.png",535,156 F,2,57085,57635,1,0 S,2,57085,57635,0.3,0.45 P,0,57085,57635,A
Sprite,Foreground,Centre,"storyboard\circle.png",0,0 M,0,57258,57344,439,208,427.2114,235.5639 F,2,57258,58152,1,0 S,2,57258,58152,0.3,0.45 P,0,57258,58152,A M,0,57344,57430,427.2114,235.5639,418.3431,264.197 M,0,57430,57516,418.3431,264.197,412.6039,293.6227 M,0,57516,57602,412.6039,293.6227,410.2206,323.5056
Sprite,Foreground,Centre,"storyboard\circle.png",0,0 M,0,57775,57861,464,395,493.6364,391.5458 F,2,57775,58497,1,0 S,2,57775,58497,0.3,0.45 P,0,57775,58497,A M,0,57861,57947,493.6364,391.5458,521,380
Sprite,Foreground,Centre,"storyboard\circle.png",0,0 M,0,58120,58206,335,370,305.132,372.8111 F,2,58120,59187,1,0 S,2,58120,59187,0.3,0.45 P,0,58120,59187,A M,0,58206,58292,305.132,372.8111,275.264,375.6222 M,0,58292,58378,275.264,375.6222,248.2826,382.2936 M,0,58378,58464,248.2826,382.2936,222.2798,390.5234 M,0,58464,58551,222.2798,390.5234,192.4482,393.697 M,0,58551,58637,192.4482,393.697,162.6165,396.8706
Sprite,Foreground,Centre,"storyboard\circle.png",0,0 M,0,58809,58895,95,320,91.85946,290.1649 F,2,58809,59531,1,0 S,2,58809,59531,0.3,0.45 P,0,58809,59531,A M,0,58895,58981,91.85946,290.1649,88.71892,260.3297
Sprite,Foreground,Centre,"storyboard\circle.png",83,170 F,2,59154,59704,1,0 S,2,59154,59704,0.3,0.45 P,0,59154,59704,A
Sprite,Foreground,Centre,"storyboard\circle.png",83,170 F,2,59327,59877,1,0 S,2,59327,59877,0.3,0.45 P,0,59327,59877,A
Sprite,Foreground,Centre,"storyboard\circle.png",0,0 M,0,59499,59585,187,192,183.4655,221.7911 F,2,59499,60221,1,0 S,2,59499,60221,0.3,0.45 P,0,59499,60221,A M,0,59585,59671,183.4655,221.7911,180,251
Sprite,Foreground,Centre,"storyboard\circle.png",236,322 F,2,59844,60394,1,0 S,2,59844,60394,0.3,0.45 P,0,59844,60394,A
Sprite,Foreground,Centre,"storyboard\circle.png",0,0 M,0,60016,60102,317,253,313.6626,223.1862 F,2,60016,60910,1,0 S,2,60016,60910,0.3,0.45 P,0,60016,60910,A M,0,60102,60188,313.6626,223.1862,310.3253,193.3724 M,0,60188,60274,310.3253,193.3724,306.9879,163.5586 M,0,60274,60360,306.9879,163.5586,303.6505,133.7448
Sprite,Foreground,Centre,"storyboard\circle.png",235,75 F,2,60534,61084,1,0 S,2,60534,61084,0.3,0.45 P,0,60534,61084,A
Sprite,Foreground,Centre,"storyboard\circle.png",0,0 M,0,60878,60964,409,208,438.3105,214.395 F,2,60878,61772,1,0 S,2,60878,61772,0.3,0.45 P,0,60878,61772,A M,0,60964,61050,438.3105,214.395,467.1624,218.0674 M,0,61050,61136,467.1624,218.0674,492.7608,202.4239 M,0,61136,61222,492.7608,202.4239,518,187
Sprite,Foreground,Centre,"storyboard\circle.png",559,97 F,2,61395,61945,1,0 S,2,61395,61945,0.3,0.45 P,0,61395,61945,A
Sprite,Foreground,Centre,"storyboard\circle.png",0,0 M,0,61568,61654,467,60,437.6547,56.72235 F,2,61568,62290,1,0 S,2,61568,62290,0.3,0.45 P,0,61568,62290,A M,0,61654,61740,437.6547,56.72235,410.2077,67.57235
Sprite,Foreground,Centre,"storyboard\circle.png",341,132 F,2,61913,62463,1,0 S,2,61913,62463,0.3,0.45 P,0,61913,62463,A
Sprite,Foreground,Centre,"storyboard\circle.png",0,0 M,0,62258,62344,487,307,486.0075,336.9736 F,2,62258,62980,1,0 S,2,62258,62980,0.3,0.45 P,0,62258,62980,A M,0,62344,62430,486.0075,336.9736,482.8043,366.7894
Sprite,Foreground,Centre,"storyboard\circle.png",402,417 F,2,62603,63153,1,0 S,2,62603,63153,0.3,0.45 P,0,62603,63153,A
Sprite,Foreground,Centre,"storyboard\circle.png",0,0 M,0,62775,62861,343,331,313.8204,324.0643 F,2,62775,63669,1,0 S,2,62775,63669,0.3,0.45 P,0,62775,63669,A M,0,62861,62947,313.8204,324.0643,284.2705,318.937 M,0,62947,63033,284.2705,318.937,254.4453,315.7832 M,0,63033,63119,254.4453,315.7832,224.4818,314.5167
Sprite,Foreground,Centre,"storyboard\circle.png",0,0 M,0,63292,63378,150,409,146.1122,379.2704 F,2,63292,64014,1,0 S,2,63292,64014,0.3,0.45 P,0,63292,64014,A M,0,63378,63464,146.1122,379.2704,144.9994,349.3069
Sprite,Foreground,Centre,"storyboard\circle.png",0,0 M,0,63637,63723,227,231,236.687,202.607 F,2,63637,64704,1,0 S,2,63637,64704,0.3,0.45 P,0,63637,64704,A M,0,63723,63809,236.687,202.607,246.374,174.214 M,0,63809,63895,246.374,174.214,255.9064,145.8357 M,0,63895,63981,255.9064,145.8357,241.0578,119.7681 M,0,63981,64068,241.0578,119.7681,226.2092,93.70055 M,0,64068,64154,226.2092,93.70055,211.3605,67.63297
Sprite,Foreground,Centre,"storyboard\circle.png",0,0 M,0,64326,64412,124,109,127.0352,138.8461 F,2,64326,65048,1,0 S,2,64326,65048,0.3,0.45 P,0,64326,65048,A M,0,64412,64498,127.0352,138.8461,130,168
Sprite,Foreground,Centre,"storyboard\circle.png",92,253 F,2,64671,65221,1,0 S,2,64671,65221,0.3,0.45 P,0,64671,65221,A
Sprite,Foreground,Centre,"storyboard\circle.png",92,253 F,2,64844,65394,1,0 S,2,64844,65394,0.3,0.45 P,0,64844,65394,A
Sprite,Foreground,Centre,"storyboard\circle.png",0,0 M,0,65016,65102,161,324,188.4917,335.4699 F,2,65016,65910,1,0 S,2,65016,65910,0.3,0.45 P,0,65016,65910,A M,0,65102,65188,188.4917,335.4699,218.1848,337.4671 M,0,65188,65274,218.1848,337.4671,188.4917,335.4699 M,0,65274,65360,188.4917,335.4699,161,324
Sprite,Foreground,Centre,"storyboard\circle.png",0,0 M,0,65534,65620,253,251,281.9677,243.2747 F,2,65534,66428,1,0 S,2,65534,66428,0.3,0.45 P,0,65534,66428,A M,0,65620,65706,281.9677,243.2747,311.5625,238.5044 M,0,65706,65792,311.5625,238.5044,341.4999,236.8531 M,0,65792,65878,341.4999,236.8531,371.433,238.5256
Sprite,Foreground,Centre,"storyboard\circle.png",451,277 F,2,66051,66601,1,0 S,2,66051,66601,0.3,0.45 P,0,66051,66601,A
Sprite,Foreground,Centre,"storyboard\circle.png",0,0 M,0,66396,66482,451,277,453.5767,247.1109 F,2,66396,67290,1,0 S,2,66396,67290,0.3,0.45 P,0,66396,67290,A M,0,66482,66568,453.5767,247.1109,457.3938,217.885 M,0,66568,66654,457.3938,217.885,462.9902,189.6964 M,0,66654,66740,462.9902,189.6964,465.3425,159.7888
Sprite,Foreground,Centre,"storyboard\circle.png",525,86 F,2,66913,67463,1,0 S,2,66913,67463,0.3,0.45 P,0,66913,67463,A
Sprite,Foreground,Centre,"storyboard\circle.png",0,0 M,0,67086,67172,559,175,556.6991,204.9116 F,2,67086,67808,1,0 S,2,67086,67808,0.3,0.45 P,0,67086,67808,A M,0,67172,67258,556.6991,204.9116,554.3982,234.8233
Sprite,Foreground,Centre,"storyboard\circle.png",541,327 F,2,67431,67981,1,0 S,2,67431,67981,0.3,0.45 P,0,67431,67981,A
Sprite,Foreground,Centre,"storyboard\circle.png",0,0 M,0,67775,67861,355,163,327.6096,151.2363 F,2,67775,68497,1,0 S,2,67775,68497,0.3,0.45 P,0,67775,68497,A M,0,67861,67947,327.6096,151.2363,297.9654,148.5112
Sprite,Foreground,Centre,"storyboard\circle.png",218,192 F,2,68120,68670,1,0 S,2,68120,68670,0.3,0.45 P,0,68120,68670,A
Sprite,Foreground,Centre,"storyboard\circle.png",0,0 M,0,68292,68378,287,273,315.3745,282.2191 F,2,68292,69186,1,0 S,2,68292,69186,0.3,0.45 P,0,68292,69186,A M,0,68378,68464,315.3745,282.2191,345.1768,282.9321 M,0,68464,68550,345.1768,282.9321,373.7462,274.414 M,0,68550,68636,373.7462,274.414,398.691,258.0691
Sprite,Foreground,Centre,"storyboard\circle.png",0,0 M,0,68810,68896,442,170,438.5458,140.3636 F,2,68810,69532,1,0 S,2,68810,69532,0.3,0.45 P,0,68810,69532,A M,0,68896,68982,438.5458,140.3636,427,113
Sprite,Foreground,Centre,"storyboard\circle.png",0,0 M,0,69154,69240,317,76,287.2682,71.99764 F,2,69154,70221,1,0 S,2,69154,70221,0.3,0.45 P,0,69154,70221,A M,0,69240,69326,287.2682,71.99764,263.9142,76.45228 M,0,69326,69412,263.9142,76.45228,259.5891,106.1389 M,0,69412,69498,259.5891,106.1389,255.2638,135.8254 M,0,69498,69585,255.2638,135.8254,250.9386,165.512 M,0,69585,69671,250.9386,165.512,246.6134,195.1986
Sprite,Foreground,Centre,"storyboard\circle.png",0,0 M,0,69844,69930,180,294,175.4383,264.3488 F,2,69844,70566,1,0 S,2,69844,70566,0.3,0.45 P,0,69844,70566,A M,0,69930,70016,175.4383,264.3488,170.8766,234.6977
Sprite,Foreground,Centre,"storyboard\circle.png",149,151 F,2,70189,70739,1,0 S,2,70189,70739,0.3,0.45 P,0,70189,70739,A
Sprite,Foreground,Centre,"storyboard\circle.png",149,151 F,2,70362,70912,1,0 S,2,70362,70912,0.3,0.45 P,0,70362,70912,A
Sprite,Foreground,Centre,"storyboard\circle.png",0,0 M,0,70534,70620,82,222,75.33113,250.99 F,2,70534,71256,1,0 S,2,70534,71256,0.3,0.45 P,0,70534,71256,A M,0,70620,70706,75.33113,250.99,79.74042,280.4125
Sprite,Foreground,Centre,"storyboard\circle.png",113,362 F,2,70878,71428,1,0 S,2,70878,71428,0.3,0.45 P,0,70878,71428,A
Sprite,Foreground,Centre,"storyboard\circle.png",0,0 M,0,71051,71137,202,304,231.8138,307.3374 F,2,71051,71945,1,0 S,2,71051,71945,0.3,0.45 P,0,71051,71945,A M,0,71137,71223,231.8138,307.3374,261.6276,310.6747 M,0,71223,71309,261.6276,310.6747,291.4413,314.0121 M,0,71309,71395,291.4413,314.0121,321.2552,317.3495
Sprite,Foreground,Centre,"storyboard\circle.png",409,332 F,2,71569,72119,1,0 S,2,71569,72119,0.3,0.45 P,0,71569,72119,A
Sprite,Foreground,Centre,"storyboard\circle.png",0,0 M,0,71913,71999,538,129,509.9291,118.4159 F,2,71913,72807,1,0 S,2,71913,72807,0.3,0.45 P,0,71913,72807,A M,0,71999,72085,509.9291,118.4159,481.8582,107.8318 M,0,72085,72171,481.8582,107.8318,453.8456,114.9055 M,0,72171,72257,453.8456,114.9055,425.8452,125.6749
Sprite,Foreground,Centre,"storyboard\circle.png",351,180 F,2,72430,72980,1,0 S,2,72430,72980,0.3,0.45 P,0,72430,72980,A
Sprite,Foreground,Centre,"storyboard\circle.png",0,0 M,0,72603,72689,418,252,447.6512,247.4383 F,2,72603,73325,1,0 S,2,72603,73325,0.3,0.45 P,0,72603,73325,A M,0,72689,72775,447.6512,247.4383,477.3023,242.8766
Sprite,Foreground,Centre,"storyboard\circle.png",568,225 F,2,72948,73498,1,0 S,2,72948,73498,0.3,0.45 P,0,72948,73498,A
Sprite,Foreground,Centre,"storyboard\circle.png",0,0 M,0,73292,73378,472,389,442.3488,384.4383 F,2,73292,74014,1,0 S,2,73292,74014,0.3,0.45 P,0,73292,74014,A M,0,73378,73464,442.3488,384.4383,412.6977,379.8766
Sprite,Foreground,Centre,"storyboard\circle.png",334,349 F,2,73638,74188,1,0 S,2,73638,74188,0.3,0.45 P,0,73638,74188,A
Sprite,Foreground,Centre,"storyboard\circle.png",0,0 M,0,73809,73895,251,421,239.1556,393.4462 F,2,73809,74703,1,0 S,2,73809,74703,0.3,0.45 P,0,73809,74703,A M,0,73895,73981,239.1556,393.4462,229.1219,365.1838 M,0,73981,74067,229.1219,365.1838,221.1017,336.2855 M,0,74067,74153,221.1017,336.2855,215.0131,306.9208
Sprite,Foreground,Centre,"storyboard\circle.png",0,0 M,0,74327,74413,182,165,175.1353,194.1509 F,2,74327,75049,1,0 S,2,74327,75049,0.3,0.45 P,0,74327,75049,A M,0,74413,74499,175.1353,194.1509,173,224
Sprite,Foreground,Centre,"storyboard\circle.png",0,0 M,0,74671,74757,312,225,341.8165,221.6871 F,2,74671,75738,1,0 S,2,74671,75738,0.3,0.45 P,0,74671,75738,A M,0,74757,74843,341.8165,221.6871,371.633,218.3741 M,0,74843,74929,371.633,218.3741,400.8935,219.1574 M,0,74929,75015,400.8935,219.1574,430.2094,219.5323 M,0,75015,75102,430.2094,219.5323,460.0259,216.2193 M,0,75102,75188,460.0259,216.2193,489.8424,212.9064
Sprite,Foreground,Centre,"storyboard\circle.png",0,0 M,0,75361,75447,551,285,554.873,314.6955 F,2,75361,76083,1,0 S,2,75361,76083,0.3,0.45 P,0,75361,76083,A M,0,75447,75533,554.873,314.6955,554,344
Sprite,Foreground,Centre,"storyboard\circle.png",497,417 F,2,75706,76256,1,0 S,2,75706,76256,0.3,0.45 P,0,75706,76256,A
Sprite,Foreground,Centre,"storyboard\circle.png",497,417 F,2,75879,76429,1,0 S,2,75879,76429,0.3,0.45 P,0,75879,76429,A
Sprite,Foreground,Centre,"storyboard\circle.png",0,0 M,0,76051,76137,431,323,430.1461,293.0605 F,2,76051,76773,1,0 S,2,76051,76773,0.3,0.45 P,0,76051,76773,A M,0,76137,76223,430.1461,293.0605,433.9329,263.3448
Sprite,Foreground,Centre,"storyboard\circle.png",0,0 M,0,76396,76482,483,186,482.8824,156.0312 F,2,76396,77118,1,0 S,2,76396,77118,0.3,0.45 P,0,76396,77118,A M,0,76482,76568,482.8824,156.0312,479.0555,126.3046
Sprite,Foreground,Centre,"storyboard\circle.png",408,70 F,2,76740,77290,1,0 S,2,76740,77290,0.3,0.45 P,0,76740,77290,A
Sprite,Foreground,Centre,"storyboard\circle.png",356,146 F,2,76913,77463,1,0 S,2,76913,77463,0.3,0.45 P,0,76913,77463,A
Sprite,Foreground,Centre,"storyboard\circle.png",0,0 M,0,77085,77171,269,116,239.0884,118.3009 F,2,77085,77807,1,0 S,2,77085,77807,0.3,0.45 P,0,77085,77807,A M,0,77171,77257,239.0884,118.3009,209.1767,120.6018
Sprite,Foreground,Centre,"storyboard\line.png",0,0 M,0,102258,102602,243,114,234.8475,233.1693 F,2,102258,103152,0.25,0 S,2,102258,103152,4 P,0,102258,103152,A
Sprite,Foreground,Centre,"storyboard\line.png",163,293 F,2,102775,103325,0.25,0 S,2,102775,103325,4 P,0,102775,103325,A
Sprite,Foreground,Centre,"storyboard\line.png",0,0 M,0,102947,103119,204,370,263.7486,364.5129 F,2,102947,103669,0.25,0 S,2,102947,103669,4 P,0,102947,103669,A
Sprite,Foreground,Centre,"storyboard\line.png",0,0 M,0,103292,103464,338,304,397,309 F,2,103292,104014,0.25,0 S,2,103292,104014,4 P,0,103292,104014,A
Sprite,Foreground,Centre,"storyboard\line.png",0,0 M,0,103637,103981,511,271,502.8475,151.8307 F,2,103637,104531,0.25,0 S,2,103637,104531,4 P,0,103637,104531,A
Sprite,Foreground,Centre,"storyboard\line.png",0,0 M,0,104154,104498,418,88,363.5804,175.1199 F,2,104154,105048,0.25,0 S,2,104154,105048,4 P,0,104154,105048,A
Sprite,Foreground,Centre,"storyboard\line.png",417,256 F,2,104671,105221,0.25,0 S,2,104671,105221,4 P,0,104671,105221,A
Sprite,Foreground,Centre,"storyboard\line.png",417,256 F,2,104844,105394,0.25,0 S,2,104844,105394,4 P,0,104844,105394,A
Sprite,Foreground,Centre,"storyboard\line.png",0,0 M,0,105016,105188,511,271,570,265 F,2,105016,105738,0.25,0 S,2,105016,105738,4 P,0,105016,105738,A
Sprite,Foreground,Centre,"storyboard\line.png",0,0 M,0,105361,105533,468,355,408.2978,349.0298 F,2,105361,106083,0.25,0 S,2,105361,106083,4 P,0,105361,106083,A
Sprite,Foreground,Centre,"storyboard\line.png",322,299 F,2,105706,106256,0.25,0 S,2,105706,106256,4 P,0,105706,106256,A
Sprite,Foreground,Centre,"storyboard\line.png",322,299 F,2,105878,106428,0.25,0 S,2,105878,106428,4 P,0,105878,106428,A
Sprite,Foreground,Centre,"storyboard\line.png",0,0 M,0,106051,106223,237,336,251.546,391.313 F,2,106051,106773,0.25,0 S,2,106051,106773,4 P,0,106051,106773,A
Sprite,Foreground,Centre,"storyboard\line.png",0,0 M,0,106396,106740,271,220,254.6029,101.386 F,2,106396,107290,0.25,0 S,2,106396,107290,4 P,0,106396,107290,A
Sprite,Foreground,Centre,"storyboard\line.png",0,0 M,0,106913,107257,162,151,145,269 F,2,106913,107807,0.25,0 S,2,106913,107807,4 P,0,106913,107807,A
Sprite,Foreground,Centre,"storyboard\line.png",147,364 F,2,107430,107980,0.25,0 S,2,107430,107980,4 P,0,107430,107980,A
Sprite,Foreground,Centre,"storyboard\line.png",237,336 F,2,107603,108153,0.25,0 S,2,107603,108153,4 P,0,107603,108153,A
Sprite,Foreground,Centre,"storyboard\line.png",0,0 M,0,107775,107947,317,391,375.6331,400.56 F,2,107775,108497,0.25,0 S,2,107775,108497,4 P,0,107775,108497,A
Sprite,Foreground,Centre,"storyboard\line.png",0,0 M,0,108120,108292,464,348,454.0847,289.2382 F,2,108120,108842,0.25,0 S,2,108120,108842,4 P,0,108120,108842,A
Sprite,Foreground,Centre,"storyboard\line.png",403,203 F,2,108465,109015,0.25,0 S,2,108465,109015,4 P,0,108465,109015,A
Sprite,Foreground,Centre,"storyboard\line.png",403,203 F,2,108637,109187,0.25,0 S,2,108637,109187,4 P,0,108637,109187,A
Sprite,Foreground,Centre,"storyboard\line.png",0,0 M,0,108809,108981,314,243,304,301 F,2,108809,109531,0.25,0 S,2,108809,109531,4 P,0,108809,109531,A
Sprite,Foreground,Centre,"storyboard\line.png",0,0 M,0,109154,109498,317,391,436.5489,380.6044 F,2,109154,110048,0.25,0 S,2,109154,110048,4 P,0,109154,110048,A
Sprite,Foreground,Centre,"storyboard\line.png",0,0 M,0,109671,110015,537,351,546.9655,231.4145 F,2,109671,110565,0.25,0 S,2,109671,110565,4 P,0,109671,110565,A
Sprite,Foreground,Centre,"storyboard\line.png",558,139 F,2,110189,110739,0.25,0 S,2,110189,110739,4 P,0,110189,110739,A
Sprite,Foreground,Centre,"storyboard\line.png",0,0 M,0,110534,110706,328,83,271.8558,99.72244 F,2,110534,111256,0.25,0 S,2,110534,111256,4 P,0,110534,111256,A
Sprite,Foreground,Centre,"storyboard\line.png",0,0 M,0,110878,111050,226,185,169.4095,168.2572 F,2,110878,111600,0.25,0 S,2,110878,111600,4 P,0,110878,111600,A
Sprite,Foreground,Centre,"storyboard\line.png",0,0 M,0,111223,111395,71,153,84.24083,211.4159 F,2,111223,111945,0.25,0 S,2,111223,111945,4 P,0,111223,111945,A
Sprite,Foreground,Centre,"storyboard\line.png",101,306 F,2,111568,112118,0.25,0 S,2,111568,112118,4 P,0,111568,112118,A
Sprite,Foreground,Centre,"storyboard\line.png",101,306 F,2,111740,112290,0.25,0 S,2,111740,112290,4 P,0,111740,112290,A
Sprite,Foreground,Centre,"storyboard\line.png",0,0 M,0,111913,112257,192,277,280.6805,324.3755 F,2,111913,112807,0.25,0 S,2,111913,112807,4 P,0,111913,112807,A
Sprite,Foreground,Centre,"storyboard\line.png",326,409 F,2,112430,112980,0.25,0 S,2,112430,112980,4 P,0,112430,112980,A
Sprite,Foreground,Centre,"storyboard\line.png",0,0 M,0,112603,112947,422,385,430.928,265.4692 F,2,112603,113497,0.25,0 S,2,112603,113497,4 P,0,112603,113497,A
Sprite,Foreground,Centre,"storyboard\line.png",459,182 F,2,113120,113670,0.25,0 S,2,113120,113670,4 P,0,113120,113670,A
Sprite,Foreground,Centre,"storyboard\line.png",0,0 M,0,113292,113636,381,102,262.2911,119.5555 F,2,113292,114186,0.25,0 S,2,113292,114186,4 P,0,113292,114186,A
Sprite,Foreground,Centre,"storyboard\line.png",173,92 F,2,113809,114359,0.25,0 S,2,113809,114359,4 P,0,113809,114359,A
Sprite,Foreground,Centre,"storyboard\line.png",0,0 M,0,113982,114154,111,158,122.4882,216.1402 F,2,113982,114704,0.25,0 S,2,113982,114704,4 P,0,113982,114704,A
Sprite,Foreground,Centre,"storyboard\line.png",0,0 M,0,114327,114499,209,250,197.5118,308.1403 F,2,114327,115049,0.25,0 S,2,114327,115049,4 P,0,114327,115049,A
Sprite,Foreground,Centre,"storyboard\line.png",0,0 M,0,114671,115015,170,405,285.9798,376.2057 F,2,114671,115565,0.25,0 S,2,114671,115565,4 P,0,114671,115565,A
Sprite,Foreground,Centre,"storyboard\line.png",0,0 M,0,115189,115533,374,416,414.6915,318.3841 F,2,115189,116083,0.25,0 S,2,115189,116083,4 P,0,115189,116083,A
Sprite,Foreground,Centre,"storyboard\line.png",349,254 F,2,115705,116255,0.25,0 S,2,115705,116255,4 P,0,115705,116255,A
Sprite,Foreground,Centre,"storyboard\line.png",349,254 F,2,115878,116428,0.25,0 S,2,115878,116428,4 P,0,115878,116428,A
Sprite,Foreground,Centre,"storyboard\line.png",0,0 M,0,116050,116222,437,216,496,210 F,2,116050,116772,0.25,0 S,2,116050,116772,4 P,0,116050,116772,A
Sprite,Foreground,Centre,"storyboard\line.png",0,0 M,0,116396,116568,556,127,496.2978,121.0298 F,2,116396,117118,0.25,0 S,2,116396,117118,4 P,0,116396,117118,A
Sprite,Foreground,Centre,"storyboard\line.png",413,77 F,2,116740,117290,0.25,0 S,2,116740,117290,4 P,0,116740,117290,A
Sprite,Foreground,Centre,"storyboard\line.png",413,77 F,2,116912,117462,0.25,0 S,2,116912,117462,4 P,0,116912,117462,A
Sprite,Foreground,Centre,"storyboard\line.png",0,0 M,0,117085,117257,358,151,298.2978,156.9702 F,2,117085,117807,0.25,0 S,2,117085,117807,4 P,0,117085,117807,A
Sprite,Foreground,Centre,"storyboard\line.png",0,0 M,0,117430,117774,214,102,96,85 F,2,117430,118324,0.25,0 S,2,117430,118324,4 P,0,117430,118324,A
Sprite,Foreground,Centre,"storyboard\line.png",0,0 M,0,117947,118291,70,183,188,201 F,2,117947,118841,0.25,0 S,2,117947,118841,4 P,0,117947,118841,A
Sprite,Foreground,Centre,"storyboard\line.png",280,175 F,2,118464,119014,0.25,0 S,2,118464,119014,4 P,0,118464,119014,A
Sprite,Foreground,Centre,"storyboard\line.png",254,261 F,2,118637,119187,0.25,0 S,2,118637,119187,4 P,0,118637,119187,A
Sprite,Foreground,Centre,"storyboard\line.png",0,0 M,0,118809,118981,299,341,357.6331,350.56 F,2,118809,119531,0.25,0 S,2,118809,119531,4 P,0,118809,119531,A
Sprite,Foreground,Centre,"storyboard\line.png",0,0 M,0,119154,119326,447,322,442.3982,262.1767 F,2,119154,119876,0.25,0 S,2,119154,119876,4 P,0,119154,119876,A
Sprite,Foreground,Centre,"storyboard\line.png",432,172 F,2,119499,120049,0.25,0 S,2,119499,120049,4 P,0,119499,120049,A
Sprite,Foreground,Centre,"storyboard\line.png",432,172 F,2,119671,120221,0.25,0 S,2,119671,120221,4 P,0,119671,120221,A
Sprite,Foreground,Centre,"storyboard\line.png",0,0 M,0,119844,120016,516,203,575,207 F,2,119844,120566,0.25,0 S,2,119844,120566,4 P,0,119844,120566,A
Sprite,Foreground,Centre,"storyboard\line.png",0,0 M,0,120189,120533,481,95,371.6783,101.6555 F,2,120189,121083,0.25,0 S,2,120189,121083,4 P,0,120189,121083,A
Sprite,Foreground,Centre,"storyboard\line.png",324,178 F,2,120706,121256,0.25,0 S,2,120706,121256,4 P,0,120706,121256,A
Sprite,Foreground,Centre,"storyboard\line.png",0,0 M,0,120878,121050,323,269,327,328 F,2,120878,121600,0.25,0 S,2,120878,121600,4 P,0,120878,121600,A
Sprite,Foreground,Centre,"storyboard\line.png",267,404 F,2,121223,121773,0.25,0 S,2,121223,121773,4 P,0,121223,121773,A
Sprite,Foreground,Centre,"storyboard\line.png",213,329 F,2,121396,121946,0.25,0 S,2,121396,121946,4 P,0,121396,121946,A
Sprite,Foreground,Centre,"storyboard\circle.png",0,0 M,0,102258,102344,243,114,244.5941,143.9454 F,2,102258,103152,1,0 S,2,102258,103152,0.3,0.45 P,0,102258,103152,A M,0,102344,102430,244.5941,143.9454,243.847,173.9234 M,0,102430,102516,243.847,173.9234,240.5191,203.7249 M,0,102516,102602,240.5191,203.7249,234.8475,233.1693
Sprite,Foreground,Centre,"storyboard\circle.png",163,293 F,2,102775,103325,1,0 S,2,102775,103325,0.3,0.45 P,0,102775,103325,A
Sprite,Foreground,Centre,"storyboard\circle.png",0,0 M,0,102947,103033,204,370,233.8743,367.2564 F,2,102947,103669,1,0 S,2,102947,103669,0.3,0.45 P,0,102947,103669,A M,0,103033,103119,233.8743,367.2564,263.7486,364.5129
Sprite,Foreground,Centre,"storyboard\circle.png",0,0 M,0,103292,103378,338,304,367.8929,306.5333 F,2,103292,104014,1,0 S,2,103292,104014,0.3,0.45 P,0,103292,104014,A M,0,103378,103464,367.8929,306.5333,397,309
Sprite,Foreground,Centre,"storyboard\circle.png",0,0 M,0,103637,103723,511,271,512.5941,241.0546 F,2,103637,104531,1,0 S,2,103637,104531,0.3,0.45 P,0,103637,104531,A M,0,103723,103809,512.5941,241.0546,511.847,211.0766 M,0,103809,103895,511.847,211.0766,508.5191,181.2751 M,0,103895,103981,508.5191,181.2751,502.8475,151.8307
Sprite,Foreground,Centre,"storyboard\circle.png",0,0 M,0,104154,104240,418,88,389.8987,97.32188 F,2,104154,105048,1,0 S,2,104154,105048,0.3,0.45 P,0,104154,105048,A M,0,104240,104326,389.8987,97.32188,368.6674,117.869 M,0,104326,104412,368.6674,117.869,358.8961,145.8867 M,0,104412,104498,358.8961,145.8867,363.5804,175.1199
Sprite,Foreground,Centre,"storyboard\circle.png",417,256 F,2,104671,105221,1,0 S,2,104671,105221,0.3,0.45 P,0,104671,105221,A
Sprite,Foreground,Centre,"storyboard\circle.png",417,256 F,2,104844,105394,1,0 S,2,104844,105394,0.3,0.45 P,0,104844,105394,A
Sprite,Foreground,Centre,"storyboard\circle.png",0,0 M,0,105016,105102,511,271,540.8461,267.9648 F,2,105016,105738,1,0 S,2,105016,105738,0.3,0.45 P,0,105016,105738,A M,0,105102,105188,540.8461,267.9648,570,265
Sprite,Foreground,Centre,"storyboard\circle.png",0,0 M,0,105361,105447,468,355,438.1489,352.0149 F,2,105361,106083,1,0 S,2,105361,106083,0.3,0.45 P,0,105361,106083,A M,0,105447,105533,438.1489,352.0149,408.2978,349.0298
Sprite,Foreground,Centre,"storyboard\circle.png",322,299 F,2,105706,106256,1,0 S,2,105706,106256,0.3,0.45 P,0,105706,106256,A
Sprite,Foreground,Centre,"storyboard\circle.png",322,299 F,2,105878,106428,1,0 S,2,105878,106428,0.3,0.45 P,0,105878,106428,A
Sprite,Foreground,Centre,"storyboard\circle.png",0,0 M,0,106051,106137,237,336,237.2924,365.5567 F,2,106051,106773,1,0 S,2,106051,106773,0.3,0.45 P,0,106051,106773,A M,0,106137,106223,237.2924,365.5567,251.546,391.313
Sprite,Foreground,Centre,"storyboard\circle.png",0,0 M,0,106396,106482,271,220,269.3761,190.0497 F,2,106396,107290,1,0 S,2,106396,107290,0.3,0.45 P,0,106396,107290,A M,0,106482,106568,269.3761,190.0497,266.135,160.232 M,0,106568,106654,266.135,160.232,261.2239,130.6417 M,0,106654,106740,261.2239,130.6417,254.6029,101.386
Sprite,Foreground,Centre,"storyboard\circle.png",0,0 M,0,106913,106999,162,151,155.1114,180.1917 F,2,106913,107807,1,0 S,2,106913,107807,0.3,0.45 P,0,106913,107807,A M,0,106999,107085,155.1114,180.1917,149.899,209.7292 M,0,107085,107171,149.899,209.7292,146.5933,239.5397 M,0,107171,107257,146.5933,239.5397,145,269
Sprite,Foreground,Centre,"storyboard\circle.png",147,364 F,2,107430,107980,1,0 S,2,107430,107980,0.3,0.45 P,0,107430,107980,A
Sprite,Foreground,Centre,"storyboard\circle.png",237,336 F,2,107603,108153,1,0 S,2,107603,108153,0.3,0.45 P,0,107603,108153,A
Sprite,Foreground,Centre,"storyboard\circle.png",0,0 M,0,107775,107861,317,391,345.7806,399.1025 F,2,107775,108497,1,0 S,2,107775,108497,0.3,0.45 P,0,107775,108497,A M,0,107861,107947,345.7806,399.1025,375.6331,400.56
Sprite,Foreground,Centre,"storyboard\circle.png",0,0 M,0,108120,108206,464,348,461.8398,318.1504 F,2,108120,108842,1,0 S,2,108120,108842,0.3,0.45 P,0,108120,108842,A M,0,108206,108292,461.8398,318.1504,454.0847,289.2382
Sprite,Foreground,Centre,"storyboard\circle.png",403,203 F,2,108465,109015,1,0 S,2,108465,109015,0.3,0.45 P,0,108465,109015,A
Sprite,Foreground,Centre,"storyboard\circle.png",403,203 F,2,108637,109187,1,0 S,2,108637,109187,0.3,0.45 P,0,108637,109187,A
Sprite,Foreground,Centre,"storyboard\circle.png",0,0 M,0,108809,108895,314,243,306.0592,271.8449 F,2,108809,109531,1,0 S,2,108809,109531,0.3,0.45 P,0,108809,109531,A M,0,108895,108981,306.0592,271.8449,304,301
Sprite,Foreground,Centre,"storyboard\circle.png",0,0 M,0,109154,109240,317,391,346.8872,388.4011 F,2,109154,110048,1,0 S,2,109154,110048,0.3,0.45 P,0,109154,110048,A M,0,109240,109326,346.8872,388.4011,376.7744,385.8022 M,0,109326,109412,376.7744,385.8022,406.6617,383.2033 M,0,109412,109498,406.6617,383.2033,436.5489,380.6044
Sprite,Foreground,Centre,"storyboard\circle.png",0,0 M,0,109671,109757,537,351,539.4913,321.1036 F,2,109671,110565,1,0 S,2,109671,110565,0.3,0.45 P,0,109671,110565,A M,0,109757,109843,539.4913,321.1036,541.9827,291.2073 M,0,109843,109929,541.9827,291.2073,544.4741,261.3109 M,0,109929,110015,544.4741,261.3109,546.9655,231.4145
Sprite,Foreground,Centre,"storyboard\circle.png",558,139 F,2,110189,110739,1,0 S,2,110189,110739,0.3,0.45 P,0,110189,110739,A
Sprite,Foreground,Centre,"storyboard\circle.png",0,0 M,0,110534,110620,328,83,298.4178,86.39852 F,2,110534,111256,1,0 S,2,110534,111256,0.3,0.45 P,0,110534,111256,A M,0,110620,110706,298.4178,86.39852,271.8558,99.72244
Sprite,Foreground,Centre,"storyboard\circle.png",0,0 M,0,110878,110964,226,185,196.4651,180.8451 F,2,110878,111600,1,0 S,2,110878,111600,0.3,0.45 P,0,110878,111600,A M,0,110964,111050,196.4651,180.8451,169.4095,168.2572
Sprite,Foreground,Centre,"storyboard\circle.png",0,0 M,0,111223,111309,71,153,78.99885,181.8953 F,2,111223,111945,1,0 S,2,111223,111945,0.3,0.45 P,0,111223,111945,A M,0,111309,111395,78.99885,181.8953,84.24083,211.4159
Sprite,Foreground,Centre,"storyboard\circle.png",101,306 F,2,111568,112118,1,0 S,2,111568,112118,0.3,0.45 P,0,111568,112118,A
Sprite,Foreground,Centre,"storyboard\circle.png",101,306 F,2,111740,112290,1,0 S,2,111740,112290,0.3,0.45 P,0,111740,112290,A
Sprite,Foreground,Centre,"storyboard\circle.png",0,0 M,0,111913,111999,192,277,220.6499,269.7541 F,2,111913,112807,1,0 S,2,111913,112807,0.3,0.45 P,0,111913,112807,A M,0,111999,112085,220.6499,269.7541,249.4008,276.4431 M,0,112085,112171,249.4008,276.4431,270.9699,296.5742 M,0,112171,112257,270.9699,296.5742,280.6805,324.3755
Sprite,Foreground,Centre,"storyboard\circle.png",326,409 F,2,112430,112980,1,0 S,2,112430,112980,0.3,0.45 P,0,112430,112980,A
Sprite,Foreground,Centre,"storyboard\circle.png",0,0 M,0,112603,112689,422,385,422.421,355.006 F,2,112603,113497,1,0 S,2,112603,113497,0.3,0.45 P,0,112603,113497,A M,0,112689,112775,422.421,355.006,424.028,325.0527 M,0,112775,112861,424.028,325.0527,426.8627,295.1901 M,0,112861,112947,426.8627,295.1901,430.928,265.4692
Sprite,Foreground,Centre,"storyboard\circle.png",459,182 F,2,113120,113670,1,0 S,2,113120,113670,0.3,0.45 P,0,113120,113670,A
Sprite,Foreground,Centre,"storyboard\circle.png",0,0 M,0,113292,113378,381,102,351.3228,106.3889 F,2,113292,114186,1,0 S,2,113292,114186,0.3,0.45 P,0,113292,114186,A M,0,113378,113464,351.3228,106.3889,321.6455,110.7778 M,0,113464,113550,321.6455,110.7778,291.9683,115.1667 M,0,113550,113636,291.9683,115.1667,262.2911,119.5555
Sprite,Foreground,Centre,"storyboard\circle.png",173,92 F,2,113809,114359,1,0 S,2,113809,114359,0.3,0.45 P,0,113809,114359,A
Sprite,Foreground,Centre,"storyboard\circle.png",0,0 M,0,113982,114068,111,158,113.0802,187.8042 F,2,113982,114704,1,0 S,2,113982,114704,0.3,0.45 P,0,113982,114704,A M,0,114068,114154,113.0802,187.8042,122.4882,216.1402
Sprite,Foreground,Centre,"storyboard\circle.png",0,0 M,0,114327,114413,209,250,206.9198,279.8042 F,2,114327,115049,1,0 S,2,114327,115049,0.3,0.45 P,0,114327,115049,A M,0,114413,114499,206.9198,279.8042,197.5118,308.1403
Sprite,Foreground,Centre,"storyboard\circle.png",0,0 M,0,114671,114757,170,405,198.0831,394.479 F,2,114671,115565,1,0 S,2,114671,115565,0.3,0.45 P,0,114671,115565,A M,0,114757,114843,198.0831,394.479,226.8713,386.0853 M,0,114843,114929,226.8713,386.0853,256.2257,379.9472 M,0,114929,115015,256.2257,379.9472,285.9798,376.2057
Sprite,Foreground,Centre,"storyboard\circle.png",0,0 M,0,115189,115275,374,416,399.3308,400.5406 F,2,115189,116083,1,0 S,2,115189,116083,0.3,0.45 P,0,115189,116083,A M,0,115275,115361,399.3308,400.5406,416.5313,376.3771 M,0,115361,115447,416.5313,376.3771,421.6316,347.1735 M,0,115447,115533,421.6316,347.1735,414.6915,318.3841
Sprite,Foreground,Centre,"storyboard\circle.png",349,254 F,2,115705,116255,1,0 S,2,115705,116255,0.3,0.45 P,0,115705,116255,A
Sprite,Foreground,Centre,"storyboard\circle.png",349,254 F,2,115878,116428,1,0 S,2,115878,116428,0.3,0.45 P,0,115878,116428,A
Sprite,Foreground,Centre,"storyboard\circle.png",0,0 M,0,116050,116136,437,216,466.8461,212.9648 F,2,116050,116772,1,0 S,2,116050,116772,0.3,0.45 P,0,116050,116772,A M,0,116136,116222,466.8461,212.9648,496,210
Sprite,Foreground,Centre,"storyboard\circle.png",0,0 M,0,116396,116482,556,127,526.1489,124.0149 F,2,116396,117118,1,0 S,2,116396,117118,0.3,0.45 P,0,116396,117118,A M,0,116482,116568,526.1489,124.0149,496.2978,121.0298
Sprite,Foreground,Centre,"storyboard\circle.png",413,77 F,2,116740,117290,1,0 S,2,116740,117290,0.3,0.45 P,0,116740,117290,A
Sprite,Foreground,Centre,"storyboard\circle.png",413,77 F,2,116912,117462,1,0 S,2,116912,117462,0.3,0.45 P,0,116912,117462,A
Sprite,Foreground,Centre,"storyboard\circle.png",0,0 M,0,117085,117171,358,151,328.1489,153.9851 F,2,117085,117807,1,0 S,2,117085,117807,0.3,0.45 P,0,117085,117807,A M,0,117171,117257,328.1489,153.9851,298.2978,156.9702
Sprite,Foreground,Centre,"storyboard\circle.png",0,0 M,0,117430,117516,214,102,184.8083,95.11136 F,2,117430,118324,1,0 S,2,117430,118324,0.3,0.45 P,0,117430,118324,A M,0,117516,117602,184.8083,95.11136,155.2708,89.89898 M,0,117602,117688,155.2708,89.89898,125.4603,86.59326 M,0,117688,117774,125.4603,86.59326,96,85
Sprite,Foreground,Centre,"storyboard\circle.png",0,0 M,0,117947,118033,70,183,99.21932,189.7777 F,2,117947,118841,1,0 S,2,117947,118841,0.3,0.45 P,0,117947,118841,A M,0,118033,118119,99.21932,189.7777,128.7371,195.1095 M,0,118119,118205,128.7371,195.1095,158.5045,198.7977 M,0,118205,118291,158.5045,198.7977,188,201
Sprite,Foreground,Centre,"storyboard\circle.png",280,175 F,2,118464,119014,1,0 S,2,118464,119014,0.3,0.45 P,0,118464,119014,A
Sprite,Foreground,Centre,"storyboard\circle.png",254,261 F,2,118637,119187,1,0 S,2,118637,119187,0.3,0.45 P,0,118637,119187,A
Sprite,Foreground,Centre,"storyboard\circle.png",0,0 M,0,118809,118895,299,341,327.7806,349.1025 F,2,118809,119531,1,0 S,2,118809,119531,0.3,0.45 P,0,118809,119531,A M,0,118895,118981,327.7806,349.1025,357.6331,350.56
Sprite,Foreground,Centre,"storyboard\circle.png",0,0 M,0,119154,119240,447,322,444.6991,292.0884 F,2,119154,119876,1,0 S,2,119154,119876,0.3,0.45 P,0,119154,119876,A M,0,119240,119326,444.6991,292.0884,442.3982,262.1767
Sprite,Foreground,Centre,"storyboard\circle.png",432,172 F,2,119499,120049,1,0 S,2,119499,120049,0.3,0.45 P,0,119499,120049,A
Sprite,Foreground,Centre,"storyboard\circle.png",432,172 F,2,119671,120221,1,0 S,2,119671,120221,0.3,0.45 P,0,119671,120221,A
Sprite,Foreground,Centre,"storyboard\circle.png",0,0 M,0,119844,119930,516,203,545.9313,205.0292 F,2,119844,120566,1,0 S,2,119844,120566,0.3,0.45 P,0,119844,120566,A M,0,119930,120016,545.9313,205.0292,575,207
Sprite,Foreground,Centre,"storyboard\circle.png",0,0 M,0,120189,120275,481,95,454.5023,81.4365 F,2,120189,121083,1,0 S,2,120189,121083,0.3,0.45 P,0,120189,121083,A M,0,120275,120361,454.5023,81.4365,425.0194,77.71348 M,0,120361,120447,425.0194,77.71348,396.0753,84.63619 M,0,120447,120533,396.0753,84.63619,371.6783,101.6555
Sprite,Foreground,Centre,"storyboard\circle.png",324,178 F,2,120706,121256,1,0 S,2,120706,121256,0.3,0.45 P,0,120706,121256,A
Sprite,Foreground,Centre,"storyboard\circle.png",0,0 M,0,120878,120964,323,269,325.0292,298.9313 F,2,120878,121600,1,0 S,2,120878,121600,0.3,0.45 P,0,120878,121600,A M,0,120964,121050,325.0292,298.9313,327,328
Sprite,Foreground,Centre,"storyboard\circle.png",267,404 F,2,121223,121773,1,0 S,2,121223,121773,0.3,0.45 P,0,121223,121773,A
Sprite,Foreground,Centre,"storyboard\circle.png",213,329 F,2,121396,121946,1,0 S,2,121396,121946,0.3,0.45 P,0,121396,121946,A
Sprite,Foreground,Centre,"storyboard\highlight.png",123,130 C,0,77430,,226,220,171 F,2,77430,78930,0.55,0 S,2,77430,78930,1 P,0,77430,78930,A
Sprite,Foreground,Centre,"storyboard\highlight.png",320,248 C,0,77603,,226,220,171 F,2,77603,84447,0.55,0 S,2,77603,84447,1 P,0,77603,84447,A
Sprite,Foreground,Centre,"storyboard\highlight.png",320,248 C,0,93982,,226,220,171 F,2,93982,97896,0.55,0 S,2,93982,97896,1 P,0,93982,97896,A
Sprite,Foreground,Centre,"storyboard\highlight.png",0,0 C,0,96740,,138,170,213 M,0,96740,96826,325,177,305.8245,182.581 F,2,96740,100998,0.55,0 S,2,96740,100998,1 P,0,96740,100998,A M,0,96826,96912,305.8245,182.581,288.2046,191.9551 M,0,96912,96998,288.2046,191.9551,273.218,205.129 M,0,96998,97084,273.218,205.129,261.5598,221.3335 M,0,97084,97171,261.5598,221.3335,253.1993,239.4755 M,0,97171,97257,253.1993,239.4755,247.5294,258.6354 M,0,97257,97343,247.5294,258.6354,239.057,276.7155 M,0,97343,97429,239.057,276.7155,227.24,292.8132 M,0,97429,97515,227.24,292.8132,212.5676,306.3583 M,0,97515,97602,212.5676,306.3583,195.5213,316.7529 M,0,97602,97688,195.5213,316.7529,176.692,323.3795 M,0,97688,97774,176.692,323.3795,156.8743,325.7493 M,0,97774,97860,156.8743,325.7493,137.015,323.7362 M,0,97860,97946,137.015,323.7362,117.9827,317.6943 M,0,97946,98033,117.9827,317.6943,100.3428,308.3185 M,0,98033,98119,100.3428,308.3185,97.56295,292.2083 M,0,98119,98205,97.56295,292.2083,106.2622,274.2346 M,0,98205,98291,106.2622,274.2346,118.2946,258.2995 M,0,98291,98377,118.2946,258.2995,133.2335,245.0522 M,0,98377,98464,133.2335,245.0522,150.5333,235.0866 M,0,98464,98550,150.5333,235.0866,169.5129,228.8967 M,0,98550,98636,169.5129,228.8967,189.3639,226.7749 M,0,98636,98722,189.3639,226.7749,209.2376,228.7056 M,0,98722,98808,209.2376,228.7056,228.3978,234.3456 M,0,98808,98895,228.3978,234.3456,246.3413,243.1319 M,0,98895,98981,246.3413,243.1319,263.848,252.775 M,0,98981,99067,263.848,252.775,282.3804,260.2611 M,0,99067,99153,282.3804,260.2611,301.7222,265.29 M,0,99153,99240,301.7222,265.29,321.5713,267.6036 M,0,99240,99326,321.5713,267.6036,341.5497,267.1284 M,0,99326,99412,341.5497,267.1284,361.2891,263.9968 M,0,99412,99498,361.2891,263.9968,380.5063,258.4954
Sprite,Foreground,Centre,"storyboard\line.png",0,0 M,0,55361,55705,122,191,216.332,169.8822 F,2,55361,56255,0.25,0 S,2,55361,56255,4 P,0,55361,56255,A
Sprite,Foreground,Centre,"storyboard\line.png",310,187 F,2,55878,56428,0.25,0 S,2,55878,56428,4 P,0,55878,56428,A
Sprite,Foreground,Centre,"storyboard\line.png",0,0 M,0,56051,56223,293,280,283.136,339.1836 F,2,56051,56773,0.25,0 S,2,56051,56773,4 P,0,56051,56773,A
Sprite,Foreground,Centre,"storyboard\line.png",199,264 F,2,56396,56946,0.25,0 S,2,56396,56946,4 P,0,56396,56946,A
Sprite,Foreground,Centre,"storyboard\line.png",0,0 M,0,56740,56912,390,135,447.0346,120.5112 F,2,56740,57462,0.25,0 S,2,56740,57462,4 P,0,56740,57462,A
Sprite,Foreground,Centre,"storyboard\line.png",535,156 F,2,57085,57635,0.25,0 S,2,57085,57635,4 P,0,57085,57635,A
Sprite,Foreground,Centre,"storyboard\line.png",0,0 M,0,57258,57602,439,208,410.2206,323.5056 F,2,57258,58152,0.25,0 S,2,57258,58152,4 P,0,57258,58152,A
Sprite,Foreground,Centre,"storyboard\line.png",0,0 M,0,57775,57947,464,395,521,380 F,2,57775,58497,0.25,0 S,2,57775,58497,4 P,0,57775,58497,A
Sprite,Foreground,Centre,"storyboard\line.png",0,0 M,0,58120,58637,335,370,162.6165,396.8706 F,2,58120,59187,0.25,0 S,2,58120,59187,4 P,0,58120,59187,A
Sprite,Foreground,Centre,"storyboard\line.png",0,0 M,0,58809,58981,95,320,88.71892,260.3297 F,2,58809,59531,0.25,0 S,2,58809,59531,4 P,0,58809,59531,A
Sprite,Foreground,Centre,"storyboard\line.png",83,170 F,2,59154,59704,0.25,0 S,2,59154,59704,4 P,0,59154,59704,A
Sprite,Foreground,Centre,"storyboard\line.png",83,170 F,2,59327,59877,0.25,0 S,2,59327,59877,4 P,0,59327,59877,A
Sprite,Foreground,Centre,"storyboard\line.png",0,0 M,0,59499,59671,187,192,180,251 F,2,59499,60221,0.25,0 S,2,59499,60221,4 P,0,59499,60221,A
Sprite,Foreground,Centre,"storyboard\line.png",236,322 F,2,59844,60394,0.25,0 S,2,59844,60394,4 P,0,59844,60394,A
Sprite,Foreground,Centre,"storyboard\line.png",0,0 M,0,60016,60360,317,253,303.6505,133.7448 F,2,60016,60910,0.25,0 S,2,60016,60910,4 P,0,60016,60910,A
Sprite,Foreground,Centre,"storyboard\line.png",235,75 F,2,60534,61084,0.25,0 S,2,60534,61084,4 P,0,60534,61084,A
Sprite,Foreground,Centre,"storyboard\line.png",0,0 M,0,60878,61222,409,208,518,187 F,2,60878,61772,0.25,0 S,2,60878,61772,4 P,0,60878,61772,A
Sprite,Foreground,Centre,"storyboard\line.png",559,97 F,2,61395,61945,0.25,0 S,2,61395,61945,4 P,0,61395,61945,A
Sprite,Foreground,Centre,"storyboard\line.png",0,0 M,0,61568,61740,467,60,410.2077,67.57235 F,2,61568,62290,0.25,0 S,2,61568,62290,4 P,0,61568,62290,A
Sprite,Foreground,Centre,"storyboard\line.png",341,132 F,2,61913,62463,0.25,0 S,2,61913,62463,4 P,0,61913,62463,A
Sprite,Foreground,Centre,"storyboard\line.png",0,0 M,0,62258,62430,487,307,482.8043,366.7894 F,2,62258,62980,0.25,0 S,2,62258,62980,4 P,0,62258,62980,A
Sprite,Foreground,Centre,"storyboard\line.png",402,417 F,2,62603,63153,0.25,0 S,2,62603,63153,4 P,0,62603,63153,A
Sprite,Foreground,Centre,"storyboard\line.png",0,0 M,0,62775,63119,343,331,224.4818,314.5167 F,2,62775,63669,0.25,0 S,2,62775,63669,4 P,0,62775,63669,A
Sprite,Foreground,Centre,"storyboard\line.png",0,0 M,0,63292,63464,150,409,144.9994,349.3069 F,2,63292,64014,0.25,0 S,2,63292,64014,4 P,0,63292,64014,A
Sprite,Foreground,Centre,"storyboard\line.png",0,0 M,0,63637,64154,227,231,211.3605,67.63297 F,2,63637,64704,0.25,0 S,2,63637,64704,4 P,0,63637,64704,A
Sprite,Foreground,Centre,"storyboard\line.png",0,0 M,0,64326,64498,124,109,130,168 F,2,64326,65048,0.25,0 S,2,64326,65048,4 P,0,64326,65048,A
Sprite,Foreground,Centre,"storyboard\line.png",92,253 F,2,64671,65221,0.25,0 S,2,64671,65221,4 P,0,64671,65221,A
Sprite,Foreground,Centre,"storyboard\line.png",92,253 F,2,64844,65394,0.25,0 S,2,64844,65394,4 P,0,64844,65394,A
Sprite,Foreground,Centre,"storyboard\line.png",0,0 M,0,65016,65360,161,324 F,2,65016,65910,0.25,0 S,2,65016,65910,4 P,0,65016,65910,A
Sprite,Foreground,Centre,"storyboard\line.png",0,0 M,0,65534,65878,253,251,371.433,238.5256 F,2,65534,66428,0.25,0 S,2,65534,66428,4 P,0,65534,66428,A
Sprite,Foreground,Centre,"storyboard\line.png",451,277 F,2,66051,66601,0.25,0 S,2,66051,66601,4 P,0,66051,66601,A
Sprite,Foreground,Centre,"storyboard\line.png",0,0 M,0,66396,66740,451,277,465.3425,159.7888 F,2,66396,67290,0.25,0 S,2,66396,67290,4 P,0,66396,67290,A
Sprite,Foreground,Centre,"storyboard\line.png",525,86 F,2,66913,67463,0.25,0 S,2,66913,67463,4 P,0,66913,67463,A
Sprite,Foreground,Centre,"storyboard\line.png",0,0 M,0,67086,67258,559,175,554.3982,234.8233 F,2,67086,67808,0.25,0 S,2,67086,67808,4 P,0,67086,67808,A
Sprite,Foreground,Centre,"storyboard\line.png",541,327 F,2,67431,67981,0.25,0 S,2,67431,67981,4 P,0,67431,67981,A
Sprite,Foreground,Centre,"storyboard\line.png",0,0 M,0,67775,67947,355,163,297.9654,148.5112 F,2,67775,68497,0.25,0 S,2,67775,68497,4 P,0,67775,68497,A
Sprite,Foreground,Centre,"storyboard\line.png",218,192 F,2,68120,68670,0.25,0 S,2,68120,68670,4 P,0,68120,68670,A
Sprite,Foreground,Centre,"storyboard\line.png",0,0 M,0,68292,68636,287,273,398.691,258.0691 F,2,68292,69186,0.25,0 S,2,68292,69186,4 P,0,68292,69186,A
Sprite,Foreground,Centre,"storyboard\line.png",0,0 M,0,68810,68982,442,170,427,113 F,2,68810,69532,0.25,0 S,2,68810,69532,4 P,0,68810,69532,A
Sprite,Foreground,Centre,"storyboard\line.png",0,0 M,0,69154,69671,317,76,246.6134,195.1986 F,2,69154,70221,0.25,0 S,2,69154,70221,4 P,0,69154,70221,A
Sprite,Foreground,Centre,"storyboard\line.png",0,0 M,0,69844,70016,180,294,170.8766,234.6977 F,2,69844,70566,0.25,0 S,2,69844,70566,4 P,0,69844,70566,A
Sprite,Foreground,Centre,"storyboard\line.png",149,151 F,2,70189,70739,0.25,0 S,2,70189,70739,4 P,0,70189,70739,A
Sprite,Foreground,Centre,"storyboard\line.png",149,151 F,2,70362,70912,0.25,0 S,2,70362,70912,4 P,0,70362,70912,A
Sprite,Foreground,Centre,"storyboard\line.png",0,0 M,0,70534,70706,82,222,79.74042,280.4125 F,2,70534,71256,0.25,0 S,2,70534,71256,4 P,0,70534,71256,A
Sprite,Foreground,Centre,"storyboard\line.png",113,362 F,2,70878,71428,0.25,0 S,2,70878,71428,4 P,0,70878,71428,A
Sprite,Foreground,Centre,"storyboard\line.png",0,0 M,0,71051,71395,202,304,321.2552,317.3495 F,2,71051,71945,0.25,0 S,2,71051,71945,4 P,0,71051,71945,A
Sprite,Foreground,Centre,"storyboard\line.png",409,332 F,2,71569,72119,0.25,0 S,2,71569,72119,4 P,0,71569,72119,A
Sprite,Foreground,Centre,"storyboard\line.png",0,0 M,0,71913,72257,538,129,425.8452,125.6749 F,2,71913,72807,0.25,0 S,2,71913,72807,4 P,0,71913,72807,A
Sprite,Foreground,Centre,"storyboard\line.png",351,180 F,2,72430,72980,0.25,0 S,2,72430,72980,4 P,0,72430,72980,A
Sprite,Foreground,Centre,"storyboard\line.png",0,0 M,0,72603,72775,418,252,477.3023,242.8766 F,2,72603,73325,0.25,0 S,2,72603,73325,4 P,0,72603,73325,A
Sprite,Foreground,Centre,"storyboard\line.png",568,225 F,2,72948,73498,0.25,0 S,2,72948,73498,4 P,0,72948,73498,A
Sprite,Foreground,Centre,"storyboard\line.png",0,0 M,0,73292,73464,472,389,412.6977,379.8766 F,2,73292,74014,0.25,0 S,2,73292,74014,4 P,0,73292,74014,A
Sprite,Foreground,Centre,"storyboard\line.png",334,349 F,2,73638,74188,0.25,0 S,2,73638,74188,4 P,0,73638,74188,A
Sprite,Foreground,Centre,"storyboard\line.png",0,0 M,0,73809,74153,251,421,215.0131,306.9208 F,2,73809,74703,0.25,0 S,2,73809,74703,4 P,0,73809,74703,A
Sprite,Foreground,Centre,"storyboard\line.png",0,0 M,0,74327,74499,182,165,173,224 F,2,74327,75049,0.25,0 S,2,74327,75049,4 P,0,74327,75049,A
Sprite,Foreground,Centre,"storyboard\line.png",0,0 M,0,74671,75188,312,225,489.8424,212.9064 F,2,74671,75738,0.25,0 S,2,74671,75738,4 P,0,74671,75738,A
Sprite,Foreground,Centre,"storyboard\line.png",0,0 M,0,75361,75533,551,285,554,344 F,2,75361,76083,0.25,0 S,2,75361,76083,4 P,0,75361,76083,A
Sprite,Foreground,Centre,"storyboard\line.png",497,417 F,2,75706,76256,0.25,0 S,2,75706,76256,4 P,0,75706,76256,A
Sprite,Foreground,Centre,"storyboard\line.png",497,417 F,2,75879,76429,0.25,0 S,2,75879,76429,4 P,0,75879,76429,A
Sprite,Foreground,Centre,"storyboard\line.png",0,0 M,0,76051,76223,431,323,433.9329,263.3448 F,2,76051,76773,0.25,0 S,2,76051,76773,4 P,0,76051,76773,A
Sprite,Foreground,Centre,"storyboard\line.png",0,0 M,0,76396,76568,483,186,479.0555,126.3046 F,2,76396,77118,0.25,0 S,2,76396,77118,4 P,0,76396,77118,A
Sprite,Foreground,Centre,"storyboard\line.png",408,70 F,2,76740,77290,0.25,0 S,2,76740,77290,4 P,0,76740,77290,A
Sprite,Foreground,Centre,"storyboard\line.png",356,146 F,2,76913,77463,0.25,0 S,2,76913,77463,4 P,0,76913,77463,A
Sprite,Foreground,Centre,"storyboard\line.png",0,0 M,0,77085,77257,269,116,209.1767,120.6018 F,2,77085,77807,0.25,0 S,2,77085,77807,4 P,0,77085,77807,A
Sprite,Foreground,Centre,"storyboard\lyrics\77.png",255,160 L,189,2 F,2,0,517,1,0 F,2,517,1034,0.75,0 F,2,1034,1379,0.5,0 S,0,189,2947,0.05,0.055 MX,0,189,2947,255,248
Sprite,Foreground,Centre,"storyboard\lyrics\77-glow.png",255,160 L,189,2 F,1,0,517,1,0 F,1,517,1034,0.75,0 F,1,1034,1379,0.5,0 S,0,189,2947,0.05,0.055 MX,0,189,2947,255,248
Sprite,Foreground,Centre,"storyboard\lyrics\97.png",264,160 L,189,2 F,2,0,517,1,0 F,2,517,1034,0.75,0 F,2,1034,1379,0.5,0 S,0,189,2947,0.05,0.055 MX,0,189,2947,264,258
Sprite,Foreground,Centre,"storyboard\lyrics\97-glow.png",264,160 L,189,2 F,1,0,517,1,0 F,1,517,1034,0.75,0 F,1,1034,1379,0.5,0 S,0,189,2947,0.05,0.055 MX,0,189,2947,264,258
Sprite,Foreground,Centre,"storyboard\lyrics\112.png",273,160 L,189,2 F,2,0,517,1,0 F,2,517,1034,0.75,0 F,2,1034,1379,0.5,0 S,0,189,2947,0.05,0.055 MX,0,189,2947,273,269
Sprite,Foreground,Centre,"storyboard\lyrics\112-glow.png",273,160 L,189,2 F,1,0,517,1,0 F,1,517,1034,0.75,0 F,1,1034,1379,0.5,0 S,0,189,2947,0.05,0.055 MX,0,189,2947,273,269
Sprite,Foreground,Centre,"storyboard\lyrics\115.png",283,160 L,189,2 F,2,0,517,1,0 F,2,517,1034,0.75,0 F,2,1034,1379,0.5,0 S,0,189,2947,0.05,0.055 MX,0,189,2947,283,279
Sprite,Foreground,Centre,"storyboard\lyrics\115-glow.png",283,160 L,189,2 F,1,0,517,1,0 F,1,517,1034,0.75,0 F,1,1034,1379,0.5,0 S,0,189,2947,0.05,0.055 MX,0,189,2947,283,279
Sprite,Foreground,Centre,"storyboard\lyrics\101.png",292,160 L,189,2 F,2,0,517,1,0 F,2,517,1034,0.75,0 F,2,1034,1379,0.5,0 S,0,189,2947,0.05,0.055 MX,0,189,2947,292,289
Sprite,Foreground,Centre,"storyboard\lyrics\101-glow.png",292,160 L,189,2 F,1,0,517,1,0 F,1,517,1034,0.75,0 F,1,1034,1379,0.5,0 S,0,189,2947,0.05,0.055 MX,0,189,2947,292,289
Sprite,Foreground,Centre,"storyboard\lyrics\116.png",301,160 L,189,2 F,2,0,517,1,0 F,2,517,1034,0.75,0 F,2,1034,1379,0.5,0 S,0,189,2947,0.05,0.055 MX,0,189,2947,301,299
Sprite,Foreground,Centre,"storyboard\lyrics\116-glow.png",301,160 L,189,2 F,1,0,517,1,0 F,1,517,1034,0.75,0 F,1,1034,1379,0.5,0 S,0,189,2947,0.05,0.055 MX,0,189,2947,301,299
Sprite,Foreground,Centre,"storyboard\lyrics\98.png",320,160 L,189,2 F,2,0,517,1,0 F,2,517,1034,0.75,0 F,2,1034,1379,0.5,0 S,0,189,2947,0.05,0.055 MX,0,189,2947,320
Sprite,Foreground,Centre,"storyboard\lyrics\98-glow.png",320,160 L,189,2 F,1,0,517,1,0 F,1,517,1034,0.75,0 F,1,1034,1379,0.5,0 S,0,189,2947,0.05,0.055 MX,0,189,2947,320
Sprite,Foreground,Centre,"storyboard\lyrics\121.png",329,160 L,189,2 F,2,0,517,1,0 F,2,517,1034,0.75,0 F,2,1034,1379,0.5,0 S,0,189,2947,0.05,0.055 MX,0,189,2947,329,330
Sprite,Foreground,Centre,"storyboard\lyrics\121-glow.png",329,160 L,189,2 F,1,0,517,1,0 F,1,517,1034,0.75,0 F,1,1034,1379,0.5,0 S,0,189,2947,0.05,0.055 MX,0,189,2947,329,330
Sprite,Foreground,Centre,"storyboard\lyrics\83.png",347,160 L,189,2 F,2,0,517,1,0 F,2,517,1034,0.75,0 F,2,1034,1379,0.5,0 S,0,189,2947,0.05,0.055 MX,0,189,2947,347,350
Sprite,Foreground,Centre,"storyboard\lyrics\83-glow.png",347,160 L,189,2 F,1,0,517,1,0 F,1,517,1034,0.75,0 F,1,1034,1379,0.5,0 S,0,189,2947,0.05,0.055 MX,0,189,2947,347,350
Sprite,Foreground,Centre,"storyboard\lyrics\121.png",357,160 L,189,2 F,2,0,517,1,0 F,2,517,1034,0.75,0 F,2,1034,1379,0.5,0 S,0,189,2947,0.05,0.055 MX,0,189,2947,357,360
Sprite,Foreground,Centre,"storyboard\lyrics\121-glow.png",357,160 L,189,2 F,1,0,517,1,0 F,1,517,1034,0.75,0 F,1,1034,1379,0.5,0 S,0,189,2947,0.05,0.055 MX,0,189,2947,357,360
Sprite,Foreground,Centre,"storyboard\lyrics\108.png",366,160 L,189,2 F,2,0,517,1,0 F,2,517,1034,0.75,0 F,2,1034,1379,0.5,0 S,0,189,2947,0.05,0.055 MX,0,189,2947,366,370
Sprite,Foreground,Centre,"storyboard\lyrics\108-glow.png",366,160 L,189,2 F,1,0,517,1,0 F,1,517,1034,0.75,0 F,1,1034,1379,0.5,0 S,0,189,2947,0.05,0.055 MX,0,189,2947,366,370
Sprite,Foreground,Centre,"storyboard\lyrics\97.png",375,160 L,189,2 F,2,0,517,1,0 F,2,517,1034,0.75,0 F,2,1034,1379,0.5,0 S,0,189,2947,0.05,0.055 MX,0,189,2947,375,381
Sprite,Foreground,Centre,"storyboard\lyrics\97-glow.png",375,160 L,189,2 F,1,0,517,1,0 F,1,517,1034,0.75,0 F,1,1034,1379,0.5,0 S,0,189,2947,0.05,0.055 MX,0,189,2947,375,381
Sprite,Foreground,Centre,"storyboard\lyrics\115.png",384,160 L,189,2 F,2,0,517,1,0 F,2,517,1034,0.75,0 F,2,1034,1379,0.5,0 S,0,189,2947,0.05,0.055 MX,0,189,2947,384,391
Sprite,Foreground,Centre,"storyboard\lyrics\115-glow.png",384,160 L,189,2 F,1,0,517,1,0 F,1,517,1034,0.75,0 F,1,1034,1379,0.5,0 S,0,189,2947,0.05,0.055 MX,0,189,2947,384,391
Sprite,Foreground,Centre,"storyboard\lyrics\83.png",187,160 L,2947,2 F,2,0,517,1,0 F,2,517,1034,0.75,0 F,2,1034,1379,0.5,0 S,0,2947,5706,0.055,0.06 MX,0,2947,5706,187,175
Sprite,Foreground,Centre,"storyboard\lyrics\83-glow.png",187,160 L,2947,2 F,1,0,517,1,0 F,1,517,1034,0.75,0 F,1,1034,1379,0.5,0 S,0,2947,5706,0.055,0.06 MX,0,2947,5706,187,175
Sprite,Foreground,Centre,"storyboard\lyrics\116.png",197,160 L,2947,2 F,2,0,517,1,0 F,2,517,1034,0.75,0 F,2,1034,1379,0.5,0 S,0,2947,5706,0.055,0.06 MX,0,2947,5706,197,186
Sprite,Foreground,Centre,"storyboard\lyrics\116-glow.png",197,160 L,2947,2 F,1,0,517,1,0 F,1,517,1034,0.75,0 F,1,1034,1379,0.5,0 S,0,2947,5706,0.055,0.06 MX,0,2947,5706,197,186
Sprite,Foreground,Centre,"storyboard\lyrics\111.png",208,160 L,2947,2 F,2,0,517,1,0 F,2,517,1034,0.75,0 F,2,1034,1379,0.5,0 S,0,2947,5706,0.055,0.06 MX,0,2947,5706,208,197
Sprite,Foreground,Centre,"storyboard\lyrics\111-glow.png",208,160 L,2947,2 F,1,0,517,1,0 F,1,517,1034,0.75,0 F,1,1034,1379,0.5,0 S,0,2947,5706,0.055,0.06 MX,0,2947,5706,208,197
Sprite,Foreground,Centre,"storyboard\lyrics\114.png",218,160 L,2947,2 F,2,0,517,1,0 F,2,517,1034,0.75,0 F,2,1034,1379,0.5,0 S,0,2947,5706,0.055,0.06 MX,0,2947,5706,218,209
Sprite,Foreground,Centre,"storyboard\lyrics\114-glow.png",218,160 L,2947,2 F,1,0,517,1,0 F,1,517,1034,0.75,0 F,1,1034,1379,0.5,0 S,0,2947,5706,0.055,0.06 MX,0,2947,5706,218,209
Sprite,Foreground,Centre,"storyboard\lyrics\121.png",228,160 L,2947,2 F,2,0,517,1,0 F,2,517,1034,0.75,0 F,2,1034,1379,0.5,0 S,0,2947,5706,0.055,0.06 MX,0,2947,5706,228,220
Sprite,Foreground,Centre,"storyboard\lyrics\121-glow.png",228,160 L,2947,2 F,1,0,517,1,0 F,1,517,1034,0.75,0 F,1,1034,1379,0.5,0 S,0,2947,5706,0.055,0.06 MX,0,2947,5706,228,220
Sprite,Foreground,Centre,"storyboard\lyrics\98.png",238,160 L,2947,2 F,2,0,517,1,0 F,2,517,1034,0.75,0 F,2,1034,1379,0.5,0 S,0,2947,5706,0.055,0.06 MX,0,2947,5706,238,231
Sprite,Foreground,Centre,"storyboard\lyrics\98-glow.png",238,160 L,2947,2 F,1,0,517,1,0 F,1,517,1034,0.75,0 F,1,1034,1379,0.5,0 S,0,2947,5706,0.055,0.06 MX,0,2947,5706,238,231
Sprite,Foreground,Centre,"storyboard\lyrics\111.png",248,160 L,2947,2 F,2,0,517,1,0 F,2,517,1034,0.75,0 F,2,1034,1379,0.5,0 S,0,2947,5706,0.055,0.06 MX,0,2947,5706,248,242
Sprite,Foreground,Centre,"storyboard\lyrics\111-glow.png",248,160 L,2947,2 F,1,0,517,1,0 F,1,517,1034,0.75,0 F,1,1034,1379,0.5,0 S,0,2947,5706,0.055,0.06 MX,0,2947,5706,248,242
Sprite,Foreground,Centre,"storyboard\lyrics\97.png",258,160 L,2947,2 F,2,0,517,1,0 F,2,517,1034,0.75,0 F,2,1034,1379,0.5,0 S,0,2947,5706,0.055,0.06 MX,0,2947,5706,258,253
Sprite,Foreground,Centre,"storyboard\lyrics\97-glow.png",258,160 L,2947,2 F,1,0,517,1,0 F,1,517,1034,0.75,0 F,1,1034,1379,0.5,0 S,0,2947,5706,0.055,0.06 MX,0,2947,5706,258,253
Sprite,Foreground,Centre,"storyboard\lyrics\114.png",269,160 L,2947,2 F,2,0,517,1,0 F,2,517,1034,0.75,0 F,2,1034,1379,0.5,0 S,0,2947,5706,0.055,0.06 MX,0,2947,5706,269,264
Sprite,Foreground,Centre,"storyboard\lyrics\114-glow.png",269,160 L,2947,2 F,1,0,517,1,0 F,1,517,1034,0.75,0 F,1,1034,1379,0.5,0 S,0,2947,5706,0.055,0.06 MX,0,2947,5706,269,264
Sprite,Foreground,Centre,"storyboard\lyrics\100.png",279,160 L,2947,2 F,2,0,517,1,0 F,2,517,1034,0.75,0 F,2,1034,1379,0.5,0 S,0,2947,5706,0.055,0.06 MX,0,2947,5706,279,275
Sprite,Foreground,Centre,"storyboard\lyrics\100-glow.png",279,160 L,2947,2 F,1,0,517,1,0 F,1,517,1034,0.75,0 F,1,1034,1379,0.5,0 S,0,2947,5706,0.055,0.06 MX,0,2947,5706,279,275
Sprite,Foreground,Centre,"storyboard\lyrics\98.png",299,160 L,2947,2 F,2,0,517,1,0 F,2,517,1034,0.75,0 F,2,1034,1379,0.5,0 S,0,2947,5706,0.055,0.06 MX,0,2947,5706,299,297
Sprite,Foreground,Centre,"storyboard\lyrics\98-glow.png",299,160 L,2947,2 F,1,0,517,1,0 F,1,517,1034,0.75,0 F,1,1034,1379,0.5,0 S,0,2947,5706,0.055,0.06 MX,0,2947,5706,299,297
Sprite,Foreground,Centre,"storyboard\lyrics\121.png",309,160 L,2947,2 F,2,0,517,1,0 F,2,517,1034,0.75,0 F,2,1034,1379,0.5,0 S,0,2947,5706,0.055,0.06 MX,0,2947,5706,309,308
Sprite,Foreground,Centre,"storyboard\lyrics\121-glow.png",309,160 L,2947,2 F,1,0,517,1,0 F,1,517,1034,0.75,0 F,1,1034,1379,0.5,0 S,0,2947,5706,0.055,0.06 MX,0,2947,5706,309,308
Sprite,Foreground,Centre,"storyboard\lyrics\45.png",330,160 L,2947,2 F,2,0,517,1,0 F,2,517,1034,0.75,0 F,2,1034,1379,0.5,0 S,0,2947,5706,0.055,0.06 MX,0,2947,5706,330,331
Sprite,Foreground,Centre,"storyboard\lyrics\45-glow.png",330,160 L,2947,2 F,1,0,517,1,0 F,1,517,1034,0.75,0 F,1,1034,1379,0.5,0 S,0,2947,5706,0.055,0.06 MX,0,2947,5706,330,331
Sprite,Foreground,Centre,"storyboard\lyrics\65.png",340,160 L,2947,2 F,2,0,517,1,0 F,2,517,1034,0.75,0 F,2,1034,1379,0.5,0 S,0,2947,5706,0.055,0.06 MX,0,2947,5706,340,342
Sprite,Foreground,Centre,"storyboard\lyrics\65-glow.png",340,160 L,2947,2 F,1,0,517,1,0 F,1,517,1034,0.75,0 F,1,1034,1379,0.5,0 S,0,2947,5706,0.055,0.06 MX,0,2947,5706,340,342
Sprite,Foreground,Centre,"storyboard\lyrics\100.png",350,160 L,2947,2 F,2,0,517,1,0 F,2,517,1034,0.75,0 F,2,1034,1379,0.5,0 S,0,2947,5706,0.055,0.06 MX,0,2947,5706,350,353
Sprite,Foreground,Centre,"storyboard\lyrics\100-glow.png",350,160 L,2947,2 F,1,0,517,1,0 F,1,517,1034,0.75,0 F,1,1034,1379,0.5,0 S,0,2947,5706,0.055,0.06 MX,0,2947,5706,350,353
Sprite,Foreground,Centre,"storyboard\lyrics\121.png",360,160 L,2947,2 F,2,0,517,1,0 F,2,517,1034,0.75,0 F,2,1034,1379,0.5,0 S,0,2947,5706,0.055,0.06 MX,0,2947,5706,360,364
Sprite,Foreground,Centre,"storyboard\lyrics\121-glow.png",360,160 L,2947,2 F,1,0,517,1,0 F,1,517,1034,0.75,0 F,1,1034,1379,0.5,0 S,0,2947,5706,0.055,0.06 MX,0,2947,5706,360,364
Sprite,Foreground,Centre,"storyboard\lyrics\38.png",381,160 L,2947,2 F,2,0,517,1,0 F,2,517,1034,0.75,0 F,2,1034,1379,0.5,0 S,0,2947,5706,0.055,0.06 MX,0,2947,5706,381,386
Sprite,Foreground,Centre,"storyboard\lyrics\38-glow.png",381,160 L,2947,2 F,1,0,517,1,0 F,1,517,1034,0.75,0 F,1,1034,1379,0.5,0 S,0,2947,5706,0.055,0.06 MX,0,2947,5706,381,386
Sprite,Foreground,Centre,"storyboard\lyrics\80.png",401,160 L,2947,2 F,2,0,517,1,0 F,2,517,1034,0.75,0 F,2,1034,1379,0.5,0 S,0,2947,5706,0.055,0.06 MX,0,2947,5706,401,408
Sprite,Foreground,Centre,"storyboard\lyrics\80-glow.png",401,160 L,2947,2 F,1,0,517,1,0 F,1,517,1034,0.75,0 F,1,1034,1379,0.5,0 S,0,2947,5706,0.055,0.06 MX,0,2947,5706,401,408
Sprite,Foreground,Centre,"storyboard\lyrics\97.png",411,160 L,2947,2 F,2,0,517,1,0 F,2,517,1034,0.75,0 F,2,1034,1379,0.5,0 S,0,2947,5706,0.055,0.06 MX,0,2947,5706,411,419
Sprite,Foreground,Centre,"storyboard\lyrics\97-glow.png",411,160 L,2947,2 F,1,0,517,1,0 F,1,517,1034,0.75,0 F,1,1034,1379,0.5,0 S,0,2947,5706,0.055,0.06 MX,0,2947,5706,411,419
Sprite,Foreground,Centre,"storyboard\lyrics\114.png",421,160 L,2947,2 F,2,0,517,1,0 F,2,517,1034,0.75,0 F,2,1034,1379,0.5,0 S,0,2947,5706,0.055,0.06 MX,0,2947,5706,421,431
Sprite,Foreground,Centre,"storyboard\lyrics\114-glow.png",421,160 L,2947,2 F,1,0,517,1,0 F,1,517,1034,0.75,0 F,1,1034,1379,0.5,0 S,0,2947,5706,0.055,0.06 MX,0,2947,5706,421,431
Sprite,Foreground,Centre,"storyboard\lyrics\116.png",431,160 L,2947,2 F,2,0,517,1,0 F,2,517,1034,0.75,0 F,2,1034,1379,0.5,0 S,0,2947,5706,0.055,0.06 MX,0,2947,5706,431,442
Sprite,Foreground,Centre,"storyboard\lyrics\116-glow.png",431,160 L,2947,2 F,1,0,517,1,0 F,1,517,1034,0.75,0 F,1,1034,1379,0.5,0 S,0,2947,5706,0.055,0.06 MX,0,2947,5706,431,442
Sprite,Foreground,Centre,"storyboard\lyrics\121.png",442,160 L,2947,2 F,2,0,517,1,0 F,2,517,1034,0.75,0 F,2,1034,1379,0.5,0 S,0,2947,5706,0.055,0.06 MX,0,2947,5706,442,453
Sprite,Foreground,Centre,"storyboard\lyrics\121-glow.png",442,160 L,2947,2 F,1,0,517,1,0 F,1,517,1034,0.75,0 F,1,1034,1379,0.5,0 S,0,2947,5706,0.055,0.06 MX,0,2947,5706,442,453
Sprite,Foreground,Centre,"storyboard\lyrics\117.png",452,160 L,2947,2 F,2,0,517,1,0 F,2,517,1034,0.75,0 F,2,1034,1379,0.5,0 S,0,2947,5706,0.055,0.06 MX,0,2947,5706,452,464
Sprite,Foreground,Centre,"storyboard\lyrics\117-glow.png",452,160 L,2947,2 F,1,0,517,1,0 F,1,517,1034,0.75,0 F,1,1034,1379,0.5,0 S,0,2947,5706,0.055,0.06 MX,0,2947,5706,452,464
//Storyboard Layer 4 (Overlay)
//Storyboard Sound Samples

[TimingPoints]
189,689.655172413793,4,2,1,50,1,0
11223,-125,4,2,1,50,0,0
33292,-133.333333333333,4,2,1,70,0,0
33465,-133.333333333333,4,2,1,5,0,0
35361,-133.333333333333,4,2,1,60,0,0
36395,-133.333333333333,4,2,1,5,0,0
37430,-133.333333333333,4,2,1,60,0,0
38465,-133.333333333333,4,2,1,60,0,0
44327,-133.333333333333,4,2,1,60,0,0
44499,-133.333333333333,4,2,1,5,0,0
46395,-133.333333333333,4,2,1,60,0,0
47085,-133.333333333333,4,2,1,5,0,0
48464,-133.333333333333,4,2,1,60,0,0
49499,-133.333333333333,4,2,1,65,0,0
52258,-133.333333333333,4,2,1,70,0,0
52603,-133.333333333333,4,2,1,50,0,0
55361,-83.3333333333333,4,2,2,85,0,1
66051,-83.3333333333333,4,2,2,85,0,0
66395,-83.3333333333333,4,2,2,85,0,1
77085,-83.3333333333333,4,2,2,85,0,1
77430,-111.111111111111,4,2,1,60,0,0
88465,-111.111111111111,4,2,1,65,0,0
93982,-100,4,2,1,70,0,0
96740,-125,4,2,1,70,0,0
97430,-125,4,2,1,70,0,0
99154,-125,4,2,1,50,0,0
99499,-166.666666666667,4,2,1,40,0,0
101568,-166.666666666667,4,2,1,60,0,0
102257,-83.3333333333333,4,2,2,85,0,1
110188,-83.3333333333333,4,2,2,85,0,0
110533,-83.3333333333333,4,2,2,85,0,1
113292,-83.3333333333333,4,2,2,85,0,1
121568,-83.3333333333333,4,2,2,60,0,0

[Colours]
Combo1 : 226,220,171
Combo2 : 138,170,213
Combo3 : 146,136,202

[HitObjects]
256,192,8465,12,0,10878,0:0:0:0:
99,344,11223,6,0,P|89:299|90:255,1,80,6|2,3:2|0:0,0:0:0:0:
184,132,11913,2,0,P|183:171|173:210,1,80,2|2,0:0|3:2,0:0:0:0:
96,194,12430,2,0,P|96:154|106:115,1,80,2|2,0:0|0:0,0:0:0:0:
163,59,12947,2,0,B|203:45|239:77|239:77|274:112|323:94,1,160,2|0,0:0|3:0,0:0:0:0:
473,38,13982,6,0,L|456:137,1,80,2|2,3:2|0:0,0:0:0:0:
423,229,14671,1,2,0:0:0:0:
423,229,14844,2,0,P|382:221|327:245,1,80,2|2,0:0|0:0,0:0:0:0:
281,274,15361,1,2,3:2:0:0:
189,367,15706,2,0,B|141:357|141:357|131:245,1,160,2|0,0:0|3:0,0:0:0:0:
136,56,16740,6,0,P|204:34|261:63,2,120,0|0|0,3:0|3:0|3:0,0:0:0:0:
27,132,18120,2,0,P|39:169|53:189,1,40,2|2,3:2|0:0,0:0:0:0:
20,243,18465,2,0,P|58:247|82:243,1,40,2|2,0:0|3:2,0:0:0:0:
129,284,18809,2,0,P|163:271|208:263,1,80,2|2,0:0|3:2,0:0:0:0:
417,152,19499,6,0,B|427:120|407:95|407:95|387:68|398:36,2,120,2|0|0,3:2|3:0|3:0,0:0:0:0:
348,239,20878,2,0,P|410:235|480:287,2,120,0|0|0,3:0|3:0|3:0,0:0:0:0:
216,344,22258,6,0,B|118:327,1,80,2|2,3:2|0:0,0:0:0:0:
44,217,22947,2,0,B|27:119,1,80,2|2,0:0|3:2,0:0:0:0:
105,123,23465,2,0,B|118:201,1,80,2|2,0:0|0:0,0:0:0:0:
184,242,23982,2,0,B|255:228|255:228|261:215|261:215|335:200,1,160,2|0,0:0|3:0,0:0:0:0:
402,11,25017,6,0,P|396:41|412:91,1,80,2|2,3:2|0:0,0:0:0:0:
496,183,25706,1,2,0:0:0:0:
428,279,26051,1,2,3:2:0:0:
428,279,26224,2,0,P|409:272|389:270,1,40,2|2,0:0|3:2,0:0:0:0:
261,332,26740,2,0,P|217:354|90:352,1,160,2|0,0:0|3:0,0:0:0:0:
17,179,27775,6,0,B|0:151|0:151|15:51,2,120,2|0|2,3:2|3:0|3:2,0:0:0:0:
172,306,29154,2,0,P|208:282|215:265,1,40,2|2,3:2|0:0,0:0:0:0:
288,329,29499,2,0,P|281:286|269:272,1,40,2|2,0:0|3:2,0:0:0:0:
250,222,29844,2,0,P|241:190|239:138,1,80,2|2,0:0|3:2,0:0:0:0:
400,57,30534,6,0,B|434:47|458:69|458:69|489:96|528:81,2,120,2|0|0,3:2|3:0|3:0,0:0:0:0:
311,193,31913,2,0,P|321:242|365:274,1,80,0|0,3:0|0:0,0:0:0:0:
295,324,32430,2,0,P|342:340|392:320,1,80,0|0,3:0|0:0,0:0:0:0:
419,274,32947,2,0,P|416:241|408:218,1,40,2|0,3:2|0:0,0:0:0:0:
311,193,33292,6,0,B|261:145|193:182|193:182|141:212|86:187|86:187|96:237|127:284|201:292|258:246,1,450.000017166138,4|2,0:1|0:0,0:0:0:0:
433,74,35878,6,0,B|433:43|409:12|409:12|342:42|356:114|356:114|400:147|413:205|379:251,1,337.500012874604,2|0,0:0|0:0,0:0:0:0:
385,241,38465,6,0,L|323:251,1,37.5000014305115,2|2,0:0|0:0,0:0:0:0:
309,313,38809,2,0,L|201:295,1,75.0000028610231,2|2,0:0|0:0,0:0:0:0:
92,155,39499,2,0,P|91:171|106:195,1,37.5000014305115,2|2,0:0|0:0,0:0:0:0:
167,229,39844,2,0,P|187:179|192:128,1,75.0000028610231,2|2,0:0|0:0,0:0:0:0:
190,158,41223,6,0,P|191:142|179:117,1,37.5000014305115,2|2,0:0|0:0,0:0:0:0:
127,71,41568,2,0,P|108:100|113:152,1,75.0000028610231,2|2,0:0|0:0,0:0:0:0:
264,210,42258,2,0,L|301:204,1,37.5000014305115,2|2,0:0|0:0,0:0:0:0:
378,189,42603,1,2,0:0:0:0:
406,66,42947,2,0,P|441:129|461:210,1,150.000005722046,2|0,0:0|0:0,0:0:0:0:
376,319,43982,1,2,0:0:0:0:
198,209,44327,6,0,B|184:163|217:127|217:127|254:88|241:39|241:39|297:86|321:157|306:223|252:274,1,450.000017166138,2|2,0:0|0:0,0:0:0:0:
131,114,46913,6,0,B|98:77|28:79|-21:125|-21:125|-1:183|63:215|134:185,1,337.500012874604,2|0,0:0|0:0,0:0:0:0:
308,264,49499,6,0,P|332:257|357:234,1,37.5000014305115,2|2,0:0|0:0,0:0:0:0:
372,178,49844,2,0,L|390:70,1,75.0000028610231,2|2,0:0|0:0,0:0:0:0:
240,31,50534,2,0,L|251:97,1,37.5000014305115,2|2,0:0|0:0,0:0:0:0:
225,141,50878,2,0,P|266:143|313:107,1,75.0000028610231,2|2,0:0|0:0,0:0:0:0:
72,186,52258,6,0,L|60:252,1,37.5000014305115,2|0,0:0|0:0,0:0:0:0:
46,297,52603,1,2,0:0:0:0:
58,135,55361,6,0,B|66:103|66:103|185:118,1,119.999996337891,6|0,1:2|0:0,0:0:0:0:
246,131,55878,1,0,1:0:0:0:
229,224,56051,2,0,L|219:284,1,59.9999981689454,10|0,0:0|0:0,0:0:0:0:
135,208,56396,1,0,1:0:0:0:
326,79,56740,6,0,P|353:67|403:68,1,59.9999981689454,2|0,1:2|0:0,0:0:0:0:
471,100,57085,1,2,0:0:0:0:
375,152,57258,2,0,P|352:218|346:277,1,119.999996337891,2|0,1:2|0:0,0:0:0:0:
400,339,57775,2,0,P|429:336|457:324,1,59.9999981689454,10|0,1:2|0:0,0:0:0:0:
271,314,58120,6,0,B|186:322|186:322|182:332|182:332|88:342,1,179.999994506836,2|0,1:2|1:0,0:0:0:0:
31,264,58809,2,0,L|23:188,1,59.9999981689454,10|0,0:0|0:0,0:0:0:0:
19,114,59154,1,0,1:0:0:0:
19,114,59327,1,0,0:0:0:0:
123,136,59499,6,0,L|116:195,1,59.9999981689454,2|0,1:2|0:0,0:0:0:0:
172,266,59844,1,2,0:0:0:0:
253,197,60016,2,0,L|238:63,1,119.999996337891,2|0,1:2|0:0,0:0:0:0:
171,19,60534,1,10,1:2:0:0:
345,152,60878,6,0,B|400:164|400:164|454:131,1,119.999996337891,2|0,1:2|0:0,0:0:0:0:
495,41,61395,1,0,1:0:0:0:
403,4,61568,2,0,P|369:1|343:14,1,59.9999981689454,10|0,0:0|0:0,0:0:0:0:
277,76,61913,1,0,1:0:0:0:
423,251,62258,6,0,P|422:282|414:338,1,59.9999981689454,2|0,1:2|0:0,0:0:0:0:
338,361,62603,1,2,0:0:0:0:
279,275,62775,2,0,P|221:263|133:259,1,119.999996337891,2|0,1:2|0:0,0:0:0:0:
86,353,63292,2,0,P|82:323|81:293,1,59.9999981689454,10|0,1:2|0:0,0:0:0:0:
163,175,63637,6,0,B|192:90|192:90|147:11,1,179.999994506836,2|0,1:2|1:0,0:0:0:0:
60,53,64326,2,0,L|66:112,1,59.9999981689454,10|0,0:0|0:0,0:0:0:0:
28,197,64671,1,0,1:0:0:0:
28,197,64844,1,0,0:0:0:0:
97,268,65016,6,0,P|139:282|168:279,2,59.9999981689454,2|0|2,1:2|0:0|0:0,0:0:0:0:
189,195,65534,2,0,P|252:182|326:185,1,119.999996337891,2|0,1:2|0:0,0:0:0:0:
387,221,66051,1,10,1:2:0:0:
387,221,66396,6,0,B|392:163|392:163|397:159|397:159|404:70,1,119.999996337891,6|0,1:2|0:0,0:0:0:0:
461,30,66913,1,0,1:0:0:0:
495,119,67086,2,0,L|490:184,1,59.9999981689454,10|0,0:0|0:0,0:0:0:0:
477,271,67431,1,0,1:0:0:0:
291,107,67775,6,0,P|264:95|214:96,1,59.9999981689454,2|0,1:2|0:0,0:0:0:0:
154,136,68120,1,2,0:0:0:0:
223,217,68292,2,0,P|282:227|337:200,1,119.999996337891,2|0,1:2|0:0,0:0:0:0:
378,114,68810,2,0,P|375:85|363:57,1,59.9999981689454,10|0,1:2|0:0,0:0:0:0:
253,20,69154,6,0,B|201:13|201:13|179:164,1,179.999994506836,2|0,1:2|1:0,0:0:0:0:
116,238,69844,2,0,L|104:160,1,59.9999981689454,10|0,0:0|0:0,0:0:0:0:
85,95,70189,1,0,1:0:0:0:
85,95,70362,1,0,0:0:0:0:
18,166,70534,6,0,P|11:198|17:228,1,59.9999981689454,2|0,1:2|0:0,0:0:0:0:
49,306,70878,1,2,0:0:0:0:
138,248,71051,2,0,L|272:263,1,119.999996337891,2|0,1:2|0:0,0:0:0:0:
345,276,71569,1,10,1:2:0:0:
474,73,71913,6,0,B|413:50|413:50|361:70,1,119.999996337891,2|0,1:2|0:0,0:0:0:0:
287,124,72430,1,0,1:0:0:0:
354,196,72603,2,0,L|432:184,1,59.9999981689454,10|0,0:0|0:0,0:0:0:0:
504,169,72948,1,0,1:0:0:0:
408,333,73292,6,0,L|330:321,1,59.9999981689454,2|0,1:2|0:0,0:0:0:0:
270,293,73638,1,2,0:0:0:0:
187,365,73809,2,0,P|162:299|148:231,1,119.999996337891,2|0,1:2|0:0,0:0:0:0:
118,109,74327,2,0,P|111:138|109:168,1,59.9999981689454,10|0,1:2|0:0,0:0:0:0:
248,169,74671,6,0,B|329:160|329:160|344:166|344:166|443:155,1,179.999994506836,2|0,1:2|1:0,0:0:0:0:
487,229,75361,2,0,P|491:258|490:288,1,59.9999981689454,10|0,0:0|0:0,0:0:0:0:
433,361,75706,1,0,1:0:0:0:
433,361,75879,1,0,0:0:0:0:
367,267,76051,6,0,P|366:237|370:207,1,59.9999981689454,2|0,1:2|0:0,0:0:0:0:
419,130,76396,2,0,P|419:100|415:70,1,59.9999981689454,2|2,0:0|1:2,0:0:0:0:
344,14,76740,1,0,0:0:0:0:
292,90,76913,1,2,0:0:0:0:
205,60,77085,2,0,L|127:66,1,59.9999981689454,10|0,1:2|0:0,0:0:0:0:
59,74,77430,5,2,3:2:0:0:
256,192,77603,12,2,82947,3:2:0:0:
256,192,93982,12,2,96396,3:2:0:0:
261,121,96740,6,0,B|205:132|187:190|187:190|175:250|102:300|30:248|30:248|45:185|117:145|187:190|187:190|263:234|347:189,1,640,2|0,3:2|3:0,0:0:0:0:
179,58,102258,6,0,P|180:116|165:199,1,119.999996337891,4|0,1:2|0:0,0:0:0:0:
99,237,102775,1,0,1:0:0:0:
140,314,102947,2,0,L|238:305,1,59.9999981689454,8|0,0:0|0:0,0:0:0:0:
274,248,103292,2,0,L|333:253,1,59.9999981689454,0|0,1:0|0:0,0:0:0:0:
447,215,103637,6,0,P|448:157|433:74,1,119.999996337891,0|0,1:0|0:0,0:0:0:0:
354,32,104154,2,0,P|311:53|304:129,1,119.999996337891,0|0,1:0|0:0,0:0:0:0:
353,200,104671,1,10,1:2:0:0:
353,200,104844,1,2,0:0:0:0:
447,215,105016,6,0,L|506:209,1,59.9999981689454,2|0,1:2|0:0,0:0:0:0:
404,299,105361,2,0,L|344:293,1,59.9999981689454,2|0,0:0|1:0,0:0:0:0:
258,243,105706,1,10,0:0:0:0:
258,243,105878,1,2,0:0:0:0:
173,280,106051,2,0,P|177:321|210:351,1,59.9999981689454,2|0,1:2|0:0,0:0:0:0:
207,164,106396,6,0,P|202:103|190:43,1,119.999996337891,2|0,1:2|0:0,0:0:0:0:
98,95,106913,2,0,P|86:153|81:213,1,119.999996337891,0|0,1:0|0:0,0:0:0:0:
83,308,107430,1,10,1:2:0:0:
173,280,107603,1,2,0:0:0:0:
253,335,107775,6,0,P|300:345|334:341,1,59.9999981689454,2|0,1:2|0:0,0:0:0:0:
400,292,108120,2,0,P|398:262|390:233,1,59.9999981689454,2|0,0:0|1:0,0:0:0:0:
339,147,108465,1,10,0:0:0:0:
339,147,108637,1,2,0:0:0:0:
250,187,108809,2,0,P|242:215|240:245,1,59.9999981689454,2|0,1:2|0:0,0:0:0:0:
253,335,109154,6,0,L|414:321,1,119.999996337891,2|0,1:2|0:0,0:0:0:0:
473,295,109671,2,0,L|483:175,1,119.999996337891,0|0,1:0|0:0,0:0:0:0:
494,83,110189,1,10,1:2:0:0:
264,27,110534,6,0,P|226:33|194:56,1,59.9999981689454,6|0,1:2|0:0,0:0:0:0:
162,129,110878,2,0,P|132:125|105:112,1,59.9999981689454,0|0,0:0|1:0,0:0:0:0:
7,97,111223,2,0,P|16:130|21:162,1,59.9999981689454,10|0,0:0|0:0,0:0:0:0:
37,250,111568,1,0,1:0:0:0:
37,250,111740,1,2,0:0:0:0:
128,221,111913,6,0,P|185:220|208:305,1,119.999996337891,0|0,1:0|0:0,0:0:0:0:
262,353,112430,1,0,1:0:0:0:
358,329,112603,2,0,P|360:269|367:209,1,119.999996337891,2|8,0:0|1:2,0:0:0:0:
395,126,113120,1,2,0:0:0:0:
317,46,113292,6,0,L|175:67,1,119.999996337891,0|0,1:2|0:0,0:0:0:0:
109,36,113809,1,0,1:0:0:0:
47,102,113982,2,0,P|51:141|65:172,1,59.9999981689454,8|0,0:0|0:0,0:0:0:0:
145,194,114327,2,0,P|141:233|127:264,1,59.9999981689454,0|0,1:0|0:0,0:0:0:0:
106,349,114671,6,0,P|176:327|239:319,1,119.999996337891,0|0,1:0|0:0,0:0:0:0:
310,360,115189,2,0,P|355:314|338:244,1,119.999996337891,0|0,1:0|0:0,0:0:0:0:
285,198,115705,1,10,1:2:0:0:
285,198,115878,1,2,0:0:0:0:
373,160,116050,6,0,L|432:154,1,59.9999981689454,2|0,1:2|0:0,0:0:0:0:
492,71,116396,2,0,L|432:65,1,59.9999981689454,2|0,0:0|1:0,0:0:0:0:
349,21,116740,1,10,0:0:0:0:
349,21,116912,1,2,0:0:0:0:
294,95,117085,2,0,L|234:101,1,59.9999981689454,2|0,1:2|0:0,0:0:0:0:
150,46,117430,6,0,P|92:34|32:29,1,119.999996337891,2|0,1:2|0:0,0:0:0:0:
6,127,117947,2,0,P|64:139|124:145,1,119.999996337891,0|0,1:0|0:0,0:0:0:0:
216,119,118464,1,10,1:2:0:0:
190,205,118637,1,0,0:0:0:0:
235,285,118809,6,0,P|282:295|316:291,1,59.9999981689454,2|0,1:2|0:0,0:0:0:0:
383,266,119154,2,0,L|378:201,1,59.9999981689454,0|0,0:0|1:0,0:0:0:0:
368,116,119499,1,10,0:0:0:0:
368,116,119671,1,0,0:0:0:0:
452,147,119844,2,0,L|511:151,1,59.9999981689454,2|0,1:2|0:0,0:0:0:0:
417,39,120189,6,0,P|355:22|297:58,1,119.999996337891,0|2,1:0|0:0,0:0:0:0:
260,122,120706,1,0,1:0:0:0:
259,213,120878,2,0,L|263:272,1,59.9999981689454
203,348,121223,1,10,1:2:0:0:
149,273,121396,1,0,0:0:0:0:
56,283,121568,1,4,0:1:0:0:
