osu file format v14

[General]
AudioFilename: audio.mp3
AudioLeadIn: 0
PreviewTime: 52499
Countdown: 0
SampleSet: Soft
StackLeniency: 0.7
Mode: 0
LetterboxInBreaks: 0
WidescreenStoryboard: 0

[Editor]
DistanceSpacing: 2.6
BeatDivisor: 8
GridSize: 8
TimelineZoom: 2.2

[Metadata]
Title:On & On (Short ver.)
TitleUnicode:On & On (Short ver.)
Artist:Cartoon
ArtistUnicode:Cartoon
Creator:- Mikazuki -
Version:Insane
Source:NCS Release
Tags:
BeatmapID:2165779
BeatmapSetID:1035927

[Difficulty]
HPDrainRate:5
CircleSize:4
OverallDifficulty:7.5
ApproachRate:9
SliderMultiplier:2
SliderTickRate:1

[Events]
//Background and Video events
0,0,"BG.jpg",0,0
//Break Periods
2,52870,53878
//Storyboard Layer 0 (Background)
//Storyboard Layer 1 (Fail)
//Storyboard Layer 2 (Pass)
//Storyboard Layer 3 (Foreground)
//Storyboard Layer 4 (Overlay)
//Storyboard Sound Samples

[TimingPoints]
11291,689.678954446705,4,2,0,25,1,0
11291,-100,4,2,0,25,0,0
12239,-100,4,2,0,10,0,0
12325,-100,4,2,0,25,0,0
23274,-100,4,2,0,10,0,0
23360,-100,4,2,0,25,0,0
26032,-100,4,2,0,10,0,0
26119,-100,4,2,0,25,0,0
39481,-100,4,2,0,10,0,0
39567,-100,4,2,0,25,0,0
50516,-100,4,2,0,10,0,0
50602,-100,4,2,0,25,0,0
52326,-200,4,2,0,35,0,0
54569,-100,4,2,0,45,0,0
55430,344.841459139161,4,2,0,65,1,0
55430,-100,4,3,2,65,0,1
66464,-100,4,3,2,65,0,0
67844,-100,4,3,2,65,0,1
77499,-100,4,3,2,65,0,0
82672,-100,4,2,0,10,0,0

[Colours]
Combo1 : 255,255,0
Combo2 : 255,255,255

[HitObjects]
256,192,8532,12,0,10946,0:0:0:0:
77,137,11291,6,0,L|65:25,1,100
68,318,11980,2,0,L|146:342,1,75
174,350,12325,1,0,0:0:0:0:
275,265,12497,2,0,B|262:314|262:314|273:372,1,100
374,317,13015,2,0,B|387:268|387:268|376:210,1,100
327,47,13704,1,0,0:0:0:0:
296,56,14049,6,0,P|248:71|194:69,1,100
43,39,14739,1,0,0:0:0:0:
100,160,14911,2,0,L|109:223,1,50
25,317,15256,1,0,0:0:0:0:
159,304,15429,2,0,L|258:314,1,100
344,273,15946,2,0,B|376:193|312:209|344:113,1,150
461,157,16808,6,0,P|386:151|301:173,1,150
75,302,17842,1,0,0:0:0:0:
70,334,18187,6,0,L|63:399,1,50
182,259,18532,1,0,0:0:0:0:
75,302,18705,1,0,0:0:0:0:
187,237,18877,2,0,L|203:183,1,50
141,73,19222,2,0,L|125:127,1,50
257,114,19567,6,0,P|331:110|406:142,2,150
175,252,20946,2,0,P|101:248|26:280,2,150
289,305,22153,1,0,0:0:0:0:
357,194,22325,6,0,L|370:309,1,100
458,157,23015,2,0,L|447:59,1,75
446,49,23360,1,0,0:0:0:0:
329,105,23532,2,0,P|277:111|225:105,1,100
156,45,24050,2,0,P|104:39|52:45,1,100
213,234,24912,5,0,0:0:0:0:
336,193,25084,2,0,L|438:216,1,100
299,311,25774,2,0,L|217:332,1,75
192,338,26119,1,0,0:0:0:0:
91,256,26291,2,0,L|40:237,2,50
205,193,26808,2,0,B|301:177|301:241|397:241,1,200
245,288,27843,6,0,P|232:213|251:142,1,150
385,57,28877,1,0,0:0:0:0:
367,78,29222,5,0,0:0:0:0:
451,177,29395,1,0,0:0:0:0:
346,99,29567,1,0,0:0:0:0:
427,200,29740,1,0,0:0:0:0:
297,193,29912,2,0,P|246:191|191:203,1,100,0|0,0:0|0:0,0:0:0:0:
92,276,30602,6,0,B|101:229|84:179|84:179|100:149|128:136,1,150
401,60,31636,1,0,0:0:0:0:
412,90,31981,2,0,B|439:168|391:168|418:258,1,150
174,327,33016,2,0,L|238:335,1,50
80,240,33360,6,0,L|96:24,1,200
297,122,34567,2,0,P|368:146|445:129,1,150
352,376,35429,2,0,P|368:320|368:256,1,100
288,136,35947,2,0,P|272:192|272:256,1,100
250,362,36464,2,0,P|162:337|278:248,1,300
222,295,38533,5,0,0:0:0:0:
143,191,38706,1,0,0:0:0:0:
85,307,38878,2,0,L|76:373,1,50
222,295,39223,2,0,L|231:215,1,75
235,186,39567,1,0,0:0:0:0:
169,72,39740,1,0,0:0:0:0:
59,141,39912,2,0,L|7:149,1,50
96,269,40257,2,0,B|177:256|177:256|234:194,1,150
423,60,41292,5,0,0:0:0:0:
303,9,41464,1,0,0:0:0:0:
260,132,41637,2,0,L|262:196,1,50
355,270,41981,2,0,L|353:206,1,50
336,90,42326,1,0,0:0:0:0:
210,53,42499,1,0,0:0:0:0:
164,174,42671,2,0,L|171:238,1,50
284,285,43016,2,0,P|356:261|428:285,1,150
402,124,44050,2,0,L|393:182,1,50
286,247,44395,6,0,P|359:336|438:305,1,200
216,346,45602,2,0,L|198:192,1,150
129,49,46464,2,0,L|28:72,1,100
140,144,46982,2,0,L|241:167,1,100
256,40,47499,2,0,P|367:95|266:169,1,300
295,102,49568,5,0,0:0:0:0:
167,78,49740,1,0,0:0:0:0:
207,201,49913,2,0,L|200:255,1,50
308,323,50258,2,0,L|395:335,1,75
418,337,50602,1,0,0:0:0:0:
466,215,50775,1,0,0:0:0:0:
338,236,50947,2,0,L|281:249,1,50
202,149,51292,2,0,L|190:363,1,200
72,236,52326,2,0,L|64:184,1,50
289,53,54569,6,0,L|399:82,1,100
472,174,55086,1,0,0:0:0:0:
274,244,55430,6,0,B|254:144|254:144|290:48,1,200,4|0,0:0|0:0,0:0:0:0:
369,155,55947,1,4,0:0:0:0:
172,224,56119,2,0,B|124:209|124:209|64:218,1,100,8|0,0:0|0:0,0:0:0:0:
188,132,56464,2,0,B|198:82|198:82|174:34,1,100,4|0,0:0|0:0,0:0:0:0:
68,104,56809,5,4,0:0:0:0:
160,254,56981,1,0,0:0:0:0:
314,198,57154,1,0,0:0:0:0:
186,111,57326,2,0,P|139:96|86:102,1,100,4|0,0:0|0:0,0:0:0:0:
210,30,57672,1,0,0:0:0:0:
272,168,57843,2,0,L|280:272,1,100,4|0,0:0|0:0,0:0:0:0:
192,368,58188,6,0,L|176:168,1,200,4|0,0:0|0:0,0:0:0:0:
67,193,58706,1,4,0:0:0:0:
264,264,58878,2,0,P|312:274|368:264,1,100,8|0,0:0|0:0,0:0:0:0:
512,143,59223,2,0,P|464:133|408:143,1,100,4|0,0:0|0:0,0:0:0:0:
255,182,59568,5,4,0:0:0:0:
302,45,59741,1,0,0:0:0:0:
396,146,59913,1,0,0:0:0:0:
344,272,60085,2,0,B|248:264|248:328|144:312,1,200,4|0,0:0|0:0,0:0:0:0:
53,146,60602,2,0,L|61:258,1,100,4|0,0:0|0:0,0:0:0:0:
199,80,60947,6,0,B|248:72|248:72|318:93,1,100,4|0,0:0|0:0,0:0:0:0:
430,107,61293,1,0,0:0:0:0:
328,16,61464,1,4,0:0:0:0:
230,127,61637,2,0,L|238:327,1,200,8|4,0:0|0:0,0:0:0:0:
343,273,62155,1,0,0:0:0:0:
137,215,62326,6,0,P|88:213|33:231,1,100,4|0,0:0|0:0,0:0:0:0:
105,337,62672,1,0,0:0:0:0:
245,260,62844,2,0,P|294:258|349:276,1,100,4|0,0:0|0:0,0:0:0:0:
445,347,63189,1,0,0:0:0:0:
496,232,63362,2,0,L|504:128,1,100,4|0,0:0|0:0,0:0:0:0:
392,32,63706,5,4,0:0:0:0:
361,174,63879,1,0,0:0:0:0:
476,113,64051,1,0,0:0:0:0:
298,84,64223,1,4,0:0:0:0:
192,209,64395,2,0,P|93:241|-3:207,1,200,8|4,0:0|0:0,0:0:0:0:
95,91,64913,1,0,0:0:0:0:
248,111,65085,6,0,B|270:207|270:207|249:318,1,200,4|4,0:0|0:0,0:0:0:0:
152,384,65602,2,0,B|130:288|130:288|151:177,1,200,4|0,0:0|0:0,0:0:0:0:
217,28,66120,2,0,P|267:28|312:51,1,100,4|0,0:0|0:0,0:0:0:0:
430,150,66464,1,4,0:0:0:0:
444,335,67844,6,0,L|225:318,1,200,4|0,0:0|0:0,0:0:0:0:
104,240,68361,2,0,B|128:184|104:128|104:128|80:80|96:32,1,200,4|0,0:0|0:0,0:0:0:0:
232,64,68878,2,0,L|336:80,1,100,4|0,0:0|0:0,0:0:0:0:
437,179,69223,5,4,0:0:0:0:
313,301,69396,1,0,0:0:0:0:
451,300,69569,1,0,0:0:0:0:
316,181,69741,1,4,0:0:0:0:
183,260,69913,2,0,P|175:310|183:362,1,100,8|0,0:0|0:0,0:0:0:0:
72,243,70258,1,4,0:0:0:0:
166,74,70603,5,4,0:0:0:0:
292,181,70776,1,0,0:0:0:0:
168,189,70948,1,0,0:0:0:0:
291,73,71120,2,0,P|341:66|396:74,1,100,4|0,0:0|0:0,0:0:0:0:
222,19,71465,1,0,0:0:0:0:
344,176,71637,2,0,L|360:288,1,100,4|0,0:0|0:0,0:0:0:0:
183,316,71982,6,0,P|274:352|365:312,1,200,4|0,0:0|0:0,0:0:0:0:
446,179,72499,1,4,0:0:0:0:
266,113,72672,2,0,L|157:125,1,100,8|0,0:0|0:0,0:0:0:0:
211,27,73016,1,4,0:0:0:0:
78,138,73190,1,0,0:0:0:0:
240,206,73361,6,0,B|339:219|339:219|434:188,1,200,4|0,0:0|0:0,0:0:0:0:
321,86,73878,2,0,B|222:73|222:73|127:104,1,200,4|0,0:0|0:0,0:0:0:0:
55,206,74396,2,0,L|27:99,1,100,4|0,0:0|0:0,0:0:0:0:
109,321,74741,5,4,0:0:0:0:
240,197,74914,1,0,0:0:0:0:
398,285,75085,2,0,L|414:389,1,100,0|4,0:0|0:0,0:0:0:0:
260,326,75430,2,0,L|244:227,1,100,8|0,0:0|0:0,0:0:0:0:
256,88,75775,1,4,0:0:0:0:
263,64,76120,5,4,0:0:0:0:
370,186,76292,1,0,0:0:0:0:
243,177,76465,1,4,0:0:0:0:
380,81,76637,1,0,0:0:0:0:
488,208,76809,5,4,0:0:0:0:
353,300,76982,1,0,0:0:0:0:
285,93,77154,1,4,0:0:0:0:
463,125,77327,1,0,0:0:0:0:
448,289,77499,1,4,0:0:0:0:
256,192,77672,12,0,82673,0:0:0:0:
