osu file format v14

[General]
AudioFilename: audio.mp3
AudioLeadIn: 0
PreviewTime: 52499
Countdown: 0
SampleSet: Soft
StackLeniency: 0.7
Mode: 0
LetterboxInBreaks: 0
WidescreenStoryboard: 1

[Editor]
DistanceSpacing: 1.9
BeatDivisor: 4
GridSize: 32
TimelineZoom: 2.2

[Metadata]
Title:On & On (Short ver.)
TitleUnicode:On & On (Short ver.)
Artist:Cartoon
ArtistUnicode:Cartoon
Creator:- Mikazuki -
Version:Extra
Source:NCS Release
Tags:
BeatmapID:2165777
BeatmapSetID:1035927

[Difficulty]
HPDrainRate:5
CircleSize:3.2
OverallDifficulty:8.5
ApproachRate:9.2
SliderMultiplier:2.4
SliderTickRate:1

[Events]
//Background and Video events
0,0,"BG.jpg",0,0
//Break Periods
//Storyboard Layer 0 (Background)
//Storyboard Layer 1 (Fail)
//Storyboard Layer 2 (Pass)
//Storyboard Layer 3 (Foreground)
//Storyboard Layer 4 (Overlay)
//Storyboard Sound Samples

[TimingPoints]
11291,689.678954446705,4,2,0,25,1,0
11291,-100,4,2,0,25,0,0
52326,-200,4,2,0,35,0,0
54569,-80,4,2,0,45,0,0
55430,344.841459139161,4,2,0,65,1,0
55430,-100,4,3,2,65,0,1
66464,-100,4,3,2,65,0,0
67844,-100,4,3,2,65,0,1
77499,-100,4,3,2,65,0,0
82672,-100,4,2,0,10,0,0

[Colours]
Combo1 : 255,255,0
Combo2 : 255,255,255

[HitObjects]
256,192,8532,12,0,10946,0:0:0:0:
380,39,11291,6,0,P|368:96|378:173,1,120
466,310,11980,2,0,L|367:326,1,90
337,331,12325,1,0,0:0:0:0:
196,163,12497,2,0,L|205:36,1,120
14,215,13015,2,0,B|128:184|128:288|256:239,1,240
348,72,14049,6,0,P|406:62|478:76,1,120
405,205,14739,1,0,0:0:0:0:
353,292,14911,2,0,L|359:353,1,60
239,276,15256,1,0,0:0:0:0:
170,201,15429,2,0,L|162:134,1,60
32,74,15773,2,0,B|93:62|142:22|142:22|198:40|265:24,1,240
360,28,16808,6,0,P|334:112|384:208,1,180
459,106,17842,1,0,0:0:0:0:
472,128,18187,5,0,0:0:0:0:
512,288,18360,1,0,0:0:0:0:
368,224,18532,1,0,0:0:0:0:
344,360,18705,1,0,0:0:0:0:
232,280,18877,2,0,L|160:287,1,60
15,170,19222,2,0,L|83:173,1,60
169,59,19567,6,0,B|187:176|187:176|171:240,1,180
52,333,20601,1,0,0:0:0:0:
52,333,20946,2,0,P|138:311|228:333,1,180
354,257,21981,2,0,L|346:321,1,60
282,155,22325,6,0,L|298:35,1,120
162,47,23015,2,0,P|115:32|66:43,1,90
38,50,23360,1,0,0:0:0:0:
108,173,23532,2,0,P|109:231|93:292,1,120
208,360,24050,2,0,L|224:112,1,240
164,28,24912,1,0,0:0:0:0:
327,130,25084,6,0,P|386:143|455:130,1,120
313,230,25774,2,0,P|302:280|309:326,1,90
321,356,26119,1,0,0:0:0:0:
443,282,26291,1,0,0:0:0:0:
376,160,26463,2,0,L|384:96,1,60
266,40,26808,2,0,B|212:71|149:65|149:65|116:119|138:182,1,240
216,288,27843,6,0,P|130:316|40:308,1,180
86,154,28877,2,0,L|78:50,1,90
77,29,29222,5,0,0:0:0:0:
297,77,29395,1,0,0:0:0:0:
184,243,29567,1,0,0:0:0:0:
152,131,29739,1,0,0:0:0:0:
241,64,29912,2,0,L|252:-7,1,60
312,159,30257,2,0,L|318:219,1,60
357,54,30602,6,0,B|261:22|261:86|173:62,1,180
150,141,31636,1,0,0:0:0:0:
150,141,31981,2,0,P|174:226|140:313,1,180
289,339,33015,2,0,L|214:317,1,60
33,219,33360,6,0,B|154:209|154:209|273:243,1,240
132,355,34567,2,0,L|141:175,1,180
64,100,35429,2,0,P|119:74|184:78,1,120
299,187,35947,2,0,P|244:213|179:209,1,120
84,143,36464,2,0,B|44:253|112:272|69:377|69:377|12:358|-16:310|-10:273,1,360
327,301,38533,5,0,0:0:0:0:
461,342,38705,1,0,0:0:0:0:
427,202,38878,2,0,P|434:150|456:111,1,90
512,37,39222,2,0,L|416:29,1,90
381,27,39567,1,0,0:0:0:0:
251,114,39740,1,0,0:0:0:0:
357,213,39912,2,0,L|350:290,1,60
275,348,40257,2,0,P|216:335|155:342,1,120
81,116,41292,5,0,0:0:0:0:
142,252,41464,1,0,0:0:0:0:
226,137,41637,2,0,P|235:88|218:42,1,90
144,96,41981,2,0,L|47:103,1,90
15,107,42326,1,0,0:0:0:0:
70,245,42499,1,0,0:0:0:0:
205,182,42671,2,0,L|266:198,1,60
368,152,43016,2,0,P|363:91|381:33,1,120
384,312,44050,6,0,P|416:308|456:280,1,60
381,207,44395,2,0,P|273:162|161:223,1,240
277,305,45430,2,0,B|281:212|303:128|303:128|270:124|239:153,1,240
72,40,46464,2,0,B|66:100|66:100|80:168,1,120
208,232,46981,2,0,B|214:173|214:173|200:104,1,120
84,185,47499,2,0,B|56:170|56:170|189:138|189:274|381:210,1,360
261,126,49568,5,0,0:0:0:0:
377,43,49740,1,0,0:0:0:0:
410,178,49913,2,0,P|397:223|400:272,1,90
447,354,50257,2,0,L|345:366,1,90
313,367,50602,1,0,0:0:0:0:
237,245,50775,1,0,0:0:0:0:
107,312,50947,2,0,L|99:376,1,60
32,224,51292,2,0,P|143:180|260:206,1,240
384,120,52326,6,0,L|372:52,1,60
392,320,54568,6,0,L|456:343,1,60
254,352,55085,1,0,0:0:0:0:
242,89,55430,6,0,B|277:152|251:208|251:208|221:264|245:326,1,240,4|0,0:0|0:0,0:0:0:0:
67,173,55947,1,4,0:0:0:0:
349,61,56119,2,0,P|408:46|469:53,1,120,8|0,0:0|0:0,0:0:0:0:
403,250,56464,2,0,L|395:378,1,120,4|0,0:0|0:0,0:0:0:0:
258,257,56809,5,4,0:0:0:0:
6,160,56981,1,0,0:0:0:0:
73,360,57154,1,0,0:0:0:0:
172,119,57326,2,0,P|175:59|156:0,1,120,4|0,0:0|0:0,0:0:0:0:
0,83,57672,1,0,0:0:0:0:
174,253,57843,2,0,L|310:269,1,120,4|0,0:0|0:0,0:0:0:0:
465,164,58188,6,0,B|210:134,1,240,4|0,0:0|0:0,0:0:0:0:
48,59,58706,1,4,0:0:0:0:
220,232,58878,2,0,P|222:293|207:353,1,120,8|0,0:0|0:0,0:0:0:0:
12,161,59223,2,0,P|71:151|138:159,1,120,4|0,0:0|0:0,0:0:0:0:
283,208,59568,5,4,0:0:0:0:
425,359,59740,1,0,0:0:0:0:
488,149,59913,1,0,0:0:0:0:
331,47,60085,2,0,B|207:34|207:106|87:74,1,240,4|0,0:0|0:0,0:0:0:0:
63,242,60602,2,0,L|79:362,1,120,4|0,0:0|0:0,0:0:0:0:
330,305,60947,6,0,P|389:299|448:311,1,120,4|0,0:0|0:0,0:0:0:0:
455,111,61293,1,0,0:0:0:0:
266,34,61464,1,4,0:0:0:0:
98,126,61637,2,0,B|88:247|88:247|114:366,1,240,8|4,0:0|0:0,0:0:0:0:
0,320,62155,1,0,0:0:0:0:
230,213,62326,6,0,P|290:211|350:229,1,120,4|0,0:0|0:0,0:0:0:0:
338,369,62671,1,0,0:0:0:0:
448,130,62844,2,0,L|432:10,1,120,4|0,0:0|0:0,0:0:0:0:
484,285,63188,1,0,0:0:0:0:
294,128,63359,2,0,P|235:120|174:128,1,120,4|0,0:0|0:0,0:0:0:0:
43,40,63706,5,4,0:0:0:0:
16,324,63879,1,0,0:0:0:0:
160,132,64051,1,0,0:0:0:0:
217,357,64223,1,4,0:0:0:0:
332,210,64395,2,0,P|392:202|460:218,1,120,8|0,0:0|0:0,0:0:0:0:
217,357,64740,2,0,P|157:366|94:355,1,120,4|0,0:0|0:0,0:0:0:0:
0,207,65085,5,4,0:0:0:0:
271,114,65257,1,0,0:0:0:0:
91,25,65430,1,0,0:0:0:0:
184,255,65602,2,0,P|192:311|184:375,1,120,4|0,0:0|0:0,0:0:0:0:
36,312,65947,5,0,0:0:0:0:
128,32,66120,1,0,0:0:0:0:
416,128,66292,1,0,0:0:0:0:
320,384,66464,1,4,0:0:0:0:
395,183,67844,6,0,B|416:124|394:36|394:36|440:48|476:93,1,240,4|0,0:0|0:0,0:0:0:0:
461,344,68361,2,0,B|401:350|345:370|345:370|310:317|253:286,1,240,4|0,0:0|0:0,0:0:0:0:
138,42,68878,2,0,P|142:104|119:169,1,120,4|0,0:0|0:0,0:0:0:0:
37,350,69223,5,4,0:0:0:0:
8,71,69396,1,0,0:0:0:0:
293,197,69569,1,0,0:0:0:0:
0,217,69741,1,4,0:0:0:0:
182,53,69913,2,0,B|241:45|241:45|302:60,1,120,8|0,0:0|0:0,0:0:0:0:
491,145,70258,1,4,0:0:0:0:
103,67,70603,5,4,0:0:0:0:
358,323,70776,1,0,0:0:0:0:
95,329,70948,1,0,0:0:0:0:
283,120,71120,2,0,P|300:61|284:3,1,120,4|0,0:0|0:0,0:0:0:0:
78,57,71465,1,0,0:0:0:0:
6,246,71637,2,0,B|2:308|2:308|19:372,1,120,4|0,0:0|0:0,0:0:0:0:
338,311,71982,6,0,B|381:355|451:350|451:350|477:294|458:226,1,240,4|0,0:0|0:0,0:0:0:0:
371,86,72499,1,4,0:0:0:0:
185,28,72672,2,0,P|125:24|64:35,1,120,8|0,0:0|0:0,0:0:0:0:
132,174,73016,1,4,0:0:0:0:
275,348,73190,1,0,0:0:0:0:
406,164,73361,6,0,B|431:107|419:44|419:44|359:63|300:36,1,240,4|0,0:0|0:0,0:0:0:0:
41,199,73878,2,0,B|16:256|28:298|28:298|112:299|146:228,1,240,4|0,0:0|0:0,0:0:0:0:
288,78,74396,2,0,B|228:70|228:70|170:87,1,120,4|0,0:0|0:0,0:0:0:0:
502,77,74741,5,4,0:0:0:0:
255,304,74914,1,0,0:0:0:0:
504,316,75085,1,0,0:0:0:0:
288,78,75258,1,4,0:0:0:0:
73,210,75430,2,0,P|62:269|64:333,1,120,8|0,0:0|0:0,0:0:0:0:
266,373,75775,1,4,0:0:0:0:
290,358,76120,5,4,0:0:0:0:
402,33,76292,1,0,0:0:0:0:
171,120,76465,5,4,0:0:0:0:
512,259,76637,1,0,0:0:0:0:
168,301,76809,5,4,0:0:0:0:
509,110,76982,1,0,0:0:0:0:
259,12,77155,5,4,0:0:0:0:
434,357,77327,1,0,0:0:0:0:
40,327,77499,1,4,0:0:0:0:
256,192,77672,12,0,82672,0:0:0:0:
