osu file format v14

[General]
AudioFilename: audio.mp3
AudioLeadIn: 0
PreviewTime: -1
Countdown: 0
SampleSet: None
StackLeniency: 0.8
Mode: 0
LetterboxInBreaks: 1
WidescreenStoryboard: 0

[Editor]
Bookmarks: 33775,55844
DistanceSpacing: 0.8
BeatDivisor: 8
GridSize: 4
TimelineZoom: 0.9

[Metadata]
Title:I Remember U
TitleUnicode:I Remember U
Artist:Cartoon
ArtistUnicode:Cartoon feat. Jüri Pootsman
Creator:OSUerato
Version:Hard
Source:https://www.youtube.com/watch?v=3wjb3HtD32c
Tags:dnb Cartoon
BeatmapID:1452387
BeatmapSetID:686206

[Difficulty]
HPDrainRate:5
CircleSize:5
OverallDifficulty:6
ApproachRate:8
SliderMultiplier:1.6
SliderTickRate:1

[Events]
//Background and Video events
0,0,"170335.jpg",0,0
//Break Periods
//Storyboard Layer 0 (Background)
//Storyboard Layer 1 (Fail)
//Storyboard Layer 2 (Pass)
//Storyboard Layer 3 (Foreground)
//Storyboard Sound Samples

[TimingPoints]
-18,344.827586206897,4,1,0,70,1,0

[Colours]
Combo1 : 145,229,103
Combo2 : 255,213,128
Combo3 : 140,236,255

[HitObjects]
272,64,33775,6,0,P|316:68|408:152,1,160
420,232,34464,1,0,0:0:0:0:
328,208,34809,2,0,P|300:184|292:140,1,80
288,96,35154,1,0,0:0:0:0:
196,72,35499,6,0,P|128:68|52:132,1,160
56,176,36016,1,0,0:0:0:0:
96,208,36188,2,0,P|156:216|212:160,1,140
240,100,36878,1,0,0:0:0:0:
280,140,37050,1,0,0:0:0:0:
316,184,37223,2,0,P|324:224|288:260,2,80
220,244,37913,6,0,P|168:252|128:160,1,160
168,132,38430,1,0,0:0:0:0:
224,116,38602,2,0,P|260:152|288:264,1,160
236,276,39119,1,0,0:0:0:0:
184,288,39292,1,0,0:0:0:0:
96,220,39637,2,0,P|72:196|68:148,2,80
148,240,40154,1,0,0:0:0:0:
204,232,40326,6,0,P|256:208|356:248,1,160
360,128,41016,1,0,0:0:0:0:
316,92,41188,1,0,0:0:0:0:
260,92,41361,2,0,P|204:104|176:116,2,80
220,196,42050,1,0,0:0:0:0:
92,120,42395,6,0,P|40:144|40:248,1,160
92,200,42913,2,0,P|136:176|144:84,1,140
84,68,43430,1,0,0:0:0:0:
136,48,43602,2,0,P|176:52|220:48,1,80
288,60,43947,6,0,P|328:84|360:188,1,160
324,228,44464,1,0,0:0:0:0:
268,240,44637,1,0,0:0:0:0:
212,236,44809,2,0,P|164:188|172:100,2,160
268,240,45671,1,0,0:0:0:0:
320,220,45844,1,0,0:0:0:0:
344,112,46188,6,0,P|316:60|208:40,1,160
180,68,46706,1,0,0:0:0:0:
136,104,46878,2,0,P|92:156|96:252,1,160
204,268,47568,6,0,P|256:236|280:140,1,160
332,124,48085,2,0,P|324:196|328:216,1,80
280,236,48430,2,0,P|216:244|192:232,1,80
152,212,48775,1,0,0:0:0:0:
132,156,48947,6,0,P|148:104|184:100,1,80
224,88,49292,2,0,P|288:96|344:168,1,160
328,224,49809,1,0,0:0:0:0:
280,252,49982,2,0,P|192:276|144:236,1,160
108,196,50499,1,0,0:0:0:0:
100,124,50671,5,0,0:0:0:0:
100,124,50844,1,0,0:0:0:0:
148,96,51016,6,0,L|200:160,1,80
252,180,51361,5,0,0:0:0:0:
254,180,51533,1,0,0:0:0:0:
260,236,51706,6,0,L|332:280,1,80
304,88,52050,5,0,0:0:0:0:
304,88,52223,1,0,0:0:0:0:
324,140,52395,6,0,L|240:184,1,80
212,140,52740,5,0,0:0:0:0:
212,140,52913,1,0,0:0:0:0:
156,136,53085,6,0,P|104:144|80:164,1,80
68,216,53430,2,0,P|108:244|136:256,1,80
168,256,53688,1,0,0:0:0:0:
168,256,53775,1,0,0:0:0:0:
224,264,53947,2,0,P|264:240|260:208,1,80
252,156,54292,5,0,0:0:0:0:
196,148,54464,1,0,0:0:0:0:
296,96,54809,1,0,0:0:0:0:
252,64,54982,1,0,0:0:0:0:
196,60,55154,2,0,P|132:72|116:84,1,80
84,124,55499,1,0,0:0:0:0:
140,224,55844,6,0,P|176:224|224:208,1,80
264,180,56188,1,0,0:0:0:0:
264,180,56361,1,0,0:0:0:0:
312,152,56533,2,0,P|304:100|280:96,1,80
228,100,56878,1,0,0:0:0:0:
172,104,57050,1,0,0:0:0:0:
120,124,57223,6,0,P|104:188|108:212,1,80
148,240,57568,1,0,0:0:0:0:
196,268,57740,1,0,0:0:0:0:
252,280,57913,2,0,P|304:268|328:240,1,80
348,200,58257,1,0,0:0:0:0:
372,148,58430,1,0,0:0:0:0:
348,96,58602,6,0,P|320:60|272:44,1,80
232,48,58947,1,0,0:0:0:0:
176,52,59119,1,0,0:0:0:0:
120,64,59292,2,0,P|56:96|44:108,1,80
44,156,59637,1,0,0:0:0:0:
48,212,59809,1,0,0:0:0:0:
80,256,59982,6,0,P|112:292|144:296,2,80
128,228,60499,1,0,0:0:0:0:
180,212,60671,2,0,P|220:200|252:180,1,80
300,148,61016,2,0,P|320:116|308:64,1,80
264,100,61361,1,0,0:0:0:0:
208,100,61533,1,0,0:0:0:0:
152,120,61706,6,0,P|108:148|88:188,2,80
160,176,62223,1,0,0:0:0:0:
160,176,62395,1,0,0:0:0:0:
252,240,62740,2,0,P|296:248|332:236,1,80
376,208,63085,2,0,P|416:176|428:144,1,80
416,96,63430,1,0,0:0:0:0:
364,72,63602,6,0,P|328:60|276:68,2,80
344,124,64119,2,0,P|320:156|272:160,1,80
228,160,64464,2,0,P|184:160|144:180,2,80
280,180,64982,1,0,0:0:0:0:
332,200,65154,1,0,0:0:0:0:
376,232,65326,2,0,P|384:256|344:296,2,80
240,288,65844,6,0,P|196:284|152:256,1,80
128,224,66188,1,0,0:0:0:0:
128,224,66361,1,0,0:0:0:0:
104,172,66533,2,0,P|104:132|136:112,2,80
140,224,67050,6,0,P|168:248|216:252,1,80
264,220,67395,1,0,0:0:0:0:
316,180,67568,2,0,P|336:144|328:108,1,80
268,132,67913,1,0,0:0:0:0:
268,132,68085,1,0,0:0:0:0:
212,100,68257,6,0,P|156:100|136:76,2,80
272,76,68775,1,0,0:0:0:0:
336,76,68947,2,0,P|368:84|408:112,1,80
412,176,69292,2,0,P|416:232|392:256,1,80
344,272,69637,1,0,0:0:0:0:
344,272,69809,1,0,0:0:0:0:
280,288,69982,6,0,P|232:296|192:280,2,80
272,224,70499,1,0,0:0:0:0:
256,160,70671,2,0,P|240:132|120:112,1,160
72,148,71188,1,0,0:0:0:0:
116,196,71361,2,0,P|144:224|184:220,2,80
124,132,71878,2,0,P|156:112|200:116,1,80
260,132,72223,1,0,0:0:0:0:
312,172,72395,6,0,P|336:200|344:232,1,60
276,264,72740,2,0,P|264:224|232:192,1,80
184,160,73085,1,0,0:0:0:0:
188,96,73257,2,0,P|208:64|256:56,1,80
372,88,73775,2,0,P|372:128|316:236,1,160
260,256,74292,1,0,0:0:0:0:
260,256,74464,1,0,0:0:0:0:
200,232,74637,6,0,P|152:200|148:176,2,80
212,168,75154,1,0,0:0:0:0:
212,168,75326,1,0,0:0:0:0:
268,132,75499,2,0,P|304:132|356:232,1,160
260,312,76188,2,0,P|224:316|176:284,1,80
232,252,76533,2,0,P|284:256|320:280,1,80
364,240,76878,5,0,0:0:0:0:
364,240,77050,1,0,0:0:0:0:
320,196,77223,2,0,P|288:168|276:124,1,80
248,76,77568,2,0,P|212:68|144:224,1,240
356,84,78947,5,0,0:0:0:0:
284,108,79292,2,0,P|244:128|208:152,1,80
168,192,79637,2,0,P|156:244|184:264,1,80
228,232,79982,1,0,0:0:0:0:
228,232,80154,1,0,0:0:0:0:
292,244,80326,2,0,P|336:268|340:312,2,80
196,160,81016,6,0,P|152:144|136:112,1,80
156,56,81361,1,0,0:0:0:0:
220,68,81533,2,0,P|264:96|272:120,1,80
216,152,81878,1,0,0:0:0:0:
168,196,82050,2,0,P|144:224|132:264,2,80
216,152,82568,1,0,0:0:0:0:
272,120,82740,6,0,P|300:124|344:160,1,80
360,216,83085,1,0,0:0:0:0:
360,216,83257,1,0,0:0:0:0:
324,268,83430,2,0,P|288:292|184:256,1,160
148,208,83947,1,0,0:0:0:0:
120,152,84119,6,0,P|116:116|164:92,1,80
208,72,84464,2,0,P|256:68|296:88,1,80
332,120,84809,1,0,0:0:0:0:
332,120,84982,1,0,0:0:0:0:
336,184,85154,2,0,P|340:232|308:256,2,80
276,204,85671,5,0,0:0:0:0:
216,184,85844,2,0,P|172:160|204:68,1,160
232,124,86361,2,0,P|272:96|272:52,2,80
168,128,86878,1,0,0:0:0:0:
116,168,87050,2,0,P|88:220|96:252,1,80
124,292,87395,1,0,0:0:0:0:
184,308,87568,2,0,P|232:296|304:200,1,160
312,152,88085,1,0,0:0:0:0:
372,176,88257,6,0,P|368:224|348:256,1,80
300,288,88602,2,0,P|272:248|284:204,1,80
296,156,88947,1,0,0:0:0:0:
296,156,89119,1,0,0:0:0:0:
256,104,89292,2,0,P|224:88|176:84,2,80
228,160,89809,1,0,0:0:0:0:
200,220,89982,5,0,0:0:0:0:
200,220,90154,2,0,P|192:248|232:288,1,80
284,292,90499,2,0,P|312:280|344:240,1,80
328,180,90844,1,0,0:0:0:0:
288,128,91016,2,0,P|252:96|144:84,1,160
140,148,91533,2,0,P|184:144|216:160,2,80
140,212,92050,1,0,0:0:0:0:
140,212,92223,1,0,0:0:0:0:
200,232,92395,6,0,P|248:240|288:232,1,80
320,188,92740,2,0,P|328:152|312:112,1,80
388,76,93085,2,0,P|416:160|400:240,1,160
356,272,93602,2,0,P|304:292|280:284,1,80
216,244,93947,1,0,0:0:0:0:
172,196,94119,2,0,P|152:168|152:124,1,80
196,76,94464,2,0,P|244:56|360:76,1,160
396,112,94982,1,0,0:0:0:0:
332,124,95154,6,0,P|288:128|240:148,1,80
196,164,95499,1,0,0:0:0:0:
196,164,95671,1,0,0:0:0:0:
140,200,95844,2,0,P|124:224|152:264,2,80
100,148,96361,1,0,0:0:0:0:
152,108,96533,2,0,P|192:80|308:76,2,160
84,216,97568,1,0,0:0:0:0:
84,216,97740,1,0,0:0:0:0:
100,280,97913,6,0,P|128:304|180:308,1,80
228,288,98257,2,0,P|280:272|336:184,1,160
324,116,99119,2,0,L|352:84,2,40
