osu file format v14

[General]
AudioFilename: audio.mp3
AudioLeadIn: 0
PreviewTime: 74829
Countdown: 0
SampleSet: Normal
StackLeniency: 0.7
Mode: 1
LetterboxInBreaks: 0
EpilepsyWarning: 1
WidescreenStoryboard: 1

[Editor]
Bookmarks: 10972,32915,54858,65829,76801,87772,97372,98743
DistanceSpacing: 2.7
BeatDivisor: 4
GridSize: 16
TimelineZoom: 0.2999998

[Metadata]
Title:C U Again feat. Mikk Mae (Cartoon vs. Futuristik VIP) (Cut Ver.)
TitleUnicode:C U Again feat. Mikk Mäe (Cartoon vs. Futuristik VIP) (Cut Ver.)
Artist:Cartoon
ArtistUnicode:Cartoon
Creator:Tachibana_
Version:Muzukashii
Source:
Tags:see you english DnB Drum n and Bass d'n'b & 'n' electronic edm ncs nocopyrightsounds pop dance music the best of 2016 Ryxliee Swake
BeatmapID:3521101
BeatmapSetID:1722430

[Difficulty]
HPDrainRate:6
CircleSize:2
OverallDifficulty:4
ApproachRate:9
SliderMultiplier:1.4
SliderTickRate:1

[Events]
//Background and Video events
0,0,"bg.jpg",0,0
//Break Periods
//Storyboard Layer 0 (Background)
//Storyboard Layer 1 (Fail)
//Storyboard Layer 2 (Pass)
//Storyboard Layer 3 (Foreground)
//Storyboard Layer 4 (Overlay)
//Storyboard Sound Samples

[TimingPoints]
1,342.857142857143,4,1,0,76,1,0
32915,-100,4,1,0,79,0,0
54858,-100,4,1,0,88,0,0
76801,-100,4,1,0,92,0,1
97372,-100,4,1,0,92,0,0
98743,-100,4,1,0,40,0,0

[HitObjects]
256,192,10972,5,0,1:0:0:0:
256,192,11658,1,8,1:0:0:0:
256,192,12001,1,8,1:0:0:0:
256,192,12172,1,0,1:0:0:0:
256,192,12258,1,0,1:0:0:0:
256,192,12343,1,0,1:0:0:0:
256,192,12686,1,0,1:0:0:0:
256,192,13029,1,8,1:0:0:0:
256,192,13372,1,8,1:0:0:0:
256,192,13715,1,0,1:0:0:0:
256,192,15086,1,8,1:0:0:0:
256,192,15772,1,0,1:0:0:0:
256,192,16458,1,8,1:0:0:0:
256,192,16543,1,8,1:0:0:0:
256,192,16629,1,8,1:0:0:0:
256,192,16801,1,0,1:0:0:0:
256,192,17143,1,8,1:0:0:0:
256,192,17486,1,8,1:0:0:0:
256,192,17658,1,0,1:0:0:0:
256,192,17743,1,0,1:0:0:0:
256,192,17829,1,0,1:0:0:0:
256,192,18172,1,0,1:0:0:0:
256,192,18515,1,8,1:0:0:0:
256,192,18858,1,8,1:0:0:0:
256,192,21601,1,0,1:0:0:0:
256,192,21943,1,8,1:0:0:0:
256,192,22029,1,8,1:0:0:0:
256,192,22115,1,8,1:0:0:0:
256,192,22629,1,8,1:0:0:0:
256,192,22972,1,8,1:0:0:0:
256,192,23143,1,0,1:0:0:0:
256,192,23229,1,0,1:0:0:0:
256,192,23315,1,0,1:0:0:0:
256,192,23658,1,0,1:0:0:0:
256,192,24001,1,8,1:0:0:0:
256,192,24343,1,8,1:0:0:0:
256,192,24686,1,0,1:0:0:0:
256,192,26058,1,8,1:0:0:0:
256,192,26743,1,0,1:0:0:0:
256,192,27429,1,8,1:0:0:0:
256,192,27515,1,8,1:0:0:0:
256,192,27601,1,8,1:0:0:0:
256,192,27772,1,0,1:0:0:0:
256,192,28115,1,8,1:0:0:0:
256,192,28458,1,8,1:0:0:0:
256,192,28629,1,0,1:0:0:0:
256,192,28715,1,0,1:0:0:0:
256,192,28801,1,0,1:0:0:0:
256,192,29143,1,0,1:0:0:0:
256,192,29486,1,8,1:0:0:0:
256,192,29829,1,8,1:0:0:0:
256,192,30001,1,0,1:0:0:0:
256,192,30172,1,0,1:0:0:0:
256,192,32915,1,12,1:0:0:0:
256,192,33601,1,8,1:0:0:0:
256,192,34115,1,0,1:0:0:0:
256,192,34201,1,0,1:0:0:0:
256,192,34286,1,0,1:0:0:0:
256,192,34801,1,0,1:0:0:0:
256,192,34972,1,8,1:0:0:0:
256,192,35315,1,0,1:0:0:0:
256,192,35658,1,8,1:0:0:0:
256,192,36001,1,0,1:0:0:0:
256,192,36686,1,8,1:0:0:0:
256,192,36858,1,8,1:0:0:0:
256,192,37029,1,0,1:0:0:0:
256,192,37372,1,0,1:0:0:0:
256,192,37715,1,8,1:0:0:0:
256,192,38058,1,0,1:0:0:0:
256,192,38401,1,0,1:0:0:0:
256,192,38486,1,0,1:0:0:0:
256,192,38572,1,0,1:0:0:0:
256,192,39086,1,8,1:0:0:0:
256,192,39429,1,0,1:0:0:0:
256,192,39601,1,8,1:0:0:0:
256,192,39686,1,8,1:0:0:0:
256,192,39772,1,8,1:0:0:0:
256,192,40458,1,8,1:0:0:0:
256,192,40972,1,8,1:0:0:0:
256,192,41143,1,0,1:0:0:0:
256,192,41486,1,0,1:0:0:0:
256,192,42172,1,0,1:0:0:0:
256,192,43886,1,8,1:0:0:0:
256,192,43972,1,8,1:0:0:0:
256,192,44058,1,8,1:0:0:0:
256,192,44401,1,0,1:0:0:0:
256,192,44572,1,8,1:0:0:0:
256,192,44915,1,8,1:0:0:0:
256,192,45086,1,0,1:0:0:0:
256,192,45172,1,0,1:0:0:0:
256,192,45258,1,0,1:0:0:0:
256,192,45772,1,0,1:0:0:0:
256,192,45943,1,8,1:0:0:0:
256,192,46629,1,8,1:0:0:0:
256,192,46972,1,0,1:0:0:0:
256,192,47658,1,0,1:0:0:0:
256,192,48001,1,8,1:0:0:0:
256,192,48343,1,0,1:0:0:0:
256,192,48686,1,8,1:0:0:0:
256,192,48858,1,0,1:0:0:0:
256,192,49029,1,8,1:0:0:0:
256,192,49372,1,0,1:0:0:0:
256,192,49458,1,0,1:0:0:0:
256,192,49543,1,0,1:0:0:0:
256,192,50058,1,8,1:0:0:0:
256,192,50401,1,8,1:0:0:0:
256,192,50743,1,0,1:0:0:0:
256,192,51086,1,0,1:0:0:0:
256,192,51429,1,0,1:0:0:0:
256,192,51772,1,8,1:0:0:0:
256,192,54515,1,0,1:0:0:0:
256,192,54858,1,12,1:0:0:0:
256,192,55201,1,0,1:0:0:0:
256,192,55715,1,8,1:0:0:0:
256,192,55886,1,0,1:0:0:0:
256,192,56229,1,8,1:0:0:0:
256,192,56572,1,0,1:0:0:0:
256,192,56915,1,0,1:0:0:0:
256,192,57086,1,8,1:0:0:0:
256,192,57258,1,0,1:0:0:0:
256,192,57601,1,8,1:0:0:0:
256,192,57943,1,0,1:0:0:0:
256,192,58458,1,0,1:0:0:0:
256,192,58629,1,8,1:0:0:0:
256,192,58972,1,8,1:0:0:0:
256,192,59315,1,0,1:0:0:0:
256,192,59658,1,0,1:0:0:0:
256,192,59829,1,8,1:0:0:0:
256,192,60001,1,0,1:0:0:0:
256,192,60343,1,8,1:0:0:0:
256,192,60686,1,0,1:0:0:0:
256,192,61201,1,8,1:0:0:0:
256,192,61372,1,0,1:0:0:0:
256,192,61715,1,8,1:0:0:0:
256,192,62058,1,0,1:0:0:0:
256,192,62401,1,8,1:0:0:0:
256,192,62572,1,8,1:0:0:0:
256,192,62743,1,0,1:0:0:0:
256,192,63086,1,8,1:0:0:0:
256,192,63429,1,0,1:0:0:0:
256,192,63943,1,0,1:0:0:0:
256,192,64115,1,8,1:0:0:0:
256,192,64458,1,8,1:0:0:0:
256,192,64801,1,0,1:0:0:0:
256,192,65143,1,8,1:0:0:0:
256,192,65315,1,8,1:0:0:0:
256,192,65486,1,0,1:0:0:0:
256,192,65829,1,12,1:0:0:0:
256,192,66172,1,0,1:0:0:0:
256,192,66343,1,8,1:0:0:0:
256,192,66515,1,0,1:0:0:0:
256,192,66858,1,8,1:0:0:0:
256,192,67201,1,0,1:0:0:0:
256,192,67543,1,0,1:0:0:0:
256,192,67715,1,8,1:0:0:0:
256,192,67886,1,0,1:0:0:0:
256,192,68229,1,0,1:0:0:0:
256,192,68572,1,8,1:0:0:0:
256,192,68915,1,0,1:0:0:0:
256,192,69086,1,8,1:0:0:0:
256,192,69258,1,0,1:0:0:0:
256,192,69601,1,0,1:0:0:0:
256,192,69943,1,8,1:0:0:0:
256,192,70286,1,0,1:0:0:0:
256,192,70458,1,0,1:0:0:0:
256,192,70629,1,8,1:0:0:0:
256,192,70972,1,0,1:0:0:0:
256,192,71315,1,8,1:0:0:0:
256,192,71486,1,8,1:0:0:0:
256,192,71658,1,0,1:0:0:0:
256,192,71829,1,8,1:0:0:0:
256,192,72001,1,8,1:0:0:0:
256,192,72172,1,0,1:0:0:0:
256,192,72343,1,8,1:0:0:0:
256,192,72515,1,0,1:0:0:0:
256,192,72686,1,8,1:0:0:0:
256,192,73029,1,0,1:0:0:0:
256,192,73372,1,8,1:0:0:0:
256,192,73543,1,0,1:0:0:0:
256,192,73715,1,8,1:0:0:0:
256,192,73886,1,0,1:0:0:0:
256,192,74058,1,0,1:0:0:0:
256,192,74143,1,0,1:0:0:0:
256,192,74229,1,0,1:0:0:0:
256,192,74401,1,8,1:0:0:0:
256,192,74572,1,0,1:0:0:0:
256,192,74658,1,0,1:0:0:0:
256,192,74743,1,0,1:0:0:0:
256,192,74915,1,8,1:0:0:0:
256,192,75086,1,0,1:0:0:0:
256,192,75258,1,8,1:0:0:0:
256,192,75343,1,8,1:0:0:0:
256,192,76801,1,12,1:0:0:0:
256,192,77315,1,8,1:0:0:0:
256,192,77401,1,8,1:0:0:0:
256,192,77486,1,8,1:0:0:0:
256,192,77658,1,0,1:0:0:0:
256,192,77829,1,8,1:0:0:0:
256,192,78172,1,0,1:0:0:0:
256,192,78515,1,8,1:0:0:0:
256,192,78858,1,8,1:0:0:0:
256,192,79029,1,0,1:0:0:0:
256,192,79201,1,8,1:0:0:0:
256,192,79372,1,0,1:0:0:0:
256,192,79543,1,0,1:0:0:0:
256,192,79886,1,0,1:0:0:0:
256,192,80058,1,8,1:0:0:0:
256,192,80143,1,8,1:0:0:0:
256,192,80229,1,8,1:0:0:0:
256,192,80401,1,0,1:0:0:0:
256,192,80572,1,8,1:0:0:0:
256,192,80743,1,0,1:0:0:0:
256,192,80915,1,0,1:0:0:0:
256,192,81258,1,8,1:0:0:0:
256,192,81601,1,8,1:0:0:0:
256,192,81772,1,0,1:0:0:0:
256,192,81943,1,8,1:0:0:0:
256,192,82286,1,8,1:0:0:0:
256,192,82801,1,0,1:0:0:0:
256,192,82886,1,0,1:0:0:0:
256,192,82972,1,0,1:0:0:0:
256,192,83143,1,8,1:0:0:0:
256,192,83315,1,0,1:0:0:0:
256,192,83658,1,8,1:0:0:0:
256,192,84001,1,0,1:0:0:0:
256,192,84343,1,8,1:0:0:0:
256,192,84515,1,0,1:0:0:0:
256,192,84686,1,8,1:0:0:0:
256,192,84858,1,8,1:0:0:0:
256,192,85029,1,0,1:0:0:0:
256,192,85372,1,0,1:0:0:0:
256,192,85543,1,8,1:0:0:0:
256,192,85629,1,8,1:0:0:0:
256,192,85715,1,8,1:0:0:0:
256,192,85886,1,0,1:0:0:0:
256,192,86058,1,8,1:0:0:0:
256,192,86229,1,0,1:0:0:0:
256,192,86401,1,0,1:0:0:0:
256,192,86743,1,8,1:0:0:0:
256,192,87086,1,8,1:0:0:0:
256,192,87258,1,0,1:0:0:0:
256,192,87429,1,8,1:0:0:0:
256,192,87772,1,4,1:0:0:0:
256,192,88286,1,8,1:0:0:0:
256,192,88372,1,8,1:0:0:0:
256,192,88458,1,8,1:0:0:0:
256,192,88629,1,0,1:0:0:0:
256,192,88801,1,8,1:0:0:0:
256,192,89143,1,0,1:0:0:0:
256,192,89486,1,8,1:0:0:0:
256,192,89829,1,8,1:0:0:0:
256,192,90001,1,0,1:0:0:0:
256,192,90172,1,8,1:0:0:0:
256,192,90344,1,0,1:0:0:0:
256,192,90515,1,0,1:0:0:0:
256,192,90858,1,0,1:0:0:0:
256,192,91029,1,8,1:0:0:0:
256,192,91115,1,8,1:0:0:0:
256,192,91201,1,8,1:0:0:0:
256,192,91372,1,0,1:0:0:0:
256,192,91543,1,8,1:0:0:0:
256,192,91715,1,0,1:0:0:0:
256,192,91886,1,0,1:0:0:0:
256,192,92229,1,8,1:0:0:0:
256,192,92572,1,8,1:0:0:0:
256,192,92743,1,0,1:0:0:0:
256,192,92915,1,8,1:0:0:0:
256,192,93258,1,4,1:0:0:0:
256,192,93772,1,0,1:0:0:0:
256,192,93858,1,0,1:0:0:0:
256,192,93943,1,0,1:0:0:0:
256,192,94115,1,8,1:0:0:0:
256,192,94286,1,0,1:0:0:0:
256,192,94629,1,8,1:0:0:0:
256,192,94972,1,0,1:0:0:0:
256,192,95315,1,8,1:0:0:0:
256,192,95486,1,0,1:0:0:0:
256,192,95658,1,8,1:0:0:0:
256,192,95829,1,8,1:0:0:0:
256,192,96001,1,4,1:0:0:0:
256,192,96343,1,0,1:0:0:0:
256,192,96515,1,8,1:0:0:0:
256,192,96601,1,8,1:0:0:0:
256,192,96686,1,8,1:0:0:0:
256,192,96858,1,8,1:0:0:0:
256,192,97029,1,8,1:0:0:0:
256,192,97201,1,0,1:0:0:0:
256,192,97372,1,0,1:0:0:0:
256,192,98743,1,0,1:0:0:0:
