osu file format v14

[General]
AudioFilename: audio.mp3
AudioLeadIn: 0
PreviewTime: 74829
Countdown: 0
SampleSet: Soft
StackLeniency: 0.7
Mode: 0
LetterboxInBreaks: 0
WidescreenStoryboard: 1

[Editor]
Bookmarks: 10972,32915,54858,65829,76801,87772,97372
DistanceSpacing: 0.9
BeatDivisor: 4
GridSize: 4
TimelineZoom: 2.3

[Metadata]
Title:C U Again feat. Mikk Mae (Cartoon vs. Futuristik VIP) (Cut Ver.)
TitleUnicode:C U Again feat. Mikk Mäe (Cartoon vs. Futuristik VIP) (Cut Ver.)
Artist:Cartoon
ArtistUnicode:Cartoon
Creator:Mimari
Version:browiec's Expert
Source:
Tags:see you english electronic edm ncs nocopyrightsounds pop sylas thekoala browiec mokobe
BeatmapID:3005850
BeatmapSetID:1462092

[Difficulty]
HPDrainRate:5
CircleSize:3.8
OverallDifficulty:8.5
ApproachRate:9
SliderMultiplier:1.8
SliderTickRate:1

[Events]
//Background and Video events
0,0,"bg.jpg",0,0
//Break Periods
//Storyboard Layer 0 (Background)
//Storyboard Layer 1 (Fail)
//Storyboard Layer 2 (Pass)
//Storyboard Layer 3 (Foreground)
//Storyboard Layer 4 (Overlay)
//Storyboard Sound Samples

[TimingPoints]
1,342.857142857143,4,2,1,10,1,0
10972,-200,4,2,1,50,0,0
13629,-200,4,2,1,50,0,0
13715,-200,4,2,1,50,0,0
19115,-200,4,2,1,50,0,0
19201,-200,4,2,1,50,0,0
24601,-200,4,2,1,50,0,0
24686,-200,4,2,1,50,0,0
30086,-200,4,2,1,50,0,0
30172,-200,4,2,1,50,0,0
36343,-200,4,2,1,50,0,0
36429,-200,4,2,1,50,0,0
38315,-200,4,2,1,50,0,0
38401,-200,4,2,1,50,0,0
41829,-200,4,2,1,50,0,0
41915,-200,4,2,1,50,0,0
42515,-200,4,2,1,50,0,0
42601,-200,4,2,1,50,0,0
47315,-200,4,2,1,50,0,0
47401,-200,4,2,1,50,0,0
49286,-200,4,2,1,50,0,0
49372,-200,4,2,1,50,0,0
51858,-200,4,2,1,50,0,0
54001,-200,4,2,1,50,0,0
54515,-200,4,2,1,50,0,0
54858,-133.333333333333,4,2,2,50,0,0
55115,-133.333333333333,4,2,2,50,0,0
55201,-133.333333333333,4,2,2,50,0,0
56486,-133.333333333333,4,2,2,50,0,0
56572,-133.333333333333,4,2,2,50,0,0
57858,-133.333333333333,4,2,2,50,0,0
57943,-133.333333333333,4,2,2,50,0,0
59229,-133.333333333333,4,2,2,50,0,0
59315,-133.333333333333,4,2,2,50,0,0
60601,-133.333333333333,4,2,2,50,0,0
60686,-133.333333333333,4,2,2,50,0,0
63343,-133.333333333333,4,2,2,50,0,0
63429,-133.333333333333,4,2,2,50,0,0
65829,-117.647058823529,4,2,1,50,0,0
71315,-117.647058823529,4,2,1,65,0,0
75429,-117.647058823529,4,2,1,65,0,0
76801,-95.2380952380952,4,2,1,85,0,1
97372,-95.2380952380952,4,2,1,50,0,1
97458,-95.2380952380952,4,2,1,50,0,0
98743,-95.2380952380952,4,2,1,50,0,0

[Colours]
Combo1 : 124,135,233
Combo2 : 134,176,223
Combo3 : 174,160,211
Combo4 : 108,157,193

[HitObjects]
104,288,10972,6,0,L|106:311,2,22.5,2|2|2,0:0|0:0|0:0,0:0:0:0:
24,136,11658,6,0,L|115:147,1,90,2|2,0:0|0:0,0:0:0:0:
240,104,12172,1,2,0:0:0:0:
240,104,12258,1,2,0:0:0:0:
240,104,12343,2,0,P|209:136|198:179,1,90,2|2,0:0|0:0,0:0:0:0:
336,256,13029,2,0,P|323:213|291:182,1,90,2|2,0:0|0:0,0:0:0:0:
116,256,13715,6,0,B|188:232|176:284|248:264,1,135,2|0,0:0|0:0,0:0:0:0:
324,216,14401,2,0,P|263:138|214:190,2,180,2|2|2,0:0|0:0|0:0,0:0:0:0:
223,350,16458,6,0,L|200:352,2,22.5,2|2|2,0:0|0:0|0:0,0:0:0:0:
241,261,16801,6,0,L|152:272,2,90,0|2|2,0:0|0:0|0:0,0:0:0:0:
104,196,17829,2,0,P|73:228|62:271,2,90,2|2|2,0:0|0:0|0:0,0:0:0:0:
288,280,18858,6,0,B|216:328|152:272|152:272|188:284|228:268,1,225,2|0,0:0|0:0,0:0:0:0:
332,184,19886,2,0,L|310:362,2,180,0|0|2,0:0|0:0|0:0,0:0:0:0:
468,44,21943,6,0,L|466:21,2,22.5,2|2|2,0:0|0:0|0:0,0:0:0:0:
404,256,22629,6,0,P|361:268|317:257,1,90,2|2,0:0|0:0,0:0:0:0:
318,104,23143,1,2,0:0:0:0:
318,104,23229,1,2,0:0:0:0:
318,104,23315,2,0,P|349:135|362:177,1,90,2|2,0:0|0:0,0:0:0:0:
224,300,24001,2,0,L|235:209,1,90,2|2,0:0|0:0,0:0:0:0:
200,40,24686,6,0,P|148:32|124:108,1,135,2|0,0:0|0:0,0:0:0:0:
52,140,25372,2,0,B|119:131|119:131|154:155|154:155|226:146,2,180,2|2|2,0:0|0:0|0:0,0:0:0:0:
203,309,27429,6,0,L|205:332,2,22.5,2|2|2,0:0|0:0|0:0,0:0:0:0:
161,230,27772,6,0,P|204:219|247:231,2,90,0|2|2,0:0|0:0|0:0,0:0:0:0:
100,368,28801,2,0,P|56:378|13:366,2,90,2|2|2,0:0|0:0|0:0,0:0:0:0:
248,228,29829,5,2,0:0:0:0:
256,192,29915,12,0,32829,0:0:0:0:
256,192,32915,6,0,L|233:190,2,22.5,2|2|2,1:2|0:2|0:2,0:0:0:0:
376,72,33601,6,0,P|344:103|332:145,1,90,2|0,0:0|0:0,0:0:0:0:
436,240,34115,1,2,0:2:0:0:
436,240,34201,1,2,0:2:0:0:
436,240,34286,2,0,L|425:149,1,90,2|0,0:0|0:0,0:0:0:0:
394,320,34972,2,0,P|436:331|479:320,1,90,2|0,0:0|0:0,0:0:0:0:
512,124,35658,5,2,0:0:0:0:
512,124,36001,2,0,B|432:100|432:100|384:124,1,135,2|0,0:0|0:0,0:0:0:0:
296,116,36686,2,0,L|301:163,1,45,2|2,0:0|0:0,0:0:0:0:
216,204,37029,6,0,L|205:113,1,90,2|2,0:0|0:0,0:0:0:0:
52,16,37715,2,0,L|41:107,1,90,2|2,0:0|0:0,0:0:0:0:
112,304,38401,6,0,L|114:327,2,22.5,2|2|2,0:0|0:0|0:0,0:0:0:0:
264,216,39086,6,0,P|232:247|190:259,1,90,2|2,0:0|0:0,0:0:0:0:
188,84,39601,1,2,0:0:0:0:
188,84,39686,1,2,0:0:0:0:
188,84,39772,2,0,P|231:95|262:126,1,90,2|0,0:0|0:0,0:0:0:0:
336,256,40458,2,0,L|352:121,1,135,2|2,0:0|0:0,0:0:0:0:
360,32,41143,5,2,0:0:0:0:
360,32,41486,2,0,P|304:46|263:115,1,135,2|0,0:0|0:0,0:0:0:0:
324,188,42172,2,0,B|188:248|208:108|68:172,1,270,2|2,0:0|0:0,0:0:0:0:
240,352,43886,6,0,L|263:354,2,22.5,2|2|2,0:2|0:2|0:2,0:0:0:0:
120,276,44401,5,2,0:2:0:0:
120,276,44572,2,0,L|211:265,1,90,2|2,0:0|0:2,0:0:0:0:
276,116,45086,1,2,0:2:0:0:
276,116,45172,1,2,0:2:0:0:
276,116,45258,2,0,P|215:123|167:183,1,135,2|0,0:0|0:0,0:0:0:0:
260,296,45943,2,0,P|271:252|260:209,1,90,2|0,0:0|0:0,0:0:0:0:
145,111,46629,5,2,0:0:0:0:
145,111,46972,2,0,B|192:105|192:105|226:121|226:121|278:114,1,135,2|0,0:0|0:0,0:0:0:0:
364,96,47658,2,0,L|359:143,1,45,2|2,0:0|0:0,0:0:0:0:
416,220,48001,6,0,L|326:230,1,90,2|2,0:0|0:0,0:0:0:0:
224,376,48686,2,0,P|255:344|267:301,1,90,2|2,0:0|0:0,0:0:0:0:
145,111,49372,6,0,L|122:109,2,22.5,2|2|2,0:0|0:0|0:0,0:0:0:0:
320,28,50058,6,0,L|309:117,1,90,2|2,0:0|0:0,0:0:0:0:
200,244,50572,1,2,0:0:0:0:
200,244,50658,1,2,0:0:0:0:
200,244,50743,2,0,P|231:212|274:200,1,90,2|2,0:0|0:2,0:0:0:0:
436,232,51429,1,2,0:0:0:0:
436,232,51772,5,2,0:2:0:0:
256,192,51858,12,2,54515,0:2:0:0:
444,165,54858,6,0,L|435:232,1,67.5000025749208,2|0,1:0|0:0,0:0:0:0:
504,320,55201,2,0,B|436:296|444:348|372:332,1,135.000005149842,8|0,0:1|0:0,0:0:0:0:
284,244,55715,1,0,1:2:0:0:
284,244,55886,2,0,P|316:250|367:237,1,67.5000025749208,10|0,0:1|0:0,0:0:0:0:
324,96,56229,6,0,L|315:163,1,67.5000025749208,2|0,1:0|0:0,0:0:0:0:
200,236,56572,2,0,L|191:168,1,67.5000025749208,10|0,0:1|0:0,0:0:0:0:
244,24,56915,2,0,L|235:91,1,67.5000025749208,2|0,0:0|1:2,0:0:0:0:
315,162,57258,1,8,0:1:0:0:
332,176,57601,6,0,B|379:170|379:170|413:186|413:186|465:179,2,135.000005149842,2|8|0,1:0|0:1|0:0,0:0:0:0:
248,260,58458,1,0,1:2:0:0:
248,260,58629,2,0,L|315:269,1,67.5000025749208,10|0,0:1|0:0,0:0:0:0:
188,332,58972,6,0,P|166:307|152:256,1,67.5000025749208,2|0,1:0|0:0,0:0:0:0:
220,132,59315,2,0,P|209:162|172:200,1,67.5000025749208,10|0,0:1|0:0,0:0:0:0:
108,52,59658,2,0,P|140:45|190:58,1,67.5000025749208,2|0,0:0|1:2,0:0:0:0:
95,189,60001,1,8,0:1:0:0:
80,172,60343,6,0,L|13:163,1,67.5000025749208,0|0,1:0|0:0,0:0:0:0:
72,280,60686,2,0,B|152:260|152:260|208:288,1,135.000005149842,8|0,0:1|0:0,0:0:0:0:
280,344,61201,1,0,1:2:0:0:
280,344,61372,2,0,L|289:277,1,67.5000025749208,10|0,0:1|0:0,0:0:0:0:
208,144,61715,6,0,P|218:174|255:212,1,67.5000025749208,2|0,1:0|0:0,0:0:0:0:
332,72,62058,2,0,P|310:96|296:147,1,67.5000025749208,10|0,0:1|0:0,0:0:0:0:
416,256,62401,1,2,0:0:0:0:
444,116,62572,1,0,1:2:0:0:
336,216,62743,1,10,0:1:0:0:
320,232,63086,6,0,L|253:223,1,67.5000025749208,0|0,1:0|0:0,0:0:0:0:
164,188,63429,2,0,B|200:176|200:176|228:224|196:268,1,135.000005149842,8|0,0:1|0:0,0:0:0:0:
120,368,63943,1,0,1:2:0:0:
120,368,64115,2,0,L|111:301,1,67.5000025749208,10|0,0:1|0:0,0:0:0:0:
8,188,64458,6,0,P|31:209|83:224,1,67.5000025749208,0|0,1:0|0:0,0:0:0:0:
148,124,64801,2,0,L|81:133,1,67.5000025749208,10|0,0:1|0:0,0:0:0:0:
224,72,65143,1,2,0:0:0:0:
188,204,65315,1,0,1:2:0:0:
240,56,65486,1,10,0:1:0:0:
256,40,65829,6,0,B|336:8|328:72|404:48,1,153.000002918243,8|0,0:0|1:0,0:0:0:0:
428,228,66343,1,8,0:1:0:0:
292,124,66515,2,0,L|301:199,1,76.5000014591217,0|0,1:0|0:0,0:0:0:0:
418,303,66858,2,0,L|427:227,1,76.5000014591217,8|0,0:1|0:0,0:0:0:0:
372,48,67201,6,0,B|284:24|284:24|228:52,1,153.000002918243,8|0,0:0|1:0,0:0:0:0:
188,216,67715,1,8,0:1:0:0:
88,80,67886,2,0,P|133:97|158:125,1,76.5000014591217,0|0,1:0|0:0,0:0:0:0:
8,212,68229,2,0,P|0:164|12:128,1,76.5000014591217,8|0,0:1|0:0,0:0:0:0:
188,216,68572,6,0,B|243:209|243:209|278:229|278:229|337:221,1,153.000002918243,8|0,0:0|1:0,0:0:0:0:
496,144,69086,1,8,0:1:0:0:
308,60,69258,2,0,L|298:135,1,76.5000014591217,0|0,1:0|0:0,0:0:0:0:
428,264,69601,2,0,L|418:189,1,76.5000014591217,8|0,0:1|0:0,0:0:0:0:
216,48,69943,6,0,B|188:32|188:32|136:76|176:144,1,153.000002918243,8|0,0:0|1:0,0:0:0:0:
248,288,70458,1,8,0:1:0:0:
328,104,70629,2,0,P|376:96|412:108,1,76.5000014591217,0|0,1:0|0:0,0:0:0:0:
502,263,70972,2,0,P|454:271|418:259,1,76.5000014591217,8|0,0:1|0:0,0:0:0:0:
204,168,71315,5,8,0:0:0:0:
348,340,71486,2,0,L|338:265,1,76.5000014591217,0|0,1:0|1:0,0:0:0:0:
267,49,71829,1,8,0:1:0:0:
187,268,72001,1,0,1:0:0:0:
404,176,72172,1,0,0:0:0:0:
182,72,72343,2,0,P|134:64|98:76,1,76.5000014591217,8|0,0:1|0:0,0:0:0:0:
50,321,72686,5,8,0:0:0:0:
220,164,72858,2,0,P|268:156|304:168,1,76.5000014591217,0|0,1:0|1:0,0:0:0:0:
216,384,73201,1,8,0:1:0:0:
122,171,73372,1,0,1:0:0:0:
350,274,73543,1,0,0:0:0:0:
122,384,73715,2,0,L|132:309,1,76.5000014591217,8|0,0:1|0:0,0:0:0:0:
220,164,74058,6,0,L|224:203,3,38.2500007295609,0|0|0|0,1:0|1:0|1:0|1:0,0:0:0:0:
148,100,74401,2,0,L|152:60,3,38.2500007295609,0|0|0|0,1:0|1:0|1:0|1:0,0:0:0:0:
272,12,74743,5,0,1:0:0:0:
272,12,74829,1,0,1:0:0:0:
272,12,74915,2,0,L|276:51,1,38.2500007295609,0|0,1:0|1:0,0:0:0:0:
364,180,75086,1,0,1:0:0:0:
364,180,75172,1,0,1:0:0:0:
364,180,75258,2,0,L|368:140,1,38.2500007295609,0|0,1:0|1:2,0:0:0:0:
488,108,76801,6,0,B|392:76|404:156|308:128,1,188.999994232178,2|8,1:1|0:0,0:0:0:0:
132,32,77315,1,8,0:1:0:0:
204,264,77486,2,0,L|215:168,1,94.499997116089,2|8,0:1|0:1,0:0:0:0:
32,36,77829,2,0,L|43:131,1,94.499997116089,8|0,0:0|0:0,0:0:0:0:
128,356,78172,5,2,1:1:0:0:
215,170,78343,1,0,0:0:0:0:
112,372,78515,2,0,P|67:383|16:370,1,94.499997116089,8|0,0:0|0:0,0:0:0:0:
132,128,78858,1,2,0:1:0:0:
236,332,79029,1,8,0:0:0:0:
300,76,79201,2,0,P|255:64|204:77,1,94.499997116089,8|0,0:1|0:0,0:0:0:0:
12,248,79543,6,0,B|76:292|76:292|184:256,1,188.999994232178,2|8,1:1|0:0,0:0:0:0:
408,88,80058,1,8,0:1:0:0:
172,164,80229,1,2,0:1:0:0:
380,272,80401,1,8,0:1:0:0:
248,40,80572,2,0,L|259:135,1,94.499997116089,8|0,0:0|0:0,0:0:0:0:
472,268,80915,6,0,P|459:223|423:185,1,94.499997116089,2|0,1:1|0:0,0:0:0:0:
176,168,81258,1,8,0:0:0:0:
380,272,81429,1,0,0:0:0:0:
160,152,81601,1,2,0:1:0:0:
424,96,81772,1,8,0:0:0:0:
256,312,81943,2,0,L|267:217,1,94.499997116089,8|0,0:1|1:0,0:0:0:0:
112,24,82286,6,0,B|68:8|68:8|8:60|52:136,1,188.999994232178,2|8,1:1|0:0,0:0:0:0:
145,355,82801,1,8,0:1:0:0:
229,128,82972,2,0,P|274:118|320:129,1,94.499997116089,2|8,0:1|0:1,0:0:0:0:
427,343,83315,2,0,P|381:352|335:341,1,94.499997116089,8|0,0:0|0:0,0:0:0:0:
139,230,83658,5,2,1:1:0:0:
403,187,83829,1,0,0:0:0:0:
246,384,84001,2,0,L|235:289,1,94.499997116089,8|0,0:0|0:0,0:0:0:0:
296,46,84343,1,2,0:1:0:0:
382,271,84515,1,8,0:0:0:0:
215,85,84686,2,0,P|169:74|123:84,1,94.499997116089,8|0,0:1|0:0,0:0:0:0:
42,322,85029,6,0,B|86:334|86:334|134:322,1,94.499997116089,2|0,1:1|0:0,0:0:0:0:
338,160,85372,1,8,0:0:0:0:
85,240,85543,1,8,0:1:0:0:
365,280,85715,1,2,0:1:0:0:
112,139,85886,1,8,0:1:0:0:
240,376,86058,2,0,L|251:281,1,94.499997116089,8|0,0:0|0:0,0:0:0:0:
416,88,86401,6,0,L|427:183,1,94.499997116089,2|0,1:1|0:0,0:0:0:0:
168,232,86743,2,0,P|202:200|247:187,1,94.499997116089,8|0,0:0|0:0,0:0:0:0:
400,384,87086,1,2,0:1:0:0:
148,318,87258,1,8,0:0:0:0:
380,200,87429,2,0,L|369:295,1,94.499997116089,8|0,0:1|1:0,0:0:0:0:
224,84,87772,6,0,B|295:75|295:75|338:98|338:98|406:89,1,188.999994232178,2|8,1:1|0:0,0:0:0:0:
280,344,88286,1,8,0:1:0:0:
156,156,88458,2,0,P|110:145|64:154,1,94.499997116089,2|8,0:1|0:1,0:0:0:0:
0,372,88801,2,0,P|45:381|91:370,1,94.499997116089,8|0,0:0|0:0,0:0:0:0:
252,164,89143,5,2,1:1:0:0:
40,292,89315,1,0,0:0:0:0:
296,360,89486,2,0,L|285:265,1,94.499997116089,8|0,0:0|0:0,0:0:0:0:
93,75,89829,1,2,0:1:0:0:
200,304,90001,1,8,0:0:0:0:
288,76,90172,2,0,P|333:65|379:74,1,94.499997116089,8|0,0:1|0:0,0:0:0:0:
476,340,90515,6,0,B|380:308|392:388|296:360,1,188.999994232178,2|8,1:1|0:0,0:0:0:0:
156,128,91029,1,8,0:1:0:0:
332,276,91201,1,2,0:1:0:0:
210,38,91372,1,8,0:1:0:0:
156,288,91543,2,0,L|166:381,1,94.499997116089,8|0,0:0|0:0,0:0:0:0:
412,224,91886,6,0,P|376:193|331:179,1,94.499997116089,2|0,1:1|0:0,0:0:0:0:
72,232,92229,1,8,0:0:0:0:
332,276,92401,1,0,0:0:0:0:
92,140,92572,1,2,0:1:0:0:
188,380,92743,1,8,0:0:0:0:
331,179,92915,2,0,P|342:133|333:87,1,94.499997116089,8|0,0:1|1:0,0:0:0:0:
72,232,93258,6,0,B|120:244|160:208|160:208|196:244|248:232,1,188.999994232178,2|8,1:1|0:0,0:0:0:0:
464,144,93772,1,8,0:1:0:0:
216,48,93943,2,0,L|226:141,1,94.499997116089,2|8,0:1|0:1,0:0:0:0:
404,316,94286,2,0,L|414:223,1,94.499997116089,8|0,0:0|0:0,0:0:0:0:
172,292,94629,5,2,1:1:0:0:
386,111,94801,1,0,0:0:0:0:
320,368,94972,2,0,P|273:376|228:365,1,94.499997116089,8|0,0:0|0:0,0:0:0:0:
88,129,95315,1,2,0:1:0:0:
276,284,95486,1,8,0:0:0:0:
197,32,95658,2,0,L|187:125,1,94.499997116089,8|0,0:1|0:0,0:0:0:0:
320,368,96001,6,0,B|364:380|364:380|412:368,1,94.499997116089,2|0,1:1|0:0,0:0:0:0:
480,102,96343,1,8,0:0:0:0:
276,284,96515,1,8,0:1:0:0:
400,23,96686,1,2,0:1:0:0:
481,298,96858,1,8,0:1:0:0:
299,76,97029,2,0,L|309:169,1,94.499997116089,8|0,0:0|0:0,0:0:0:0:
411,368,97372,5,2,1:1:0:0:
256,192,97458,12,0,98743,1:0:0:0:
