osu file format v14

[General]
AudioFilename: audio.mp3
AudioLeadIn: 0
PreviewTime: 74829
Countdown: 0
SampleSet: Soft
StackLeniency: 0.7
Mode: 0
LetterboxInBreaks: 0
WidescreenStoryboard: 1

[Editor]
Bookmarks: 10972,23658,32915,54858,65829,76801,87772,97372
DistanceSpacing: 0.9
BeatDivisor: 4
GridSize: 4
TimelineZoom: 1

[Metadata]
Title:C U Again feat. Mikk Mae (Cartoon vs. Futuristik VIP) (Cut Ver.)
TitleUnicode:C U Again feat. Mikk Mäe (Cartoon vs. Futuristik VIP) (Cut Ver.)
Artist:Cartoon
ArtistUnicode:Cartoon
Creator:Mimari
Version:Sylas' Insane
Source:
Tags:see you english electronic edm ncs nocopyrightsounds pop sylas thekoala browiec mokobe
BeatmapID:3107806
BeatmapSetID:1462092

[Difficulty]
HPDrainRate:4.5
CircleSize:4
OverallDifficulty:8
ApproachRate:8.8
SliderMultiplier:1.5
SliderTickRate:1

[Events]
//Background and Video events
0,0,"BG.jpg",0,0
//Break Periods
//Storyboard Layer 0 (Background)
//Storyboard Layer 1 (Fail)
//Storyboard Layer 2 (Pass)
//Storyboard Layer 3 (Foreground)
//Storyboard Layer 4 (Overlay)
//Storyboard Sound Samples

[TimingPoints]
1,342.857142857143,4,2,1,10,1,0
10972,-181.818181818181,4,2,1,50,0,0
13629,-181.818181818181,4,2,1,50,0,0
13715,-181.818181818181,4,2,1,50,0,0
18858,-222.222222222221,4,2,1,50,0,0
19115,-222.222222222221,4,2,1,50,0,0
19201,-222.222222222221,4,2,1,50,0,0
20915,-200,4,2,1,50,0,0
21943,-181.818181818181,4,2,1,50,0,0
24601,-181.818181818181,4,2,1,50,0,0
24686,-181.818181818181,4,2,1,50,0,0
29829,-222.222222222221,4,2,1,50,0,0
30086,-222.222222222221,4,2,1,50,0,0
30172,-222.222222222221,4,2,1,50,0,0
31886,-200,4,2,1,50,0,0
32915,-166.666666666667,4,2,1,50,0,0
36343,-166.666666666667,4,2,1,50,0,0
36429,-166.666666666667,4,2,1,50,0,0
38315,-166.666666666667,4,2,1,50,0,0
38401,-166.666666666667,4,2,1,50,0,0
41829,-166.666666666667,4,2,1,50,0,0
41915,-166.666666666667,4,2,1,50,0,0
42172,-153.846153846154,4,2,1,50,0,0
42515,-153.846153846154,4,2,1,50,0,0
42601,-153.846153846154,4,2,1,50,0,0
43201,-181.818181818182,4,2,1,50,0,0
43886,-166.666666666667,4,2,1,50,0,0
47315,-166.666666666667,4,2,1,50,0,0
47401,-166.666666666667,4,2,1,50,0,0
49286,-166.666666666667,4,2,1,50,0,0
49372,-166.666666666667,4,2,1,50,0,0
51772,-250.000000000001,4,2,1,50,0,0
51858,-250.000000000001,4,2,1,50,0,0
54001,-250.000000000001,4,2,1,50,0,0
54515,-250.000000000001,4,2,1,50,0,0
54858,-105.263157894737,4,2,2,50,0,0
55115,-105.263157894737,4,2,2,50,0,0
55201,-105.263157894737,4,2,2,50,0,0
56486,-105.263157894737,4,2,2,50,0,0
56572,-105.263157894737,4,2,2,50,0,0
57858,-105.263157894737,4,2,2,50,0,0
57943,-105.263157894737,4,2,2,50,0,0
59229,-105.263157894737,4,2,2,50,0,0
59315,-105.263157894737,4,2,2,50,0,0
60601,-105.263157894737,4,2,2,50,0,0
60686,-105.263157894737,4,2,2,50,0,0
63343,-105.263157894737,4,2,2,50,0,0
63429,-105.263157894737,4,2,2,50,0,0
65829,-100,4,2,1,50,0,0
71315,-100,4,2,1,65,0,0
72343,-86.9565217391304,4,2,1,65,0,0
74229,-100,4,2,1,65,0,0
75429,-100,4,2,1,65,0,0
76801,-86.9565217391304,4,2,1,85,0,1
97372,-100,4,2,1,50,0,0
98743,-100,4,2,1,50,0,0

[Colours]
Combo1 : 124,135,233
Combo2 : 134,176,223
Combo3 : 174,160,211
Combo4 : 108,157,193

[HitObjects]
62,242,10972,6,0,L|66:267,2,20.6250006294251,2|2|2,0:0|0:0|0:0,0:0:0:0:
62,242,11658,2,0,P|111:241|141:268,1,82.5000025177003,2|2,0:0|0:0,0:0:0:0:
205,308,12172,5,2,0:0:0:0:
207,299,12258,1,2,0:0:0:0:
209,290,12343,2,0,L|221:231,1,41.2500012588501,2|0,0:0|0:0,0:0:0:0:
174,185,12686,2,0,L|186:126,1,41.2500012588501,2|0,0:0|0:0,0:0:0:0:
159,68,13029,5,2,0:0:0:0:
217,249,13372,1,2,0:0:0:0:
406,213,13715,6,0,B|451:209|484:248|484:248|486:158|433:112|349:123,1,288.750008811951,2|0,0:0|0:0,0:0:0:0:
286,107,15086,2,0,B|294:163|294:163|326:192|326:192|336:268,1,165.000005035401,2|2,0:0|0:0,0:0:0:0:
334,256,16458,6,0,P|337:235|337:220,2,20.6250006294251,2|2|2,0:0|0:0|0:0,0:0:0:0:
315,331,16801,2,0,P|360:331|369:326,1,41.2500012588501
426,359,17143,2,0,P|480:304|485:287,1,82.5000025177003,2|2,0:0|0:0,0:0:0:0:
408,186,17658,5,2,0:0:0:0:
410,195,17744,1,2,0:0:0:0:
412,204,17829,2,0,L|424:263,1,41.2500012588501,2|0,0:0|0:0,0:0:0:0:
491,205,18172,2,0,L|482:164,1,41.2500012588501,2|0,0:0|0:0,0:0:0:0:
423,106,18515,5,2,0:0:0:0:
291,244,18858,2,0,B|241:266|196:228|196:228|149:186|99:209,2,202.499993820191,2|0|2,0:0|0:0|0:0,0:0:0:0:
296,111,21258,2,0,P|267:135|256:170,1,75,2|2,0:0|0:0,0:0:0:0:
83,52,21943,6,0,L|80:17,2,20.6250006294251,2|2|2,0:0|0:0|0:0,0:0:0:0:
83,52,22629,2,0,L|167:66,1,82.5000025177003,2|2,0:0|0:0,0:0:0:0:
233,25,23143,5,2,0:0:0:0:
235,34,23229,1,2,0:0:0:0:
237,43,23314,2,0,P|243:69|238:94,1,41.2500012588501,2|0,0:0|0:0,0:0:0:0:
188,182,23658,2,0,P|182:156|187:131,1,41.2500012588501,2|0,0:0|0:0,0:0:0:0:
316,102,24000,5,2,0:0:0:0:
212,268,24343,1,2,0:0:0:0:
433,327,24686,6,0,B|480:351|561:268|452:185|347:241|346:338,1,288.750008811951,2|0,0:0|0:0,0:0:0:0:
277,356,26058,2,0,B|199:366|199:366|192:362|192:362|111:373,1,165.000005035401,2|2,0:0|0:0,0:0:0:0:
122,117,27429,6,0,P|125:96|125:81,2,20.6250006294251,2|2|2,0:0|0:0|0:0,0:0:0:0:
111,193,27772,2,0,L|165:188,1,41.2500012588501
192,74,28115,2,0,P|169:36|125:27,1,82.5000025177003,2|2,0:0|0:0,0:0:0:0:
26,102,28629,5,2,0:0:0:0:
28,111,28715,1,2,0:0:0:0:
30,120,28801,2,0,P|34:148|49:167,1,41.2500012588501,2|0,0:0|0:0,0:0:0:0:
109,197,29143,2,0,P|118:178|120:158,1,41.2500012588501,2|0,0:0|0:0,0:0:0:0:
188,239,29486,6,0,P|197:257|199:277,1,41.2500012588501,2|0,0:0|0:0,0:0:0:0:
222,121,29829,2,0,P|240:73|378:85,2,202.499993820191,2|0|2,0:0|0:0|0:0,0:0:0:0:
294,196,32229,2,0,L|306:120,1,75,2|2,0:0|0:0,0:0:0:0:
473,34,32915,5,2,1:2:0:0:
473,34,33001,1,2,0:2:0:0:
473,34,33086,2,0,P|465:74|467:137,1,89.9999972534181,2|0,0:2|0:0,0:0:0:0:
476,196,33601,6,0,B|440:207|411:177|411:177|387:152|340:166,1,134.999995880127,2|2,0:0|0:2,0:0:0:0:
310,249,34286,2,0,P|340:204|251:191,2,179.999994506836,2|2|2,0:0|0:0|0:0,0:0:0:0:
200,304,36001,1,2,0:0:0:0:
200,304,36686,5,2,0:0:0:0:
144,356,36858,1,2,0:0:0:0:
76,320,37029,2,0,P|61:282|64:259,1,44.999998626709,2|0,0:0|0:0,0:0:0:0:
2,229,37372,2,0,P|18:191|36:177,1,44.999998626709,2|0,0:0|0:0,0:0:0:0:
86,147,37715,1,2,0:0:0:0:
208,260,38058,1,2,0:0:0:0:
308,112,38401,5,2,0:0:0:0:
308,112,38486,1,2,0:0:0:0:
308,112,38572,2,0,L|203:123,1,89.9999972534181,2|0,0:0|0:0,0:0:0:0:
185,44,39086,6,0,L|328:28,1,134.999995880127,2|2,0:0|0:0,0:0:0:0:
334,20,39686,1,2,0:0:0:0:
334,20,39772,6,0,P|370:55|417:57,1,89.9999972534181,2|0,0:0|0:0,0:0:0:0:
503,120,40286,1,0,0:0:0:0:
503,120,40372,1,0,0:0:0:0:
503,120,40458,2,0,P|459:126|429:159,1,89.9999972534181,2|0,0:0|0:0,0:0:0:0:
352,134,40972,1,2,0:0:0:0:
369,215,41143,6,0,P|378:251|393:269,1,44.999998626709,2|0,0:0|0:0,0:0:0:0:
452,316,41486,2,0,P|395:293|268:266,2,179.999994506836,2|2|2,0:0|0:0|0:0,0:0:0:0:
505,255,43201,2,0,L|492:168,1,82.5000025177003,2|2,0:0|0:0,0:0:0:0:
361,67,43886,5,2,0:2:0:0:
361,67,43972,1,2,0:2:0:0:
361,67,44058,2,0,P|321:59|254:62,1,89.9999972534181,2|2,0:2|0:2,0:0:0:0:
206,22,44572,6,0,P|195:57|197:75,1,44.999998626709,2|0,0:0|0:0,0:0:0:0:
136,111,44915,2,0,P|163:135|180:141,1,44.999998626709,2|2,0:2|0:2,0:0:0:0:
256,203,45258,6,0,P|191:215|129:244,1,134.999995880127,2|0,0:0|0:0,0:0:0:0:
48,312,45943,2,0,B|16:277|45:230|45:230|81:180|42:132,1,179.999994506836,2|2,0:0|0:0,0:0:0:0:
7,65,46972,1,2,0:0:0:0:
7,65,47657,5,2,0:0:0:0:
154,80,48001,2,0,L|216:70,1,44.999998626709,2|0,0:0|0:0,0:0:0:0:
246,133,48343,2,0,L|308:143,1,44.999998626709,2|0,0:0|0:0,0:0:0:0:
357,95,48686,1,2,0:0:0:0:
252,214,49029,1,2,0:0:0:0:
460,234,49372,5,2,0:0:0:0:
460,234,49457,1,2,0:0:0:0:
460,234,49543,2,0,P|469:189|449:129,1,89.9999972534181,2|0,0:0|0:0,0:0:0:0:
486,73,50058,6,0,P|446:69|434:73,1,44.999998626709,2|0,0:0|0:0,0:0:0:0:
377,115,50401,1,2,0:0:0:0:
362,198,50572,1,2,0:0:0:0:
362,198,50658,1,2,0:0:0:0:
362,198,50743,6,0,P|335:220|270:217,1,89.9999972534181,2|2,0:0|0:2,0:0:0:0:
150,122,51429,1,2,0:0:0:0:
283,25,51772,1,2,0:2:0:0:
256,192,51943,12,2,54515,0:2:0:0:
46,350,54858,6,0,B|26:316|26:316|47:266,1,71.2499980974198,2|0,1:0|0:0,0:0:0:0:
88,194,55201,2,0,L|250:219,1,142.49999619484,8|0,0:1|0:0,0:0:0:0:
328,246,55715,1,0,1:2:0:0:
416,183,55886,2,0,B|441:140|441:140|414:77,1,106.87499714613,10|0,0:1|0:0,0:0:0:0:
405,84,56229,6,0,P|370:87|339:113,1,71.2499980974198,2|0,1:0|0:0,0:0:0:0:
413,264,56572,2,0,P|448:261|479:235,1,71.2499980974198,10|0,0:1|0:0,0:0:0:0:
508,93,56915,2,0,L|513:5,2,71.2499980974198,2|0|8,0:0|1:2|0:1,0:0:0:0:
323,337,57601,6,0,P|281:341|230:314,1,71.2499980974198,2|0,1:0|0:0,0:0:0:0:
205,238,57943,2,0,P|223:170|233:86,1,142.49999619484,8|0,0:1|0:0,0:0:0:0:
157,12,58458,1,0,1:2:0:0:
76,85,58629,2,0,P|77:133|109:199,1,106.87499714613,10|0,0:1|0:0,0:0:0:0:
109,199,58972,6,0,L|33:207,1,71.2499980974198,2|0,1:0|0:0,0:0:0:0:
133,316,59315,2,0,L|209:324,1,71.2499980974198,10|0,0:1|0:0,0:0:0:0:
307,168,59658,1,2,0:0:0:0:
284,286,59829,1,0,1:2:0:0:
207,198,60001,1,8,0:1:0:0:
207,198,60343,6,0,B|204:137|204:137|211:123|211:123|206:47,1,142.49999619484,0|8,1:0|0:1,0:0:0:0:
206,57,61201,1,0,1:2:0:0:
286,164,61372,2,0,P|335:162|384:111,1,106.87499714613,10|0,0:1|0:0,0:0:0:0:
383,114,61715,6,0,L|372:42,1,71.2499980974198,2|0,1:0|0:0,0:0:0:0:
493,198,62058,2,0,L|504:126,1,71.2499980974198,10|0,0:1|0:0,0:0:0:0:
344,238,62401,2,0,P|300:228|273:201,1,71.2499980974198,2|0,0:0|1:2,0:0:0:0:
427,363,62743,2,0,P|471:353|517:298,1,106.87499714613,10|0,0:1|0:0,0:0:0:0:
512,296,63086,6,0,B|444:282|444:282|439:273|439:273|349:254,1,142.49999619484,0|8,1:0|0:1,0:0:0:0:
377,260,63943,1,0,1:2:0:0:
260,292,64115,6,0,B|198:304|198:304|193:313|193:313|125:327,2,142.49999619484,10|0|10,0:1|1:0|0:1,0:0:0:0:
260,292,65315,1,0,1:2:0:0:
308,190,65486,2,0,P|316:129|290:65,1,106.87499714613,10|0,0:1|0:0,0:0:0:0:
293,74,65829,6,0,L|128:60,1,150,8|0,0:0|1:0,0:0:0:0:
19,5,66343,1,8,0:1:0:0:
63,146,66515,1,0,1:0:0:0:
63,146,66858,2,0,P|77:187|70:224,1,75,8|0,0:1|0:0,0:0:0:0:
202,77,67201,6,0,P|198:40|211:5,1,75,8|0,0:0|0:0,0:0:0:0:
263,206,67543,1,0,1:0:0:0:
144,142,67715,1,8,0:1:0:0:
284,59,67886,2,0,B|328:48|354:75|354:75|384:107|429:90,1,150,0|8,1:0|0:1,0:0:0:0:
421,92,68572,6,0,L|438:246,1,150,8|0,0:0|1:0,0:0:0:0:
506,361,69086,1,8,0:1:0:0:
375,314,69258,1,0,1:0:0:0:
375,314,69601,2,0,L|264:334,1,112.5,8|0,0:1|0:0,0:0:0:0:
248,327,69943,6,0,P|225:286|221:251,1,75,8|0,0:0|0:0,0:0:0:0:
279,134,70286,1,0,1:0:0:0:
392,231,70458,1,8,0:1:0:0:
248,327,70629,2,0,B|204:338|178:311|178:311|148:279|103:296,1,150,0|8,1:0|0:1,0:0:0:0:
110,293,71315,5,8,0:0:0:0:
254,207,71486,1,0,1:0:0:0:
61,170,71658,2,0,B|42:206|42:206|66:243,1,75,0|8,1:0|0:1,0:0:0:0:
211,128,72001,1,0,1:0:0:0:
211,128,72172,1,0,0:0:0:0:
136,30,72343,6,0,L|121:114,1,86.2500016450882,8|0,0:1|0:0,0:0:0:0:
325,162,72686,1,8,0:0:0:0:
221,31,72858,1,0,1:0:0:0:
217,207,73029,6,0,L|232:291,1,86.2500016450882,0|8,1:0|0:1,0:0:0:0:
413,230,73372,1,0,1:0:0:0:
413,230,73543,1,0,0:0:0:0:
337,89,73715,2,0,B|301:64|301:64|259:89,1,86.2500016450882,8|0,0:1|0:0,0:0:0:0:
351,293,74058,5,0,1:0:0:0:
377,311,74143,1,0,1:0:0:0:
408,319,74229,1,0,1:0:0:0:
440,317,74315,1,0,1:0:0:0:
469,303,74401,2,0,L|477:248,3,37.5,0|0|0|0,1:0|1:0|1:0|1:0,0:0:0:0:
414,186,74743,2,0,L|405:131,3,37.5,0|0|0|0,1:0|1:0|1:0|1:0,0:0:0:0:
319,211,75087,5,0,1:0:0:0:
281,205,75172,1,0,1:0:0:0:
244,199,75258,1,0,1:0:0:0:
207,193,75344,1,0,1:2:0:0:
207,193,76801,6,0,B|198:114|198:114|205:106|205:106|194:4,1,172.500003290176,2|8,1:1|0:0,0:0:0:0:
303,140,77315,1,8,0:1:0:0:
118,212,77486,2,0,L|23:222,1,86.2500016450882,2|8,0:1|0:1,0:0:0:0:
303,118,77829,2,0,L|398:128,1,86.2500016450882,8|0,0:0|0:0,0:0:0:0:
217,279,78172,1,2,1:1:0:0:
217,279,78515,6,0,P|216:324|247:359,1,86.2500016450882,8|0,0:0|0:0,0:0:0:0:
329,166,78858,1,2,0:1:0:0:
143,203,79029,1,8,0:0:0:0:
326,267,79201,2,0,B|364:279|389:252|389:252|416:227|470:247,1,129.375002467632,8|0,0:1|0:0,0:0:0:0:
468,248,79543,6,0,B|494:118|494:118|448:106,1,172.500003290176,2|8,1:1|0:0,0:0:0:0:
329,166,80058,1,8,0:1:0:0:
421,322,80229,2,0,P|458:339|508:326,1,86.2500016450882,2|8,0:1|0:1,0:0:0:0:
322,149,80572,2,0,P|280:140|241:157,1,86.2500016450882,8|0,0:0|0:0,0:0:0:0:
145,286,80915,1,2,1:1:0:0:
145,286,81258,6,0,L|159:377,1,86.2500016450882,8|0,0:0|0:0,0:0:0:0:
261,181,81601,1,2,0:1:0:0:
66,225,81772,1,8,0:0:0:0:
260,300,81943,2,0,L|274:209,1,86.2500016450882,8|0,0:1|1:0,0:0:0:0:
210,73,82286,6,0,B|139:85|139:85|124:107|124:107|45:120,1,172.500003290176,2|8,1:1|0:0,0:0:0:0:
126,0,82801,1,8,0:1:0:0:
201,170,82972,2,0,L|187:255,1,86.2500016450882,2|8,0:1|0:1,0:0:0:0:
44,102,83315,2,0,L|30:16,1,86.2500016450882,8|0,0:0|0:0,0:0:0:0:
98,219,83658,1,2,1:1:0:0:
98,219,84001,6,0,P|61:248|10:246,1,86.2500016450882,8|0,0:0|0:0,0:0:0:0:
137,87,84343,1,2,0:1:0:0:
216,227,84515,1,8,0:0:0:0:
244,67,84686,2,0,P|293:29|382:35,1,129.375002467632,8|0,0:1|0:0,0:0:0:0:
371,37,85029,6,0,B|344:120|344:120|403:192,1,172.500003290176,2|8,1:1|0:0,0:0:0:0:
457,97,85543,1,8,0:1:0:0:
379,276,85715,2,0,B|419:281|419:281|460:256,1,86.2500016450882,2|8,0:1|0:1,0:0:0:0:
253,161,86058,2,0,L|81:137,1,172.500003290176,8|2,0:0|1:1,0:0:0:0:
82,137,86743,5,8,0:0:0:0:
220,69,86915,1,0,0:0:0:0:
124,233,87086,1,2,0:1:0:0:
72,40,87258,1,8,0:0:0:0:
209,217,87429,2,0,B|248:226|270:201|270:201|296:170|351:185,1,129.375002467632,8|0,0:1|0:0,0:0:0:0:
342,191,87772,6,0,B|390:257|390:257|354:352,1,172.500003290176,2|8,1:1|0:0,0:0:0:0:
209,217,88286,1,8,0:1:0:0:
336,100,88458,2,0,P|384:106|424:144,1,86.2500016450882,2|8,0:1|0:1,0:0:0:0:
275,287,88801,2,0,P|240:311|197:315,1,86.2500016450882,8|0,0:0|0:0,0:0:0:0:
61,179,89143,1,2,1:1:0:0:
61,179,89486,6,0,P|76:132|83:95,1,86.2500016450882,8|0,0:0|0:0,0:0:0:0:
187,246,89829,1,2,0:1:0:0:
25,283,90000,1,8,0:0:0:0:
166,152,90172,2,0,P|225:149|293:177,1,129.375002467632,8|0,0:1|0:0,0:0:0:0:
303,190,90515,6,0,B|295:111|295:111|301:106|301:106|292:19,1,172.500003290176,2|8,1:1|0:0,0:0:0:0:
212,237,91029,1,8,0:1:0:0:
396,159,91201,2,0,L|387:73,1,86.2500016450882,2|8,0:1|0:1,0:0:0:0:
207,255,91543,2,0,L|216:341,1,86.2500016450882,8|0,0:0|0:0,0:0:0:0:
400,375,91886,1,2,1:1:0:0:
400,375,92229,6,0,P|449:372|489:342,1,86.2500016450882,8|0,0:0|0:0,0:0:0:0:
373,139,92572,1,2,0:1:0:0:
333,316,92743,1,8,0:0:0:0:
202,195,92915,2,0,P|180:158|179:115,1,86.2500016450882,8|0,0:1|1:0,0:0:0:0:
356,50,93258,6,0,B|478:30|478:30|496:88,1,172.500003290176,2|8,1:1|0:0,0:0:0:0:
418,221,93772,1,8,0:1:0:0:
285,117,93943,2,0,P|260:71|266:24,1,86.2500016450882,2|8,0:1|0:1,0:0:0:0:
435,231,94286,2,0,P|433:273|411:309,1,86.2500016450882,8|0,0:0|0:0,0:0:0:0:
249,365,94629,1,2,1:1:0:0:
249,365,94972,6,0,L|159:350,1,86.2500016450882,8|0,0:0|0:0,0:0:0:0:
85,150,95314,1,2,0:1:0:0:
222,273,95486,1,8,0:0:0:0:
28,315,95658,2,0,L|4:172,1,129.375002467632,8|0,0:1|0:0,0:0:0:0:
4,169,96001,6,0,B|74:180|74:180|98:216|98:216|176:229,1,172.500003290176,2|8,1:1|0:0,0:0:0:0:
281,90,96514,1,8,0:1:0:0:
256,283,96686,1,2,0:1:0:0:
156,125,96858,1,8,0:1:0:0:
350,301,97029,6,0,B|420:290|420:290|444:254|444:254|522:241,1,172.500003290176,8|2,0:0|1:1,0:0:0:0:
256,192,97458,12,0,98743,1:0:0:0:
