osu file format v14

[General]
AudioFilename: audio.mp3
AudioLeadIn: 0
PreviewTime: 74829
Countdown: 0
SampleSet: Soft
StackLeniency: 0.7
Mode: 0
LetterboxInBreaks: 0
WidescreenStoryboard: 1

[Editor]
Bookmarks: 10972,32945,54888,65860,76831,87772,97403
DistanceSpacing: 1
BeatDivisor: 4
GridSize: 4
TimelineZoom: 0.8

[Metadata]
Title:C U Again feat. Mikk Mae (Cartoon vs. Futuristik VIP) (Cut Ver.)
TitleUnicode:C U Again feat. Mikk Mäe (Cartoon vs. Futuristik VIP) (Cut Ver.)
Artist:Cartoon
ArtistUnicode:Cartoon
Creator:Mimari
Version:Normal
Source:
Tags:see you english electronic edm ncs nocopyrightsounds pop sylas thekoala browiec mokobe
BeatmapID:3003707
BeatmapSetID:1462092

[Difficulty]
HPDrainRate:3.5
CircleSize:3.4
OverallDifficulty:3.5
ApproachRate:5.5
SliderMultiplier:1.05
SliderTickRate:1

[Events]
//Background and Video events
0,0,"BG.jpg",0,0
//Break Periods
//Storyboard Layer 0 (Background)
//Storyboard Layer 1 (Fail)
//Storyboard Layer 2 (Pass)
//Storyboard Layer 3 (Foreground)
//Storyboard Layer 4 (Overlay)
//Storyboard Sound Samples

[TimingPoints]
1,342.857142857143,4,2,1,10,1,0
10972,-111.111111111111,4,2,1,50,0,0
13629,-111.111111111111,4,2,1,50,0,0
13715,-111.111111111111,4,2,1,50,0,0
19115,-111.111111111111,4,2,1,50,0,0
19201,-111.111111111111,4,2,1,50,0,0
24601,-111.111111111111,4,2,1,50,0,0
24686,-111.111111111111,4,2,1,50,0,0
30086,-111.111111111111,4,2,1,50,0,0
30172,-111.111111111111,4,2,1,50,0,0
36343,-111.111111111111,4,2,1,50,0,0
36429,-111.111111111111,4,2,1,50,0,0
38315,-111.111111111111,4,2,1,50,0,0
38401,-111.111111111111,4,2,1,50,0,0
41829,-111.111111111111,4,2,1,50,0,0
41915,-111.111111111111,4,2,1,50,0,0
42515,-111.111111111111,4,2,1,50,0,0
42601,-111.111111111111,4,2,1,50,0,0
47315,-111.111111111111,4,2,1,50,0,0
47401,-111.111111111111,4,2,1,50,0,0
49286,-111.111111111111,4,2,1,50,0,0
49372,-111.111111111111,4,2,1,50,0,0
51858,-111.111111111111,4,2,1,50,0,0
54001,-111.111111111111,4,2,1,50,0,0
54515,-111.111111111111,4,2,1,50,0,0
54858,-105.263157894737,4,2,2,50,0,0
55115,-105.263157894737,4,2,2,50,0,0
55201,-105.263157894737,4,2,2,50,0,0
56486,-105.263157894737,4,2,2,50,0,0
56572,-105.263157894737,4,2,2,50,0,0
57858,-105.263157894737,4,2,2,50,0,0
57943,-105.263157894737,4,2,2,50,0,0
59229,-105.263157894737,4,2,2,50,0,0
59315,-105.263157894737,4,2,2,50,0,0
60601,-105.263157894737,4,2,2,50,0,0
60686,-105.263157894737,4,2,2,50,0,0
63343,-105.263157894737,4,2,2,50,0,0
63429,-105.263157894737,4,2,2,50,0,0
65829,-100,4,2,1,50,0,0
71315,-100,4,2,1,65,0,0
75429,-100,4,2,1,65,0,0
76801,-100,4,2,1,85,0,1
97372,-100,4,2,1,50,0,0
98743,-100,4,2,1,50,0,0

[Colours]
Combo1 : 124,135,233
Combo2 : 134,176,223
Combo3 : 174,160,211
Combo4 : 108,157,193

[HitObjects]
153,50,10972,6,0,B|178:44|178:44|207:61,1,47.2499985580445,2|2,0:0|0:0,0:0:0:0:
309,115,11658,2,0,L|298:230,1,94.499997116089,2|2,0:0|0:0,0:0:0:0:
338,284,12343,1,2,0:0:0:0:
421,269,12686,2,0,P|463:279|484:342,2,94.499997116089,2|2|2,0:0|0:0|0:0,0:0:0:0:
405,185,13715,6,0,B|360:157|316:208|316:208|281:247|228:228,1,188.999994232178,2|2,0:0|0:0,0:0:0:0:
101,127,15086,2,0,P|136:50|179:112,1,188.999994232178,2|2,0:0|0:0,0:0:0:0:
85,247,16458,6,0,L|79:308,1,47.2499985580445,2|2,0:0|0:0,0:0:0:0:
95,334,16801,2,0,P|146:345|190:312,1,94.499997116089,0|2,0:0|0:0,0:0:0:0:
243,267,17486,1,2,0:0:0:0:
324,290,17829,2,0,L|314:389,2,94.499997116089,2|2|2,0:0|0:0|0:0,0:0:0:0:
407,273,18858,6,0,B|426:252|426:252|411:166|411:166|391:144|391:144|401:113|401:113|382:-3,1,283.499991348267,2|0,0:0|0:0,0:0:0:0:
147,104,20915,2,0,L|82:92,2,47.2499985580445,2|2|2,0:0|0:0|0:0,0:0:0:0:
220,61,21601,1,2,0:0:0:0:
279,120,21943,6,0,B|285:145|285:145|268:174,1,47.2499985580445,2|2,0:0|0:0,0:0:0:0:
315,284,22629,2,0,L|213:271,1,94.499997116089,2|2,0:0|0:0,0:0:0:0:
159,213,23314,1,2,0:0:0:0:
86,257,23658,2,0,P|97:304|106:361,2,94.499997116089,2|2|2,0:0|0:0|0:0,0:0:0:0:
21,200,24686,6,0,P|13:149|123:97,1,188.999994232178,2|2,0:0|0:0,0:0:0:0:
203,242,26058,2,0,B|282:250|282:250|304:271|304:271|398:283,1,188.999994232178,2|2,0:0|0:0,0:0:0:0:
492,150,27429,6,0,L|496:102,1,47.2499985580445,2|2,0:0|0:0,0:0:0:0:
500,60,27772,2,0,P|457:39|396:63,1,94.499997116089,0|2,0:0|0:0,0:0:0:0:
359,115,28457,1,2,0:0:0:0:
276,94,28800,2,0,L|286:-5,2,94.499997116089,2|2|2,0:0|0:0|0:0,0:0:0:0:
223,161,29829,6,0,B|162:203|111:131|111:131|72:68|12:104|12:104|42:102|64:118,1,283.499991348267,2|0,0:0|0:0,0:0:0:0:
157,314,31886,2,0,L|145:379,2,47.2499985580445,2|2|2,0:0|0:0|0:0,0:0:0:0:
218,254,32572,1,2,0:0:0:0:
295,288,32915,6,0,B|317:301|317:301|355:292,1,47.2499985580445,2|2,1:2|0:2,0:0:0:0:
447,229,33601,2,0,P|466:190|443:138,1,94.499997116089,2|0,0:0|0:0,0:0:0:0:
424,109,34115,1,2,0:2:0:0:
424,109,34286,2,0,L|281:124,1,141.749995674133,2|0,0:0|0:0,0:0:0:0:
240,126,34972,1,2,0:0:0:0:
99,29,35658,6,0,L|89:89,1,47.2499985580445,2|0,0:0|0:0,0:0:0:0:
50,88,36001,2,0,L|59:193,1,94.499997116089,2|0,0:0|0:0,0:0:0:0:
130,226,36686,6,0,L|120:286,1,47.2499985580445,2|2,0:0|0:0,0:0:0:0:
116,314,37029,1,2,0:0:0:0:
186,361,37372,1,2,0:0:0:0:
254,310,37715,2,0,P|301:308|330:344,1,94.499997116089,2|2,0:0|0:0,0:0:0:0:
408,374,38401,6,0,B|421:352|421:352|408:319,1,47.2499985580445,2|2,0:0|0:0,0:0:0:0:
360,215,39086,2,0,L|251:201,1,94.499997116089,2|2,0:0|0:0,0:0:0:0:
224,194,39600,1,2,0:0:0:0:
224,194,39771,2,0,P|166:194|120:273,1,141.749995674133,2|0,0:0|0:0,0:0:0:0:
131,298,40457,1,2,0:0:0:0:
14,351,40972,5,2,0:0:0:0:
14,351,41143,2,0,L|22:303,1,47.2499985580445,2|0,0:0|0:0,0:0:0:0:
42,267,41486,2,0,L|33:172,1,94.499997116089,2|0,0:0|0:0,0:0:0:0:
5,92,42172,6,0,B|49:64|93:115|93:115|129:154|181:135,1,188.999994232178,2|2,0:0|0:0,0:0:0:0:
212,120,43029,1,2,0:0:0:0:
212,120,43201,2,0,L|320:144,1,94.499997116089,2|2,0:0|0:0,0:0:0:0:
363,79,43886,6,0,B|387:75|387:75|412:90,1,47.2499985580445,2|2,0:2|0:2,0:0:0:0:
468,145,44401,1,2,0:2:0:0:
468,145,44572,2,0,L|458:258,1,94.499997116089,2|2,0:0|0:2,0:0:0:0:
499,314,45257,2,0,B|467:323|449:347|449:347|356:329,1,141.749995674133,2|0,0:0|0:0,0:0:0:0:
327,325,45943,1,2,0:0:0:0:
158,349,46629,6,0,L|103:341,1,47.2499985580445,2|0,0:0|0:0,0:0:0:0:
69,334,46972,2,0,P|41:282|63:239,1,94.499997116089,2|0,0:0|0:0,0:0:0:0:
109,189,47657,6,0,L|172:200,1,47.2499985580445,2|2,0:0|0:0,0:0:0:0:
212,218,48000,1,2,0:0:0:0:
285,174,48343,1,2,0:0:0:0:
353,224,48686,2,0,P|400:226|429:190,1,94.499997116089,2|2,0:0|0:0,0:0:0:0:
489,132,49372,6,0,B|496:109|496:109|482:79,1,47.2499985580445,2|2,0:0|0:0,0:0:0:0:
354,33,50058,2,0,L|245:19,1,94.499997116089,2|2,0:0|0:0,0:0:0:0:
219,40,50572,1,2,0:0:0:0:
219,40,50743,2,0,P|199:74|215:137,1,94.499997116089,2|2,0:0|0:2,0:0:0:0:
271,196,51429,6,0,P|278:220|271:245,1,47.2499985580445,2|0,0:0|0:0,0:0:0:0:
249,282,51772,1,2,0:2:0:0:
256,192,52115,12,0,54001,0:0:0:0:
193,265,54858,6,0,L|92:248,2,99.7499973363877,2|8|0,1:0|0:1|0:0,0:0:0:0:
231,302,55715,1,0,1:2:0:0:
231,302,55886,1,10,0:1:0:0:
312,350,56229,6,0,L|375:341,1,49.8749986681939,2|0,1:0|0:0,0:0:0:0:
404,361,56572,1,10,0:1:0:0:
475,298,56915,2,0,B|498:256|498:256|477:208,1,99.7499973363877,2|8,0:0|0:1,0:0:0:0:
423,130,57601,6,0,B|465:107|465:107|513:128,2,99.7499973363877,2|8|0,1:0|0:1|0:0,0:0:0:0:
385,157,58458,1,0,1:2:0:0:
385,157,58629,1,10,0:1:0:0:
339,240,58972,6,0,L|272:222,1,49.8749986681939,2|0,1:0|0:0,0:0:0:0:
245,211,59315,1,10,0:1:0:0:
160,254,59658,2,0,L|143:146,1,99.7499973363877,2|8,0:0|0:1,0:0:0:0:
62,108,60343,6,0,L|79:0,2,99.7499973363877,0|8|0,1:0|0:1|0:0,0:0:0:0:
56,158,61201,1,0,1:2:0:0:
56,158,61372,1,10,0:1:0:0:
146,131,61715,6,0,L|213:125,1,49.8749986681939,2|0,1:0|0:0,0:0:0:0:
236,102,62058,2,0,P|283:106|318:153,1,99.7499973363877,10|2,0:1|0:0,0:0:0:0:
278,231,62743,1,10,0:1:0:0:
370,252,63086,6,0,L|357:363,2,99.7499973363877,0|8|0,1:0|0:1|0:0,0:0:0:0:
413,229,63943,1,0,1:2:0:0:
413,229,64115,1,10,0:1:0:0:
493,167,64458,6,0,L|488:104,1,49.8749986681939,0|0,1:0|0:0,0:0:0:0:
483,70,64801,2,0,P|450:50|389:64,1,99.7499973363877,10|2,0:1|0:0,0:0:0:0:
314,115,65486,1,10,0:1:0:0:
232,66,65829,6,0,B|180:51|180:51|128:86,1,105,8|0,0:0|1:0,0:0:0:0:
101,112,66343,1,8,0:1:0:0:
101,112,66515,1,0,1:0:0:0:
31,183,66858,2,0,L|38:251,1,52.5,8|0,0:1|0:0,0:0:0:0:
45,284,67201,5,8,0:0:0:0:
132,235,67543,1,0,1:0:0:0:
191,314,67886,2,0,P|240:320|295:280,1,105,0|8,1:0|0:1,0:0:0:0:
314,196,68572,6,0,L|327:84,1,105,8|0,0:0|1:0,0:0:0:0:
334,45,69086,1,8,0:1:0:0:
334,45,69258,1,0,1:0:0:0:
429,16,69601,1,8,0:1:0:0:
485,97,69943,5,8,0:0:0:0:
407,159,70286,2,0,L|418:222,1,52.5,0|8,1:0|0:1,0:0:0:0:
456,240,70629,2,0,L|449:351,1,105,0|8,1:0|0:1,0:0:0:0:
352,369,71315,6,0,P|322:371|288:343,1,52.5,8|0,0:0|1:0,0:0:0:0:
265,327,71658,2,0,B|244:279|244:279|280:214,1,105,0|0,1:0|1:0,0:0:0:0:
301,195,72172,1,0,0:0:0:0:
301,195,72343,1,8,0:1:0:0:
256,105,72686,6,0,L|182:90,1,52.5,8|0,0:0|1:0,0:0:0:0:
161,69,73029,2,0,P|106:94|94:144,1,105,0|0,1:0|1:0,0:0:0:0:
101,187,73543,1,0,0:0:0:0:
101,187,73715,1,8,0:1:0:0:
59,277,74058,6,0,L|126:288,1,52.5,0|0,1:0|1:0,0:0:0:0:
141,325,74401,2,0,L|208:314,1,52.5,0|0,1:0|1:0,0:0:0:0:
232,284,74743,2,0,L|299:295,1,52.5,0|0,1:0|1:0,0:0:0:0:
320,332,75086,1,0,1:0:0:0:
320,332,75258,1,0,1:0:0:0:
369,143,76801,6,0,P|389:99|362:34,1,105,2|8,1:1|0:0,0:0:0:0:
331,16,77315,1,8,0:1:0:0:
331,16,77486,1,2,0:1:0:0:
243,74,77829,1,8,0:0:0:0:
153,19,78172,6,0,L|92:9,1,52.5,2|0,1:1|0:0,0:0:0:0:
50,9,78515,1,8,0:0:0:0:
105,98,78858,1,2,0:1:0:0:
23,164,79201,1,8,0:1:0:0:
80,251,79543,6,0,L|183:234,1,105,2|8,1:1|0:0,0:0:0:0:
238,224,80058,1,8,0:1:0:0:
238,224,80229,1,2,0:1:0:0:
274,125,80572,2,0,P|323:121|372:166,1,105,8|2,0:0|1:1,0:0:0:0:
461,196,81258,5,8,0:0:0:0:
437,298,81601,2,0,L|371:286,1,52.5,2|8,0:1|0:0,0:0:0:0:
333,281,81943,1,8,0:1:0:0:
243,335,82286,6,0,L|121:360,1,105,2|8,1:1|0:0,0:0:0:0:
92,372,82800,1,8,0:1:0:0:
92,372,82971,1,2,0:1:0:0:
38,281,83314,1,8,0:0:0:0:
132,234,83657,6,0,L|198:249,1,52.5,2|0,1:1|0:0,0:0:0:0:
233,259,84000,1,8,0:0:0:0:
319,199,84343,1,2,0:1:0:0:
260,111,84686,1,8,0:1:0:0:
167,160,85029,6,0,P|113:153|77:113,1,105,2|8,1:1|0:0,0:0:0:0:
72,70,85543,1,8,0:1:0:0:
72,70,85715,1,2,0:1:0:0:
160,13,86058,2,0,L|277:30,1,105,8|2,0:0|1:1,0:0:0:0:
367,45,86743,5,8,0:0:0:0:
304,129,87086,2,0,L|312:198,1,52.5,2|8,0:1|0:0,0:0:0:0:
317,233,87428,1,8,0:1:0:0:
408,180,87772,6,0,P|456:177|506:227,1,105,2|8,1:1|0:0,0:0:0:0:
510,267,88286,1,8,0:1:0:0:
510,267,88457,1,2,0:1:0:0:
453,355,88800,1,8,0:0:0:0:
350,331,89143,6,0,L|289:321,1,52.5,2|0,1:1|0:0,0:0:0:0:
246,313,89486,1,8,0:0:0:0:
280,213,89829,1,2,0:1:0:0:
228,121,90172,1,8,0:1:0:0:
278,29,90515,6,0,L|171:14,1,105,2|8,1:1|0:0,0:0:0:0:
125,11,91029,1,8,0:1:0:0:
125,11,91201,1,2,0:1:0:0:
32,60,91543,2,0,P|18:109|52:165,1,105,8|2,0:0|1:1,0:0:0:0:
109,235,92229,5,8,0:0:0:0:
210,208,92572,2,0,L|221:140,1,52.5,2|8,0:1|0:0,0:0:0:0:
231,105,92914,1,8,0:1:0:0:
327,62,93258,6,0,L|336:179,1,105,2|8,1:1|0:0,0:0:0:0:
342,223,93772,1,8,0:1:0:0:
342,223,93943,1,2,0:1:0:0:
414,298,94286,1,8,0:0:0:0:
331,363,94629,6,0,L|279:356,1,52.5,2|0,1:1|0:0,0:0:0:0:
226,350,94971,1,8,0:0:0:0:
170,261,95314,1,2,0:1:0:0:
102,341,95657,1,8,0:1:0:0:
42,254,96001,6,0,P|33:200|68:153,1,105,2|8,1:1|0:0,0:0:0:0:
99,124,96515,1,8,0:1:0:0:
99,124,96686,1,2,0:1:0:0:
57,27,97029,2,0,B|108:15|108:15|174:44,1,105,8|2,0:0|1:1,0:0:0:0:
256,192,97543,12,0,98743,1:0:0:0:
