osu file format v14

[General]
AudioFilename: audio.mp3
AudioLeadIn: 0
PreviewTime: 74829
Countdown: 0
SampleSet: Soft
StackLeniency: 0.7
Mode: 0
LetterboxInBreaks: 0
WidescreenStoryboard: 1

[Editor]
Bookmarks: 10972,32945,54888,65860,76831,87772,97403
DistanceSpacing: 1
BeatDivisor: 4
GridSize: 4
TimelineZoom: 0.8

[Metadata]
Title:C U Again feat. Mikk Mae (Cartoon vs. Futuristik VIP) (Cut Ver.)
TitleUnicode:C U Again feat. Mikk Mäe (Cartoon vs. Futuristik VIP) (Cut Ver.)
Artist:Cartoon
ArtistUnicode:Cartoon
Creator:Mimari
Version:Hard
Source:
Tags:see you english electronic edm ncs nocopyrightsounds pop sylas thekoala browiec mokobe
BeatmapID:3004022
BeatmapSetID:1462092

[Difficulty]
HPDrainRate:4
CircleSize:3.6
OverallDifficulty:7
ApproachRate:8
SliderMultiplier:1.3
SliderTickRate:1

[Events]
//Background and Video events
0,0,"BG.jpg",0,0
//Break Periods
//Storyboard Layer 0 (Background)
//Storyboard Layer 1 (Fail)
//Storyboard Layer 2 (Pass)
//Storyboard Layer 3 (Foreground)
//Storyboard Layer 4 (Overlay)
//Storyboard Sound Samples

[TimingPoints]
1,342.857142857143,4,2,1,10,1,0
10972,-125,4,2,1,50,0,0
13629,-125,4,2,1,50,0,0
13715,-125,4,2,1,50,0,0
19115,-125,4,2,1,50,0,0
19201,-125,4,2,1,50,0,0
24601,-125,4,2,1,50,0,0
24686,-125,4,2,1,50,0,0
30086,-125,4,2,1,50,0,0
30172,-125,4,2,1,50,0,0
32915,-117.647058823529,4,2,1,50,0,0
36343,-117.647058823529,4,2,1,50,0,0
36429,-117.647058823529,4,2,1,50,0,0
38315,-117.647058823529,4,2,1,50,0,0
38401,-117.647058823529,4,2,1,50,0,0
41829,-117.647058823529,4,2,1,50,0,0
41915,-117.647058823529,4,2,1,50,0,0
42515,-117.647058823529,4,2,1,50,0,0
42601,-117.647058823529,4,2,1,50,0,0
47315,-117.647058823529,4,2,1,50,0,0
47401,-117.647058823529,4,2,1,50,0,0
49286,-117.647058823529,4,2,1,50,0,0
49372,-117.647058823529,4,2,1,50,0,0
51858,-117.647058823529,4,2,1,50,0,0
54001,-117.647058823529,4,2,1,50,0,0
54515,-117.647058823529,4,2,1,50,0,0
54858,-105.263157894737,4,2,2,50,0,0
55115,-105.263157894737,4,2,2,50,0,0
55201,-105.263157894737,4,2,2,50,0,0
56486,-105.263157894737,4,2,2,50,0,0
56572,-105.263157894737,4,2,2,50,0,0
57858,-105.263157894737,4,2,2,50,0,0
57943,-105.263157894737,4,2,2,50,0,0
59229,-105.263157894737,4,2,2,50,0,0
59315,-105.263157894737,4,2,2,50,0,0
60601,-105.263157894737,4,2,2,50,0,0
60686,-105.263157894737,4,2,2,50,0,0
63343,-105.263157894737,4,2,2,50,0,0
63429,-105.263157894737,4,2,2,50,0,0
65829,-100,4,2,1,50,0,0
71315,-100,4,2,1,65,0,0
75429,-100,4,2,1,65,0,0
76801,-95.2380952380951,4,2,1,85,0,1
97372,-100,4,2,1,50,0,0
98743,-100,4,2,1,50,0,0

[Colours]
Combo1 : 124,135,233
Combo2 : 134,176,223
Combo3 : 174,160,211
Combo4 : 108,157,193

[HitObjects]
467,70,10972,6,0,L|471:33,2,26,2|2|2,0:0|0:0|0:0,0:0:0:0:
377,120,11658,6,0,L|390:233,1,104,2|2,0:0|0:0,0:0:0:0:
403,304,12172,1,2,0:0:0:0:
403,304,12343,2,0,P|452:313|497:282,1,104,2|2,0:0|0:0,0:0:0:0:
324,270,13029,2,0,P|285:314|288:368,1,104,2|2,0:0|0:0,0:0:0:0:
388,223,13715,6,0,B|390:184|360:151|320:148|320:148|207:144,1,208,2|2,0:0|0:0,0:0:0:0:
224,144,15086,2,0,P|203:95|292:126,1,208,2|2,0:0|0:0,0:0:0:0:
125,218,16458,6,0,L|81:212,2,26,2|2|2,0:0|0:0|0:0,0:0:0:0:
167,285,16801,2,0,L|276:274,1,104,0|2,0:0|0:0,0:0:0:0:
377,337,17486,2,0,P|348:341|318:331,1,52,2|2,0:0|0:0,0:0:0:0:
290,194,17829,2,0,P|336:210|351:270,2,104,2|2|2,0:0|0:0|0:0,0:0:0:0:
241,123,18858,6,0,B|185:99|145:153|145:153|110:200|50:177|50:177|13:156|36:120|36:120|44:145|67:151,1,312,2|0,0:0|0:0,0:0:0:0:
50,142,20915,6,0,L|46:204,1,52,2|2,0:0|0:0,0:0:0:0:
122,225,21258,2,0,L|129:111,1,104,2|2,0:0|0:0,0:0:0:0:
239,26,21943,6,0,L|278:36,2,26,2|2|2,0:0|0:0|0:0,0:0:0:0:
214,130,22629,6,0,L|325:114,1,104,2|2,0:0|0:0,0:0:0:0:
398,103,23143,1,2,0:0:0:0:
398,103,23315,2,0,B|426:142|426:142|403:195,1,104,2|2,0:0|0:0,0:0:0:0:
312,288,24001,2,0,B|289:236|289:236|317:197,1,104,2|2,0:0|0:0,0:0:0:0:
472,314,24686,6,0,B|416:290|376:344|376:344|341:391|281:368,1,208,2|2,0:0|0:0,0:0:0:0:
289,370,26058,2,0,B|285:297|285:297|269:268|269:268|285:240|285:240|283:150,1,208,2|2,0:0|0:0,0:0:0:0:
387,56,27429,6,0,L|393:12,2,26,2|2|2,0:0|0:0|0:0,0:0:0:0:
311,90,27772,2,0,P|263:62|210:70,1,104,0|2,0:0|0:0,0:0:0:0:
97,109,28457,2,0,L|89:40,1,52,2|2,0:0|0:0,0:0:0:0:
173,137,28800,2,0,L|161:257,2,104,2|2|2,0:0|0:0|0:0,0:0:0:0:
74,261,29829,6,0,B|109:330|109:330|320:303|320:303|299:317,1,312,2|0,0:0|0:0,0:0:0:0:
301,315,31886,6,0,P|295:286|303:260,1,52,2|2,0:0|0:0,0:0:0:0:
262,195,32229,2,0,P|313:183|364:215,1,104,2|2,0:0|0:0,0:0:0:0:
448,348,32915,6,0,L|442:401,2,27.6250005269051,2|2|2,1:2|0:2|0:2,0:0:0:0:
485,237,33601,6,0,L|365:250,1,110.50000210762,2|0,0:0|0:0,0:0:0:0:
331,313,34115,5,2,0:2:0:0:
331,313,34201,1,2,0:2:0:0:
331,313,34286,2,0,P|273:335|252:216,1,221.000004215241,2|2,0:0|0:0,0:0:0:0:
391,127,35658,6,0,L|469:145,1,55.2500010538101,2|0,0:0|0:0,0:0:0:0:
403,47,36001,2,0,B|359:31|327:74|327:74|299:113|249:99,1,165.75000316143,2|0,0:0|0:0,0:0:0:0:
181,82,36686,6,0,P|170:43|184:21,1,55.2500010538101,2|2,0:0|0:0,0:0:0:0:
205,161,37029,2,0,P|169:194|101:191,1,110.50000210762,2|2,0:0|0:0,0:0:0:0:
258,101,37715,2,0,P|304:114|337:174,1,110.50000210762,2|2,0:0|0:0,0:0:0:0:
207,308,38401,6,0,L|161:314,2,27.6250005269051,2|2|2,0:0|0:0|0:0,0:0:0:0:
270,354,38743,1,0,0:0:0:0:
318,244,39086,6,0,L|196:229,1,110.50000210762,2|2,0:0|0:0,0:0:0:0:
131,222,39601,5,2,0:0:0:0:
131,222,39686,1,2,0:0:0:0:
131,222,39772,2,0,B|69:171|69:171|124:35,1,221.000004215241,2|2,0:0|0:0,0:0:0:0:
282,92,40972,5,2,0:0:0:0:
282,92,41143,2,0,L|287:158,1,55.2500010538101,2|0,0:0|0:0,0:0:0:0:
208,177,41486,2,0,L|197:51,1,110.50000210762,2|0,0:0|0:0,0:0:0:0:
316,15,42172,6,0,B|383:0|412:61|412:61|438:114|501:103,2,221.000004215241,2|2|2,0:0|0:0|0:0,0:0:0:0:
201,115,43886,6,0,L|152:124,2,27.6250005269051,2|2|2,0:2|0:2|0:2,0:0:0:0:
297,177,44401,5,2,0:2:0:0:
297,177,44572,2,0,L|416:199,1,110.50000210762,2|2,0:0|0:2,0:0:0:0:
482,163,45086,5,2,0:2:0:0:
482,163,45172,1,2,0:2:0:0:
482,163,45258,2,0,P|498:254|390:280,1,221.000004215241,2|2,0:0|0:0,0:0:0:0:
267,136,46629,6,0,L|276:56,1,55.2500010538101,2|0,0:0|0:0,0:0:0:0:
334,185,46972,2,0,B|289:228|289:228|182:191,1,165.75000316143,2|0,0:0|0:0,0:0:0:0:
174,118,47658,2,0,P|135:130|119:161,1,55.2500010538101,2|2,0:0|0:0,0:0:0:0:
115,223,48001,6,0,L|132:349,2,110.50000210762,2|2|2,0:0|0:0|0:0,0:0:0:0:
253,126,49029,1,2,0:0:0:0:
113,50,49372,6,0,L|79:57,2,27.6250005269051,2|2|2,0:0|0:0|0:0,0:0:0:0:
174,98,49715,1,0,0:0:0:0:
279,34,50058,6,0,P|347:44|371:94,1,110.50000210762,2|2,0:0|0:0,0:0:0:0:
408,157,50572,5,2,0:0:0:0:
408,157,50658,1,2,0:0:0:0:
408,157,50743,2,0,L|396:274,1,110.50000210762,2|2,0:0|0:2,0:0:0:0:
259,357,51429,2,0,B|229:309|229:309|260:240,1,110.50000210762,2|2,0:0|0:2,0:0:0:0:
256,192,51943,12,2,54515,0:2:0:0:
139,262,54858,6,0,B|153:280|153:280|226:268,1,92.6249975266457,2|0,1:0|0:0,0:0:0:0:
234,266,55201,2,0,P|297:268|334:323,1,123.499996702194,8|0,0:1|0:0,0:0:0:0:
418,283,55715,1,0,1:2:0:0:
418,283,55886,2,0,L|426:213,1,61.7499983510972,10|0,0:1|0:0,0:0:0:0:
412,144,56229,6,0,P|483:162|501:210,2,123.499996702194,2|10|2,1:0|0:1|0:0,0:0:0:0:
349,197,57086,1,0,1:2:0:0:
349,197,57258,1,8,0:1:0:0:
203,142,57601,6,0,L|213:76,1,61.7499983510972,2|0,1:0|0:0,0:0:0:0:
155,25,57943,2,0,P|84:43|66:91,1,123.499996702194,8|0,0:1|0:0,0:0:0:0:
95,162,58458,1,0,1:2:0:0:
95,162,58629,1,10,0:1:0:0:
139,262,58972,6,0,B|81:282|81:282|14:240,2,123.499996702194,2|10|2,1:0|0:1|0:0,0:0:0:0:
217,239,59829,1,0,1:2:0:0:
217,239,60001,1,8,0:1:0:0:
360,313,60343,6,0,L|431:325,1,61.7499983510972,0|0,1:0|0:0,0:0:0:0:
293,366,60686,2,0,P|274:308|312:244,1,123.499996702194,8|0,0:1|0:0,0:0:0:0:
383,227,61201,1,0,1:2:0:0:
383,227,61372,1,10,0:1:0:0:
355,92,61715,6,0,P|435:91|460:134,2,123.499996702194,2|10|2,1:0|0:1|0:0,0:0:0:0:
288,136,62572,1,0,1:2:0:0:
288,136,62743,2,0,L|163:110,1,123.499996702194,10|0,0:1|1:0,0:0:0:0:
136,222,63429,6,0,L|256:247,1,123.499996702194,8|0,0:1|0:0,0:0:0:0:
338,268,63943,1,0,1:2:0:0:
338,268,64115,1,10,0:1:0:0:
456,222,64458,6,0,P|468:246|466:292,1,61.7499983510972,0|0,1:0|0:0,0:0:0:0:
418,338,64801,2,0,L|297:363,1,123.499996702194,10|2,0:1|0:0,0:0:0:0:
222,344,65315,1,0,1:2:0:0:
222,344,65486,1,10,0:1:0:0:
64,361,65829,6,0,B|26:325|26:325|59:236,1,130,8|0,0:0|1:0,0:0:0:0:
99,176,66343,1,8,0:1:0:0:
143,248,66515,2,0,P|217:257|259:197,1,130,0|8,1:0|0:1,0:0:0:0:
272,83,67201,6,0,P|320:42|381:56,1,130,8|0,0:0|1:0,0:0:0:0:
435,119,67715,1,8,0:1:0:0:
435,119,67886,2,0,L|426:202,1,65,0|0,1:0|0:0,0:0:0:0:
416,260,68229,1,8,0:1:0:0:
314,337,68572,6,0,B|255:341|255:341|246:349|246:349|180:356,1,130,8|0,0:0|1:0,0:0:0:0:
123,292,69086,1,8,0:1:0:0:
204,271,69258,2,0,L|227:130,1,130,0|8,1:0|0:1,0:0:0:0:
65,0,69943,6,0,B|21:35|21:35|55:125,1,130,8|0,0:0|1:0,0:0:0:0:
97,178,70458,1,8,0:1:0:0:
142,104,70629,2,0,B|175:89|201:125|201:125|224:157|265:145,1,130,0|8,1:0|0:1,0:0:0:0:
451,190,71315,6,0,L|460:119,1,65,8|0,0:0|1:0,0:0:0:0:
469,48,71658,1,0,1:0:0:0:
469,48,71829,1,8,0:1:0:0:
387,83,72001,6,0,P|356:97|311:88,1,65,0|0,1:0|0:0,0:0:0:0:
266,32,72343,2,0,P|235:18|190:27,1,65,8|0,0:1|0:0,0:0:0:0:
134,74,72686,5,8,0:0:0:0:
134,74,72858,1,0,1:0:0:0:
180,150,73029,1,0,1:0:0:0:
180,150,73201,1,8,0:1:0:0:
124,212,73372,6,0,L|55:197,1,65,0|0,1:0|0:0,0:0:0:0:
14,266,73715,2,0,P|8:298|31:341,1,65,8|0,0:1|0:0,0:0:0:0:
113,361,74058,6,0,L|173:353,3,32.5,0|0|0|0,1:0|1:0|1:0|1:0,0:0:0:0:
187,334,74401,2,0,L|247:342,3,32.5,0|0|0|0,1:0|1:0|1:0|1:0,0:0:0:0:
261,361,74743,2,0,L|321:353,3,32.5,0|0|0|0,1:0|1:0|1:0|1:0,0:0:0:0:
326,335,75086,1,0,1:0:0:0:
351,338,75171,1,0,1:0:0:0:
377,341,75257,1,0,1:0:0:0:
403,344,75343,1,0,1:2:0:0:
403,344,76801,6,0,B|444:327|444:327|424:226,1,136.499995834351,2|8,1:1|0:0,0:0:0:0:
400,151,77315,1,8,0:1:0:0:
340,216,77486,2,0,L|269:206,1,68.2499979171754,2|8,0:1|0:1,0:0:0:0:
231,134,77829,1,8,0:0:0:0:
141,313,78172,6,0,B|100:296|100:296|120:195,1,136.499995834351,2|8,1:1|0:0,0:0:0:0:
144,116,78687,1,0,0:0:0:0:
57,140,78858,1,2,0:1:0:0:
13,69,79029,1,8,0:0:0:0:
13,69,79201,2,0,P|22:29|54:4,1,68.2499979171754,8|0,0:1|0:0,0:0:0:0:
134,23,79543,6,0,B|186:34|186:34|205:28|205:28|222:39|222:39|282:51,1,136.499995834351,2|8,1:1|0:0,0:0:0:0:
352,13,80058,1,8,0:1:0:0:
342,103,80229,2,0,L|357:188,1,68.2499979171754,2|8,0:1|0:1,0:0:0:0:
437,203,80572,1,8,0:0:0:0:
329,293,80915,6,0,B|365:279|391:315|391:315|414:347|456:335,1,136.499995834351,2|8,1:1|0:0,0:0:0:0:
508,272,81429,1,0,0:0:0:0:
449,201,81601,1,2,0:1:0:0:
505,128,81772,1,8,0:0:0:0:
505,128,81943,2,0,L|514:46,1,68.2499979171754,8|0,0:1|1:0,0:0:0:0:
431,15,82286,6,0,P|362:13|331:78,1,136.499995834351,2|8,1:1|0:0,0:0:0:0:
272,126,82800,1,8,0:1:0:0:
272,126,82972,2,0,L|279:204,1,68.2499979171754,2|8,0:1|0:1,0:0:0:0:
348,240,83315,1,8,0:0:0:0:
292,372,83658,5,2,1:1:0:0:
292,372,83829,1,0,0:0:0:0:
212,321,84001,2,0,B|152:329|152:329|145:334|145:334|67:344,1,136.499995834351,8|2,0:0|0:1,0:0:0:0:
17,277,84515,1,8,0:0:0:0:
81,220,84686,2,0,L|169:238,1,68.2499979171754,8|0,0:1|0:0,0:0:0:0:
225,233,85029,6,0,B|238:196|202:170|202:170|170:147|182:105,1,136.499995834351,2|8,1:1|0:0,0:0:0:0:
205,30,85543,1,8,0:1:0:0:
274,103,85715,1,2,0:1:0:0:
312,20,85886,1,8,0:1:0:0:
384,88,86058,6,0,B|376:152|376:152|378:159|378:159|369:243,1,136.499995834351,8|2,0:0|1:1,0:0:0:0:
421,296,86573,1,0,0:0:0:0:
421,296,86743,2,0,L|330:313,1,68.2499979171754,8|0,0:0|0:0,0:0:0:0:
281,354,87086,2,0,L|194:341,1,68.2499979171754,2|8,0:1|0:0,0:0:0:0:
128,318,87429,2,0,L|115:198,1,102.374996875763,8|0,0:1|0:0,0:0:0:0:
116,199,87772,6,0,B|152:185|178:221|178:221|201:253|243:241,1,136.499995834351,2|8,1:1|0:0,0:0:0:0:
320,227,88287,1,8,0:1:0:0:
363,150,88458,2,0,L|371:73,1,68.2499979171754,2|8,0:1|0:1,0:0:0:0:
378,0,88801,1,8,0:0:0:0:
242,69,89144,6,0,B|203:100|203:100|110:70,1,136.499995834351,2|8,1:1|0:0,0:0:0:0:
40,35,89659,1,0,0:0:0:0:
12,124,89830,1,2,0:1:0:0:
100,158,90001,1,8,0:0:0:0:
100,158,90173,2,0,L|110:252,1,68.2499979171754,8|0,0:1|0:0,0:0:0:0:
104,309,90515,6,0,B|140:323|166:287|166:287|189:255|231:267,1,136.499995834351,2|8,1:1|0:0,0:0:0:0:
304,272,91030,1,8,0:1:0:0:
326,347,91201,2,0,L|396:334,1,68.2499979171754,2|8,0:1|0:1,0:0:0:0:
465,375,91544,1,8,0:0:0:0:
420,246,91886,6,0,B|430:186|430:186|429:174|429:174|441:105,1,136.499995834351,2|8,1:1|0:0,0:0:0:0:
454,18,92401,1,0,0:0:0:0:
366,59,92573,1,2,0:1:0:0:
295,0,92744,1,8,0:0:0:0:
223,54,92915,2,0,L|132:33,1,68.2499979171754,8|0,0:1|1:0,0:0:0:0:
79,74,93258,6,0,B|90:126|90:126|84:145|84:145|95:162|95:162|107:222,1,136.499995834351,2|8,1:1|0:0,0:0:0:0:
58,278,93772,1,8,0:1:0:0:
58,278,93943,2,0,P|86:290|136:285,1,68.2499979171754,2|8,0:1|0:1,0:0:0:0:
187,227,94286,1,8,0:0:0:0:
281,118,94630,5,2,1:1:0:0:
281,118,94801,1,0,0:0:0:0:
278,208,94972,2,0,B|286:268|286:268|291:275|291:275|301:353,1,136.499995834351,8|2,0:0|0:1,0:0:0:0:
383,372,95487,1,8,0:0:0:0:
435,310,95658,2,0,L|523:328,1,68.2499979171754,8|0,0:1|0:0,0:0:0:0:
507,217,96001,6,0,L|371:240,1,136.499995834351,2|8,1:1|0:0,0:0:0:0:
285,202,96515,1,8,0:1:0:0:
360,148,96687,1,2,0:1:0:0:
278,107,96858,1,8,0:1:0:0:
357,57,97029,2,0,P|393:59|429:95,1,68.2499979171754,8|0,0:0|0:0,0:0:0:0:
445,162,97372,5,2,1:1:0:0:
256,192,97543,12,0,98743,1:0:0:0:
