osu file format v14

[General]
AudioFilename: audio.mp3
AudioLeadIn: 0
PreviewTime: 74829
Countdown: 0
SampleSet: Soft
StackLeniency: 0.5
Mode: 0
LetterboxInBreaks: 0
WidescreenStoryboard: 0

[Editor]
Bookmarks: 10972,15086,15601,15772,16286,20572,20915,21258,21601,26058,26572,26743,27258,31543,31886,32229,32572,32915,42686,42858,43201,43543,54858,71315,71486,71829,72001,72343,72686,72858,73201,73372,73715,75429,84601,87772,95572
DistanceSpacing: 0.7
BeatDivisor: 4
GridSize: 4
TimelineZoom: 2

[Metadata]
Title:C U Again
TitleUnicode:C U Again
Artist:Cartoon & Futuristik Feat. Mikk Mae
ArtistUnicode:Cartoon & Futuristik Feat. Mikk Mäe
Creator:Nikakis
Version:Xayler's Farewell
Source:
Tags:ncs nocopyrightsounds dnb drum and bass edm cut version mentai xayler hootowlstar ryokazuka
BeatmapID:1562308
BeatmapSetID:740535

[Difficulty]
HPDrainRate:6
CircleSize:4.2
OverallDifficulty:8.5
ApproachRate:9
SliderMultiplier:1.7
SliderTickRate:1

[Events]
//Background and Video events
0,0,"backgroundxd.jpg",0,0
//Break Periods
//Storyboard Layer 0 (Background)
//Storyboard Layer 1 (Fail)
//Storyboard Layer 2 (Pass)
//Storyboard Layer 3 (Foreground)
//Storyboard Sound Samples

[TimingPoints]
1,342.857142857143,4,2,2,10,1,0
10972,-166.666666666667,4,2,2,20,0,0
13629,-166.666666666667,4,2,2,5,0,0
13715,-166.666666666667,4,2,2,20,0,0
19115,-166.666666666667,4,2,2,5,0,0
19201,-166.666666666667,4,2,2,20,0,0
24601,-166.666666666667,4,2,2,5,0,0
24686,-166.666666666667,4,2,2,20,0,0
30086,-166.666666666667,4,2,2,5,0,0
30172,-166.666666666667,4,2,2,20,0,0
32915,-200,4,2,2,20,0,0
36343,-200,4,2,3,15,0,0
36429,-200,4,2,2,20,0,0
38315,-200,4,2,2,5,0,0
38401,-200,4,2,2,20,0,0
41829,-200,4,2,3,15,0,0
41915,-200,4,2,2,20,0,0
42515,-200,4,2,3,15,0,0
42601,-200,4,2,2,20,0,0
47315,-200,4,2,3,15,0,0
47401,-200,4,2,2,20,0,0
49286,-200,4,2,2,5,0,0
49372,-200,4,2,2,20,0,0
51858,-200,4,2,0,15,0,0
54001,-200,4,2,0,5,0,0
54515,-200,4,2,1,30,0,0
54858,-142.857142857143,4,2,1,40,0,0
55115,-142.857142857143,4,2,1,5,0,0
55201,-142.857142857143,4,2,1,40,0,0
56486,-142.857142857143,4,2,1,5,0,0
56572,-142.857142857143,4,2,1,40,0,0
57858,-142.857142857143,4,2,1,5,0,0
57943,-142.857142857143,4,2,1,40,0,0
59229,-142.857142857143,4,2,1,5,0,0
59315,-142.857142857143,4,2,1,40,0,0
60601,-142.857142857143,4,2,1,5,0,0
60686,-142.857142857143,4,2,1,40,0,0
63343,-142.857142857143,4,2,1,5,0,0
63429,-142.857142857143,4,2,1,40,0,0
65829,-125,4,2,1,50,0,0
71315,-100,4,2,1,65,0,0
74743,-90.9090909090909,4,2,1,65,0,0
75429,-125,4,2,1,30,0,0
76801,-83.3333333333333,4,2,1,80,0,1
97372,-83.3333333333333,4,2,1,80,0,0
98743,-83.3333333333333,4,2,1,30,0,0

[Colours]
Combo1 : 146,146,201
Combo2 : 0,255,255
Combo3 : 181,106,106
Combo4 : 0,128,255

[HitObjects]
114,309,10972,6,0,L|111:336,2,25.4999992218018,14|0|0,0:0|0:0|0:0,0:0:0:0:
173,249,11658,2,0,L|278:253,1,101.999996887207,10|2,0:0|0:0,0:0:0:0:
345,201,12172,1,0,0:0:0:0:
347,211,12258,1,0,0:0:0:0:
349,221,12343,2,0,L|354:281,1,50.9999984436036,10|0,0:0|0:0,0:0:0:0:
430,176,12686,2,0,L|435:236,1,50.9999984436036,2|0,0:0|0:0,0:0:0:0:
277,164,13029,2,0,P|261:143|260:105,1,50.9999984436036,10|0,0:0|0:0,0:0:0:0:
349,221,13372,2,0,P|357:263|334:311,1,76.4999976654053,2|0,0:0|0:0,0:0:0:0:
325,316,13715,6,0,B|373:297|373:297|222:285,1,203.999993774414,8|8,0:0|0:0,0:0:0:0:
221,284,15086,2,0,P|257:237|217:150,1,152.999995330811,8|0,0:0|0:0,0:0:0:0:
145,126,15772,2,0,L|311:119,1,152.999995330811,8|0,0:0|0:0,0:0:0:0:
370,71,16458,6,0,L|367:45,2,25.4999992218018,12|0|0,0:0|0:0|0:0,0:0:0:0:
431,133,16801,2,0,P|438:161|435:187,1,50.9999984436036,2|0,0:0|0:0,0:0:0:0:
367,235,17143,2,0,L|265:231,1,101.999996887207,10|2,0:0|0:0,0:0:0:0:
191,184,17658,1,0,0:0:0:0:
183,178,17743,1,0,0:0:0:0:
174,173,17829,2,0,L|179:233,1,50.9999984436036,10|0,0:0|0:0,0:0:0:0:
85,144,18172,2,0,L|90:204,1,50.9999984436036,2|0,0:0|0:0,0:0:0:0:
259,143,18515,2,0,P|275:122|276:84,1,50.9999984436036,10|0,0:0|0:0,0:0:0:0:
174,173,18858,2,0,P|166:215|189:263,1,76.4999976654053,2|0,0:0|0:0,0:0:0:0:
196,270,19201,6,0,B|275:290|275:253|347:273|347:273|313:279|290:314,1,203.999993774414,8|8,0:0|0:0,0:0:0:0:
303,297,20572,1,8,0:0:0:0:
254,225,20915,2,0,P|247:197|250:171,1,50.9999984436036
303,297,21258,2,0,P|256:313|200:293,1,101.999996887207,8|0,0:0|0:0,0:0:0:0:
342,190,21943,6,0,L|345:224,2,25.4999992218018,12|0|0,0:0|0:0|0:0,0:0:0:0:
377,113,22629,2,0,L|272:117,1,101.999996887207,10|2,0:0|0:0,0:0:0:0:
178,150,23143,1,0,0:0:0:0:
183,141,23229,1,0,0:0:0:0:
188,132,23315,2,0,P|195:104|192:78,1,50.9999984436036,10|0,0:0|0:0,0:0:0:0:
108,178,23658,2,0,P|101:206|104:232,1,50.9999984436036,2|0,0:0|0:0,0:0:0:0:
192,82,24001,2,0,L|132:77,1,50.9999984436036,10|0,0:0|0:0,0:0:0:0:
200,224,24343,2,0,L|283:218,1,76.4999976654053,2|0,0:0|0:0,0:0:0:0:
305,207,24686,6,0,B|286:159|286:159|274:310,1,203.999993774414,10|8,0:0|0:0,0:0:0:0:
274,311,26058,2,0,L|286:158,1,152.999995330811,8|0,0:0|0:0,0:0:0:0:
337,88,26743,2,0,P|274:125|208:93,1,152.999995330811,8|0,0:0|0:0,0:0:0:0:
143,34,27429,6,0,L|140:8,2,25.4999992218018,12|0|0,0:0|0:0|0:0,0:0:0:0:
76,90,27772,2,0,P|69:118|72:144,1,50.9999984436036,2|0,0:0|0:0,0:0:0:0:
122,210,28115,2,0,L|224:206,1,101.999996887207,10|2,0:0|0:0,0:0:0:0:
321,172,28629,1,0,0:0:0:0:
316,181,28715,1,0,0:0:0:0:
311,190,28801,2,0,P|304:218|307:244,1,50.9999984436036,10|0,0:0|0:0,0:0:0:0:
388,141,29144,2,0,P|395:113|392:87,1,50.9999984436036,2|0,0:0|0:0,0:0:0:0:
306,239,29486,2,0,L|366:244,1,50.9999984436036,10|0,0:0|0:0,0:0:0:0:
298,97,29828,2,0,L|215:103,1,76.4999976654053,2|0,0:0|0:0,0:0:0:0:
193,90,30172,6,0,B|173:169|210:169|190:241|190:241|184:207|149:184,1,203.999993774414,8|8,0:0|0:0,0:0:0:0:
165,197,31543,1,8,0:0:0:0:
237,148,31886,2,0,P|265:141|291:144,1,50.9999984436036
165,197,32229,2,0,P|149:149|169:94,1,101.999996887207,8|0,0:0|0:0,0:0:0:0:
245,236,32915,6,0,L|248:262,2,21.25,12|0|0,0:0|0:0|0:0,0:0:0:0:
237,148,33601,2,0,P|282:137|332:160,1,85,10|0,0:0|0:0,0:0:0:0:
377,210,34115,1,0,0:0:0:0:
388,212,34201,1,0,0:0:0:0:
399,214,34286,2,0,B|441:208|441:208|416:250|439:293,1,127.5,10|0,0:0|0:0,0:0:0:0:
481,363,34972,2,0,L|354:358,1,127.5,10|0,0:0|0:0,0:0:0:0:
269,373,35658,6,0,P|269:344|279:314,1,42.5,10|0,0:0|0:0,0:0:0:0:
335,273,36001,2,0,P|272:289|208:256,1,127.5,2|0,0:0|0:0,0:0:0:0:
194,188,36686,1,2,0:0:0:0:
194,188,36858,1,2,0:0:0:0:
133,247,37029,2,0,L|85:249,1,42.5,10|0,0:0|0:0,0:0:0:0:
167,335,37372,2,0,L|119:337,1,42.5,2|0,0:0|0:0,0:0:0:0:
216,264,37715,2,0,P|241:278|262:302,1,42.5,10|0,0:0|0:0,0:0:0:0:
133,247,38058,2,0,P|133:216|153:176,1,63.75,2|0,0:0|0:0,0:0:0:0:
161,166,38401,6,0,L|158:144,2,21.25,12|0|0,0:0|0:0|0:0,0:0:0:0:
216,234,39086,2,0,P|262:244|312:221,1,85,10|0,0:0|0:0,0:0:0:0:
360,174,39601,1,0,0:0:0:0:
371,175,39686,1,0,0:0:0:0:
382,176,39772,2,0,P|398:220|392:267,1,85,10|0,0:0|0:0,0:0:0:0:
332,315,40286,1,0,0:0:0:0:
321,314,40371,1,0,0:0:0:0:
310,313,40458,2,0,P|294:269|300:222,1,85,10|0,0:0|0:0,0:0:0:0:
297,146,40972,1,2,0:0:0:0:
224,189,41143,6,0,L|181:187,1,42.5,10|0,0:0|0:0,0:0:0:0:
150,108,41486,2,0,L|15:112,1,127.5,2|0,0:0|0:0,0:0:0:0:
39,28,42172,2,0,P|91:60|106:129,1,127.5,2|0,0:0|0:0,0:0:0:0:
72,199,42858,2,0,P|47:191|25:176,1,42.5
158,192,43201,2,0,P|147:241|112:277,1,85,8|0,0:0|0:0,0:0:0:0:
107,121,43886,6,0,L|109:99,2,21.25,12|0|0,0:0|0:0|0:0,0:0:0:0:
158,192,44401,1,2,0:0:0:0:
158,192,44572,2,0,P|203:203|253:180,1,85,10|2,0:0|0:0,0:0:0:0:
288,122,45086,1,0,0:0:0:0:
297,116,45172,1,0,0:0:0:0:
306,110,45258,2,0,P|346:98|386:109,1,85,10|0,0:0|0:0,0:0:0:0:
438,178,45772,1,0,0:0:0:0:
449,176,45858,1,0,0:0:0:0:
460,175,45943,2,0,B|502:169|502:169|464:197|477:253,1,127.5,10|0,0:0|0:0,0:0:0:0:
472,330,46629,6,0,L|429:328,1,42.5,10|0,0:0|0:0,0:0:0:0:
390,252,46972,2,0,L|255:256,1,127.5,2|0,0:0|0:0,0:0:0:0:
224,185,47658,1,2,0:0:0:0:
224,185,47829,1,0,0:0:0:0:
177,257,48001,2,0,L|129:259,1,42.5,10|0,0:0|0:0,0:0:0:0:
237,338,48344,2,0,L|189:340,1,42.5,2|0,0:0|0:0,0:0:0:0:
262,255,48686,2,0,P|287:269|308:293,1,42.5,10|0,0:0|0:0,0:0:0:0:
177,257,49029,2,0,P|177:226|197:186,1,63.75,2|0,0:0|0:0,0:0:0:0:
206,177,49372,6,0,L|203:155,2,21.25,12|0|0,0:0|0:0|0:0,0:0:0:0:
263,241,50058,2,0,P|309:251|359:228,1,85,10|2,0:0|0:0,0:0:0:0:
410,185,50572,1,0,0:0:0:0:
421,186,50657,1,0,0:0:0:0:
432,187,50743,2,0,P|448:231|442:278,1,85,10|0,0:0|0:0,0:0:0:0:
369,309,51258,1,0,0:0:0:0:
367,298,51343,1,0,0:0:0:0:
365,287,51429,2,0,L|363:244,1,42.5,10|0,0:0|0:0,0:0:0:0:
443,354,51772,1,2,0:0:0:0:
256,192,51858,12,0,54001,0:0:0:0:
352,264,54515,5,2,0:0:0:0:
352,264,54858,6,0,P|360:224|342:177,1,89.2499972763062,6|0,0:0|0:0,0:0:0:0:
322,159,55201,2,0,L|198:163,1,118.999996368408,2|0,0:0|0:0,0:0:0:0:
130,120,55715,1,4,0:3:0:0:
173,243,55886,2,0,P|204:250|235:243,1,59.4999981842042,2|0,0:0|0:0,0:0:0:0:
331,70,56229,6,0,L|321:160,1,89.2499972763062,4|0,0:3|0:0,0:0:0:0:
312,187,56572,2,0,P|343:180|374:187,1,59.4999981842042,2|0,0:0|0:0,0:0:0:0:
486,247,56915,2,0,P|455:254|424:247,1,59.4999981842042,0|4,0:0|0:3,0:0:0:0:
456,168,57258,1,2,0:0:0:0:
456,168,57601,6,0,P|464:128|446:81,1,89.2499972763062,4|0,0:3|0:0,0:0:0:0:
426,63,57944,2,0,L|302:67,1,118.999996368408,2|0,0:0|0:0,0:0:0:0:
234,25,58458,1,4,0:3:0:0:
279,148,58629,2,0,P|284:177|277:205,1,59.4999981842042,2|0,0:0|0:0,0:0:0:0:
92,285,58972,6,0,L|180:275,1,89.2499972763062,4|0,0:3|0:0,0:0:0:0:
210,270,59315,2,0,P|215:299|208:327,1,59.4999981842042,2|0,0:0|0:0,0:0:0:0:
135,202,59658,2,0,P|130:173|137:145,1,59.4999981842042,0|4,0:0|0:3,0:0:0:0:
214,177,60001,1,2,0:0:0:0:
214,177,60343,6,0,L|305:173,1,89.2499972763062,4|0,0:3|0:0,0:0:0:0:
332,181,60686,2,0,P|337:152|330:124,1,59.4999981842042,2|0,0:0|0:0,0:0:0:0:
286,250,61201,1,4,0:3:0:0:
332,181,61372,2,0,L|403:182,1,59.4999981842042,2|0,0:0|0:0,0:0:0:0:
402,325,61715,6,0,P|394:296|399:267,1,59.4999981842042,4|0,0:3|0:0,0:0:0:0:
474,158,62058,2,0,P|479:187|472:215,1,59.4999981842042,2|0,0:0|0:0,0:0:0:0:
391,181,62401,1,0,0:0:0:0:
411,100,62572,1,4,0:3:0:0:
471,215,62743,2,0,P|476:244|469:272,1,59.4999981842042,2|0,0:0|0:0,0:0:0:0:
328,123,63086,6,0,L|332:32,1,89.2499972763062,4|0,0:3|0:0,0:0:0:0:
347,8,63429,2,0,P|376:3|404:10,1,59.4999981842042,2|0,0:0|0:0,0:0:0:0:
328,123,63943,1,4,0:3:0:0:
407,94,64115,2,0,L|407:153,1,59.4999981842042,2|0,0:0|0:0,0:0:0:0:
398,297,64458,6,0,P|406:268|401:239,1,59.4999981842042,4|0,0:3|0:0,0:0:0:0:
326,130,64801,2,0,P|321:159|328:187,1,59.4999981842042,2|0,0:0|0:0,0:0:0:0:
408,153,65143,1,0,0:0:0:0:
388,72,65314,1,4,0:3:0:0:
328,187,65486,2,0,P|323:216|330:244,1,59.4999981842042,2|0,0:0|0:0,0:0:0:0:
388,72,65829,5,4,0:0:0:0:
388,72,66172,1,4,0:3:0:0:
472,57,66343,1,0,0:0:0:0:
304,89,66515,1,4,0:3:0:0:
472,57,66858,2,0,P|472:90|449:131,1,68,4|0,0:3|0:0,0:0:0:0:
289,153,67201,6,0,P|289:120|312:79,1,68,4|0,0:3|0:0,0:0:0:0:
457,121,67543,1,4,0:3:0:0:
374,138,67715,1,0,0:0:0:0:
442,38,67886,2,0,P|475:38|516:61,1,68,4|0,0:3|0:0,0:0:0:0:
374,138,68229,2,0,P|403:121|436:118,1,68,4|0,0:3|0:0,0:0:0:0:
289,153,68572,5,4,0:3:0:0:
289,153,68915,1,4,0:3:0:0:
274,69,69086,1,0,0:0:0:0:
306,237,69258,1,4,0:3:0:0:
274,69,69601,2,0,P|307:69|348:92,1,68,4|0,0:3|0:0,0:0:0:0:
370,252,69944,6,0,P|337:252|296:229,1,68,4|0,0:3|0:0,0:0:0:0:
338,84,70286,1,4,0:3:0:0:
355,167,70458,1,0,0:0:0:0:
255,99,70629,2,0,P|255:66|278:25,1,68,4|0,0:3|0:0,0:0:0:0:
355,167,70972,2,0,P|338:138|335:105,1,68,4|0,0:3|0:0,0:0:0:0:
437,201,71314,5,4,0:3:0:0:
255,99,71486,1,4,0:3:0:0:
467,32,71658,1,4,0:3:0:0:
366,253,71829,1,4,0:3:0:0:
239,86,72001,1,4,0:3:0:0:
488,27,72173,1,4,0:3:0:0:
282,225,72343,5,4,0:3:0:0:
478,146,72515,1,4,0:3:0:0:
289,306,72686,2,0,P|274:262|291:213,1,85,4|4,0:3|0:3,0:0:0:0:
478,146,73029,2,0,P|492:189|475:238,1,85,4|4,0:3|0:3,0:0:0:0:
283,225,73372,5,4,0:3:0:0:
309,3,73543,1,4,0:3:0:0:
166,170,73715,1,4,0:3:0:0:
423,45,73886,1,4,0:3:0:0:
283,225,74058,5,4,0:3:0:0:
254,223,74143,1,4,0:3:0:0:
225,221,74229,1,4,0:3:0:0:
196,220,74315,1,4,0:3:0:0:
167,218,74401,1,4,0:3:0:0:
138,216,74486,1,4,0:3:0:0:
109,214,74572,1,4,0:3:0:0:
80,212,74658,1,4,0:3:0:0:
51,210,74743,6,0,P|44:228|44:255,1,46.7500014266968,4|4,0:3|0:3,0:0:0:0:
195,48,74915,2,0,P|202:66|202:93,1,46.7500014266968,4|4,0:3|0:3,0:0:0:0:
110,369,75086,6,0,L|107:323,1,46.7500014266968,4|4,0:3|0:3,0:0:0:0:
295,25,75258,2,0,L|292:71,1,46.7500014266968,4|4,0:3|0:3,0:0:0:0:
143,317,76801,6,0,L|137:208,1,101.999996887207,6|0,0:0|0:0,0:0:0:0:
69,45,77143,1,8,0:0:0:0:
239,161,77315,1,2,0:0:0:0:
0,136,77486,2,0,L|101:130,1,101.999996887207,2|4,0:0|0:3,0:0:0:0:
332,49,77829,2,0,L|230:43,1,101.999996887207,10|0,0:0|0:0,0:0:0:0:
433,17,78172,5,4,0:3:0:0:
308,152,78343,1,0,0:0:0:0:
132,37,78515,2,0,P|184:27|232:45,1,101.999996887207,10|0,0:0|0:0,0:0:0:0:
97,226,78858,1,2,0:0:0:0:
308,152,79029,1,4,0:3:0:0:
65,119,79201,1,10,0:0:0:0:
240,289,79372,1,0,0:0:0:0:
327,58,79543,6,0,L|436:64,1,101.999996887207,6|0,0:0|0:0,0:0:0:0:
228,24,79886,1,8,0:0:0:0:
398,140,80058,1,2,0:0:0:0:
205,8,80229,2,0,P|189:57|200:105,1,101.999996887207,2|4,0:0|0:3,0:0:0:0:
420,255,80572,2,0,P|436:206|425:158,1,101.999996887207,10|0,0:0|0:0,0:0:0:0:
252,266,80915,5,4,0:3:0:0:
326,98,81086,1,0,0:0:0:0:
154,210,81258,2,0,L|52:204,1,101.999996887207,10|0,0:0|0:0,0:0:0:0:
317,363,81601,2,0,L|418:357,1,101.999996887207,2|4,0:0|0:3,0:0:0:0:
138,190,81943,2,0,L|36:184,1,101.999996887207,10|0,0:0|0:0,0:0:0:0:
325,98,82286,6,0,L|330:199,1,101.999996887207,6|0,0:0|0:0,0:0:0:0:
256,368,82629,1,8,0:0:0:0:
429,305,82801,1,2,0:0:0:0:
192,238,82972,2,0,L|90:243,1,101.999996887207,2|4,0:0|0:3,0:0:0:0:
330,199,83315,2,0,L|431:204,1,101.999996887207,10|0,0:0|0:0,0:0:0:0:
238,138,83658,5,4,0:3:0:0:
312,306,83829,1,0,0:0:0:0:
467,173,84001,2,0,P|480:124|467:75,1,101.999996887207,10|0,0:0|0:0,0:0:0:0:
330,199,84343,1,2,0:0:0:0:
471,340,84515,1,4,0:3:0:0:
305,175,84686,2,0,L|203:180,1,101.999996887207,10|0,0:0|0:0,0:0:0:0:
467,173,85029,6,0,P|479:221|466:270,1,101.999996887207,6|0,0:0|0:0,0:0:0:0:
305,175,85372,1,8,0:0:0:0:
428,13,85543,1,2,0:0:0:0:
286,201,85715,2,0,L|291:303,1,101.999996887207,2|4,0:0|0:3,0:0:0:0:
408,41,86058,2,0,L|413:143,1,101.999996887207,10|0,0:0|0:0,0:0:0:0:
221,71,86401,5,4,0:3:0:0:
407,259,86572,1,0,0:0:0:0:
153,184,86743,2,0,L|41:190,1,101.999996887207,10|0,0:0|0:0,0:0:0:0:
349,32,87086,5,2,0:0:0:0:
230,293,87258,1,4,0:3:0:0:
474,109,87429,2,0,L|468:221,1,101.999996887207,10|0,0:0|0:0,0:0:0:0:
221,71,87772,6,0,L|333:77,1,101.999996887207,6|0,0:0|0:0,0:0:0:0:
391,248,88115,1,8,0:0:0:0:
468,59,88286,1,2,0:0:0:0:
266,202,88458,2,0,L|165:196,1,101.999996887207,2|4,0:0|0:3,0:0:0:0:
341,366,88801,2,0,L|442:360,1,101.999996887207,10|0,0:0|0:0,0:0:0:0:
245,314,89143,5,4,0:3:0:0:
405,224,89314,1,0,0:0:0:0:
266,74,89486,2,0,P|249:121|260:171,1,101.999996887207,10|0,0:0|0:0,0:0:0:0:
468,85,89829,1,2,0:0:0:0:
315,249,90000,1,4,0:3:0:0:
369,9,90172,1,10,0:0:0:0:
499,216,90343,1,0,0:0:0:0:
266,74,90515,6,0,L|154:80,1,101.999996887207,6|0,0:0|0:0,0:0:0:0:
362,26,90858,1,8,0:0:0:0:
212,167,91030,1,2,0:0:0:0:
382,6,91201,2,0,P|405:51|402:101,1,101.999996887207,2|4,0:0|0:3,0:0:0:0:
208,284,91544,2,0,P|184:238|187:188,1,101.999996887207,10|0,0:0|0:0,0:0:0:0:
361,296,91886,5,4,0:3:0:0:
287,128,92057,1,0,0:0:0:0:
452,249,92229,2,0,L|446:351,1,101.999996887207,10|0,0:0|0:0,0:0:0:0:
281,104,92572,2,0,L|287:3,1,101.999996887207,2|4,0:0|0:3,0:0:0:0:
472,272,92915,2,0,L|466:374,1,101.999996887207,10|0,0:0|0:0,0:0:0:0:
196,224,93259,6,0,L|297:219,1,101.999996887207,6|0,0:0|0:0,0:0:0:0:
439,100,93602,1,8,0:0:0:0:
371,292,93773,1,2,0:0:0:0:
286,63,93944,2,0,L|185:68,1,101.999996887207,2|4,0:0|0:3,0:0:0:0:
396,192,94287,2,0,L|497:197,1,101.999996887207,10|0,0:0|0:0,0:0:0:0:
292,239,94629,5,4,0:3:0:0:
383,83,94802,1,0,0:0:0:0:
209,191,94972,2,0,P|196:240|209:289,1,101.999996887207,10|0,0:0|0:0,0:0:0:0:
374,202,95316,1,2,0:0:0:0:
227,63,95487,1,4,0:3:0:0:
397,224,95658,2,0,L|499:219,1,101.999996887207,10|0,0:0|0:0,0:0:0:0:
324,12,96001,6,0,P|311:60|323:109,1,101.999996887207,6|0,0:0|0:0,0:0:0:0:
497,49,96343,1,8,0:0:0:0:
397,224,96514,1,2,0:0:0:0:
512,19,96686,2,0,L|507:121,1,101.999996887207,2|4,0:0|0:3,0:0:0:0:
298,317,97029,2,0,L|303:215,1,101.999996887207,10|0,0:0|0:0,0:0:0:0:
512,19,97372,5,4,0:3:0:0:
256,192,97458,12,4,98743,0:0:0:0:
