osu file format v14

[General]
AudioFilename: audio.mp3
AudioLeadIn: 0
PreviewTime: 74829
Countdown: 0
SampleSet: Soft
StackLeniency: 0.7
Mode: 0
LetterboxInBreaks: 0
WidescreenStoryboard: 1

[Editor]
DistanceSpacing: 1.1
BeatDivisor: 4
GridSize: 4
TimelineZoom: 1.3

[Metadata]
Title:C U Again
TitleUnicode:C U Again
Artist:Cartoon & Futuristik Feat. Mikk Mae
ArtistUnicode:Cartoon & Futuristik Feat. Mikk Mäe
Creator:Nikakis
Version:Normal
Source:
Tags:ncs nocopyrightsounds dnb drum and bass edm cut version mentai xayler hootowlstar ryokazuka
BeatmapID:1562307
BeatmapSetID:740535

[Difficulty]
HPDrainRate:4
CircleSize:3
OverallDifficulty:5
ApproachRate:6
SliderMultiplier:1.3
SliderTickRate:1

[Events]
//Background and Video events
0,0,"backgroundxd.jpg",0,0
//Break Periods
//Storyboard Layer 0 (Background)
//Storyboard Layer 1 (Fail)
//Storyboard Layer 2 (Pass)
//Storyboard Layer 3 (Foreground)
//Storyboard Sound Samples

[TimingPoints]
1,342.857142857143,4,2,1,10,1,0
10972,-100,4,2,2,20,0,0
11658,-133.333333333333,4,2,2,20,0,0
13715,-133.333333333333,4,2,2,20,0,0
14401,-133.333333333333,4,2,3,20,0,0
14486,-133.333333333333,4,2,2,20,0,0
17143,-133.333333333333,4,2,2,20,0,0
18858,-133.333333333333,4,2,2,20,0,0
19201,-133.333333333333,4,2,3,15,0,0
19286,-133.333333333333,4,2,2,20,0,0
22629,-133.333333333333,4,2,2,20,0,0
24686,-133.333333333333,4,2,2,20,0,0
25372,-133.333333333333,4,2,3,15,0,0
25458,-133.333333333333,4,2,2,20,0,0
28115,-133.333333333333,4,2,2,20,0,0
29829,-133.333333333333,4,2,2,20,0,0
30172,-133.333333333333,4,2,3,15,0,0
30258,-133.333333333333,4,2,2,20,0,0
42515,-133.333333333333,4,2,3,15,0,0
42601,-133.333333333333,4,2,2,20,0,0
52115,-133.333333333333,4,2,3,15,0,0
52201,-133.333333333333,4,2,2,20,0,0
54515,-133.333333333333,4,2,1,20,0,0
54858,-133.333333333333,4,2,1,50,0,0
76801,-133.333333333333,4,2,1,85,0,1
97372,-133.333333333333,4,2,1,85,0,0
98743,-133.333333333333,4,2,1,5,0,0

[Colours]
Combo1 : 146,146,201
Combo2 : 0,255,255
Combo3 : 181,106,106
Combo4 : 0,128,255

[HitObjects]
304,352,10972,5,14,0:0:0:0:
92,336,11658,2,0,L|200:344,1,97.50000371933,10|2,0:0|0:0,0:0:0:0:
268,272,12343,2,0,P|280:216|268:164,1,97.50000371933,10|2,0:0|0:0,0:0:0:0:
232,80,13029,2,0,L|329:73,1,97.50000371933,10|2,0:0|0:0,0:0:0:0:
436,60,13715,2,0,B|480:160|480:160|491:342,1,292.50001115799,8|0,0:0|0:0,0:0:0:0:
384,344,15086,1,8,0:0:0:0:
356,132,15772,1,8,0:0:0:0:
256,320,16458,5,12,0:0:0:0:
268,212,16801,2,0,L|273:152,1,48.750001859665,2|0,0:0|0:0,0:0:0:0:
276,110,17143,2,0,L|168:102,1,97.50000371933,10|2,0:0|0:0,0:0:0:0:
80,148,17829,2,0,P|68:204|80:256,1,97.50000371933,10|2,0:0|0:0,0:0:0:0:
110,344,18515,1,10,0:0:0:0:
216,328,18858,2,0,P|292:252|200:104,1,292.50001115799,2|8,0:0|0:0,0:0:0:0:
32,216,20572,1,8,0:0:0:0:
216,107,21258,1,8,0:0:0:0:
128,304,21944,5,12,0:0:0:0:
340,340,22629,2,0,L|348:232,1,97.50000371933,10|2,0:0|0:0,0:0:0:0:
248,200,23315,2,0,P|200:206|153:194,1,97.50000371933,10|2,0:0|0:0,0:0:0:0:
204,100,24000,2,0,L|212:2,1,97.50000371933,10|2,0:0|0:0,0:0:0:0:
304,56,24686,2,0,B|348:156|348:156|359:338,1,292.50001115799,10|0,0:0|0:0,0:0:0:0:
252,348,26057,1,8,0:0:0:0:
400,192,26743,1,8,0:0:0:0:
252,36,27429,5,12,0:0:0:0:
244,144,27772,2,0,L|238:203,1,48.750001859665,2|0,0:0|0:0,0:0:0:0:
234,246,28115,2,0,L|136:238,1,97.50000371933,10|2,0:0|0:0,0:0:0:0:
40,188,28801,2,0,P|33:139|45:92,1,97.50000371933,10|2,0:0|0:0,0:0:0:0:
140,144,29486,1,10,0:0:0:0:
188,240,29829,2,0,P|297:321|408:240,1,292.50001115799,2|8,0:0|0:0,0:0:0:0:
344,36,31543,1,8,0:0:0:0:
408,239,32229,1,8,0:0:0:0:
256,88,32915,5,12,0:0:0:0:
256,304,33601,2,0,L|375:314,1,97.50000371933,10|0,0:0|0:0,0:0:0:0:
456,288,34286,2,0,P|463:239|451:192,1,97.50000371933,10|0,0:0|0:0,0:0:0:0:
412,92,34972,2,0,L|217:73,1,195.00000743866,10|10,0:0|0:0,0:0:0:0:
110,63,36001,1,2,0:0:0:0:
180,268,36686,2,0,L|228:272,1,48.750001859665,2|2,0:0|0:0,0:0:0:0:
284,276,37029,2,0,L|294:156,1,97.50000371933,10|2,0:0|0:0,0:0:0:0:
344,84,37715,2,0,P|391:72|438:79,1,97.50000371933,10|2,0:0|0:0,0:0:0:0:
504,164,38401,5,12,0:0:0:0:
384,344,39086,2,0,L|392:246,1,97.50000371933,10|0,0:0|0:0,0:0:0:0:
336,156,39772,2,0,P|288:144|241:151,1,97.50000371933,10|0,0:0|0:0,0:0:0:0:
156,220,40458,2,0,L|147:317,1,97.50000371933,10|0,0:0|0:0,0:0:0:0:
60,376,41143,1,10,0:0:0:0:
36,272,41486,2,0,L|44:174,1,97.50000371933,2|10,0:0|0:0,0:0:0:0:
116,96,42172,2,0,L|310:114,1,195.00000743866,2|0,0:0|0:0,0:0:0:0:
394,182,43201,2,0,P|442:194|489:187,1,97.50000371933,8|0,0:0|0:0,0:0:0:0:
500,80,43886,5,12,0:0:0:0:
296,20,44572,2,0,P|248:12|201:24,1,97.50000371933,10|2,0:0|0:0,0:0:0:0:
133,107,45258,2,0,L|124:204,1,97.50000371933,10|0,0:0|0:0,0:0:0:0:
112,312,45943,2,0,B|208:336|208:336|312:312,1,195.00000743866,10|10,0:0|0:0,0:0:0:0:
400,272,46972,1,2,0:0:0:0:
368,60,47658,2,0,L|319:55,1,48.750001859665,2|0,0:0|0:0,0:0:0:0:
264,52,48001,2,0,L|253:171,1,97.50000371933,10|2,0:0|0:0,0:0:0:0:
216,248,48686,2,0,P|168:255|121:243,1,97.50000371933,10|2,0:0|0:0,0:0:0:0:
32,184,49372,5,12,0:0:0:0:
184,32,50058,2,0,L|175:129,1,97.50000371933,10|2,0:0|0:0,0:0:0:0:
268,180,50743,2,0,P|315:191|362:184,1,97.50000371933,10|0,0:0|0:0,0:0:0:0:
463,145,51429,1,10,0:0:0:0:
403,55,51772,2,0,B|307:31|307:31|213:52,1,195.00000743866,2|0,0:0|0:0,0:0:0:0:
116,96,52801,1,10,0:0:0:0:
64,304,53486,1,10,0:0:0:0:
236,180,54172,1,10,0:0:0:0:
136,144,54515,2,0,L|144:84,1,48.750001859665,2|0,0:0|0:0,0:0:0:0:
148,56,54858,6,0,L|354:73,1,195.00000743866,6|0,0:0|0:0,0:0:0:0:
440,120,55886,1,2,0:0:0:0:
344,167,56229,2,0,P|334:119|342:71,1,97.50000371933,4|2,0:3|0:0,0:0:0:0:
440,120,56915,2,0,L|423:314,1,195.00000743866,0|4,0:0|0:3,0:0:0:0:
320,344,57943,1,2,0:0:0:0:
340,132,58629,1,2,0:0:0:0:
252,72,58972,6,0,P|204:63|156:73,1,97.50000371933,4|2,0:3|0:0,0:0:0:0:
60,124,59658,2,0,L|76:318,1,195.00000743866,0|4,0:0|0:3,0:0:0:0:
180,348,60686,1,2,0:0:0:0:
240,140,61372,1,2,0:0:0:0:
164,216,61715,6,0,P|116:226|68:218,1,97.50000371933,4|2,0:3|0:0,0:0:0:0:
21,121,62401,1,0,0:0:0:0:
94,43,62743,2,0,L|289:59,1,195.00000743866,2|2,0:0|0:0,0:0:0:0:
494,117,64115,2,0,L|478:311,1,195.00000743866,2|2,0:0|0:0,0:0:0:0:
373,335,65143,1,0,0:0:0:0:
277,287,65486,2,0,L|83:270,1,195.00000743866,2|4,0:0|0:3,0:0:0:0:
26,178,66515,1,4,0:3:0:0:
98,98,66858,1,4,0:3:0:0:
176,24,67201,6,0,P|224:14|272:22,1,97.50000371933,4|4,0:3|0:3,0:0:0:0:
225,119,67886,2,0,L|241:313,1,195.00000743866,4|4,0:3|0:3,0:0:0:0:
340,353,68915,1,4,0:3:0:0:
419,280,69258,1,4,0:3:0:0:
493,203,69601,2,0,P|503:155|495:107,1,97.50000371933,4|4,0:3|0:3,0:0:0:0:
397,62,70286,1,4,0:3:0:0:
300,14,70629,2,0,L|106:30,1,195.00000743866,4|4,0:3|0:3,0:0:0:0:
55,125,71658,1,4,0:3:0:0:
59,232,72001,1,4,0:3:0:0:
147,292,72343,1,4,0:3:0:0:
253,295,72686,6,0,P|263:247|255:199,1,97.50000371933,4|4,0:3|0:3,0:0:0:0:
215,100,73371,1,4,0:3:0:0:
154,189,73715,1,4,0:3:0:0:
256,192,73886,12,4,75343,0:3:0:0:
225,30,76801,6,0,B|177:22|177:22|127:37,1,97.50000371933,6|8,0:0|0:0,0:0:0:0:
89,70,77315,1,2,0:0:0:0:
93,122,77486,2,0,L|97:170,1,48.750001859665,2|4,0:0|0:3,0:0:0:0:
105,222,77829,2,0,B|205:238|205:238|300:203,1,195.00000743866,10|10,0:0|0:0,0:0:0:0:
389,158,78858,1,2,0:0:0:0:
449,246,79201,1,10,0:0:0:0:
420,346,79543,6,0,B|372:354|372:354|322:339,1,97.50000371933,6|8,0:0|0:0,0:0:0:0:
284,306,80057,1,2,0:0:0:0:
288,254,80229,2,0,L|292:206,1,48.750001859665,2|4,0:0|0:3,0:0:0:0:
293,151,80572,2,0,P|277:68|168:57,1,195.00000743866,10|10,0:0|0:0,0:0:0:0:
90,109,81601,1,2,0:0:0:0:
1,171,81944,1,10,0:0:0:0:
77,246,82286,6,0,B|125:254|125:254|175:239,1,97.50000371933,6|8,0:0|0:0,0:0:0:0:
213,206,82800,1,2,0:0:0:0:
209,154,82971,2,0,L|205:106,1,48.750001859665,2|4,0:0|0:3,0:0:0:0:
197,54,83315,2,0,B|297:37|297:37|384:69,1,195.00000743866,10|10,0:0|0:0,0:0:0:0:
481,114,84343,1,2,0:0:0:0:
457,218,84686,1,10,0:0:0:0:
425,322,85029,6,0,P|378:331|330:321,1,97.50000371933,6|8,0:0|0:0,0:0:0:0:
267,233,85715,1,2,0:0:0:0:
375,237,86058,2,0,L|358:42,1,195.00000743866,10|10,0:0|0:0,0:0:0:0:
259,5,87086,1,2,0:0:0:0:
151,13,87429,1,10,0:0:0:0:
87,101,87772,6,0,B|79:149|79:149|94:199,1,97.50000371933,6|8,0:0|0:0,0:0:0:0:
127,237,88286,1,2,0:0:0:0:
179,233,88457,2,0,L|227:229,1,48.750001859665,2|4,0:0|0:3,0:0:0:0:
279,221,88800,2,0,B|295:120|295:120|260:25,1,195.00000743866,10|10,0:0|0:0,0:0:0:0:
157,12,89829,1,2,0:0:0:0:
93,96,90172,1,10,0:0:0:0:
37,188,90515,6,0,B|29:236|29:236|44:286,1,97.50000371933,6|8,0:0|0:0,0:0:0:0:
77,324,91029,1,2,0:0:0:0:
129,320,91200,2,0,L|177:316,1,48.750001859665,2|4,0:0|0:3,0:0:0:0:
229,308,91544,2,0,P|217:217|127:195,1,195.00000743866,10|10,0:0|0:0,0:0:0:0:
49,267,92572,1,2,0:0:0:0:
157,271,92915,1,10,0:0:0:0:
249,219,93258,6,0,B|241:171|241:171|256:121,1,97.50000371933,6|8,0:0|0:0,0:0:0:0:
289,83,93772,1,2,0:0:0:0:
341,87,93943,2,0,L|389:91,1,48.750001859665,2|4,0:0|0:3,0:0:0:0:
441,99,94286,2,0,B|457:199|457:199|422:294,1,195.00000743866,10|10,0:0|0:0,0:0:0:0:
337,351,95315,1,2,0:0:0:0:
233,319,95658,1,10,0:0:0:0:
133,275,96001,6,0,P|124:228|134:180,1,97.50000371933,6|8,0:0|0:0,0:0:0:0:
151,129,96515,1,2,0:0:0:0:
204,125,96686,2,0,L|252:121,1,48.750001859665,2|4,0:0|0:3,0:0:0:0:
306,115,97029,2,0,L|310:163,1,48.750001859665,10|0,0:0|0:0,0:0:0:0:
314,214,97372,5,4,0:3:0:0:
256,192,97458,12,4,98743,0:0:0:0:
