osu file format v14

[General]
AudioFilename: audio.mp3
AudioLeadIn: 0
PreviewTime: 92707
Countdown: 0
SampleSet: Soft
StackLeniency: 0.7
Mode: 2
LetterboxInBreaks: 0
WidescreenStoryboard: 1

[Editor]
Bookmarks: 27056,53357,92809,105960,119933,132261,204590
DistanceSpacing: 1.5
BeatDivisor: 8
GridSize: 32
TimelineZoom: 3.299998

[Metadata]
Title:San Francisco
TitleUnicode:San Francisco
Artist:Carpool Tunnel
ArtistUnicode:Carpool Tunnel
Creator:Jemzuu
Version:Salad
Source:osu!
Tags:jeiryagtama crowley ajamez indie rock english featured artist mappers guild jazz guitar car pool
BeatmapID:2161405
BeatmapSetID:1033405

[Difficulty]
HPDrainRate:4
CircleSize:3
OverallDifficulty:7
ApproachRate:7
SliderMultiplier:1.7
SliderTickRate:1

[Events]
//Background and Video events
0,0,"architecture-bridge-golden-gate-bridge-220765.jpg",0,0
//Break Periods
//Storyboard Layer 0 (Background)
//Storyboard Layer 1 (Fail)
//Storyboard Layer 2 (Pass)
//Storyboard Layer 3 (Foreground)
//Storyboard Layer 4 (Overlay)
//Storyboard Sound Samples

[TimingPoints]
755,410.958904109589,4,2,1,46,1,0
755,-125,4,2,1,46,0,0
2604,422.535211267606,4,2,1,46,1,0
3220,410.958904109589,4,2,1,46,1,0
4048,410.958904109589,4,2,1,46,1,0
7351,410.958904109589,4,2,1,46,1,0
8153,410.958904109589,4,2,1,46,1,0
8791,410.958904109589,4,2,1,46,1,0
9800,410.958904109589,4,2,1,46,1,0
10621,410.958904109589,4,2,1,46,1,0
13905,-100,4,2,1,60,0,0
27056,-125,4,2,1,50,0,0
27878,-125,4,2,2,25,0,0
51713,-125,4,2,1,50,0,0
53357,-100,4,2,1,60,0,0
66511,-100,4,2,1,70,0,1
66614,-100,4,2,1,70,0,0
79662,-100,4,2,1,70,0,1
79764,-100,4,2,1,70,0,0
92812,-100,4,2,1,45,0,0
105963,-100,4,2,1,50,0,0
119936,-100,4,2,1,55,0,0
132264,-100,4,2,1,60,0,0
145415,-100,4,2,1,46,0,1
145518,-100,4,2,1,70,0,0
165141,-100,4,2,1,46,0,1
165244,-100,4,2,1,50,0,0
184867,-100,4,2,1,70,0,1
184970,-100,4,2,1,70,0,0
198018,-100,4,2,1,70,0,1
210757,-100,4,2,1,60,0,0
211579,-100,4,2,1,70,0,1
222675,-100,4,2,1,60,0,0
224319,-100,4,2,1,70,0,1
224525,-100,4,2,1,50,0,1
225963,-100,4,2,1,35,0,1
226785,-100,4,2,1,25,0,0
227607,-100,4,2,1,15,0,0
228429,-100,4,2,1,10,0,0
229251,-100,4,2,1,5,0,0

[Colours]
Combo1 : 255,184,113
Combo2 : 151,151,255
Combo3 : 255,128,255

[HitObjects]
382,318,755,6,0,L|222:297,2,136,4|2|8,3:2|0:3|0:0,0:0:0:0:
163,221,2193,2,0,L|150:59,1,136,0|0,0:0|0:0,0:0:0:0:
326,39,3026,1,0,0:0:0:0:
236,27,3220,1,8,0:0:0:0:
141,77,3426,2,0,L|55:130,2,85,0|2|0,0:0|0:0|0:0,0:0:0:0:
351,305,4048,6,0,L|528:209,2,170,0|2|8,3:0|0:0|0:0,0:0:0:0:
198,366,5280,2,0,L|192:267,1,85
34,147,5897,2,0,P|86:84|196:87,1,170
264,85,6513,1,8,0:0:0:0:
133,34,6787,2,0,P|97:33|46:145,1,170,8|8,0:0|0:0,0:0:0:0:
210,214,7351,6,0,L|388:239,1,170,4|2,3:2|0:3,0:0:0:0:
202,336,8153,1,8,0:0:0:0:
486,361,8791,2,0,L|305:333,1,170
124,240,9612,1,0,0:0:0:0:
218,220,9800,1,8,0:0:0:0:
115,141,10005,2,0,L|215:121,1,85,0|2,0:0|0:0,0:0:0:0:
313,97,10416,1,0,0:0:0:0:
104,225,10621,6,0,P|64:300|128:358,1,170,0|2,3:0|0:0,0:0:0:0:
313,97,11442,2,0,P|281:55|164:66,1,170,8|2,0:0|0:0,0:0:0:0:
263,45,12059,1,0,0:0:0:0:
60,56,12264,5,8,0:0:0:0:
337,301,13360,1,8,0:0:0:0:
272,303,13497,2,0,P|225:251|241:196,1,113.333333333333,8|8,0:0|0:0,0:0:0:0:
388,342,13908,6,0,P|471:299|449:229,1,170,4|2,3:2|0:3,0:0:0:0:
267,169,14730,2,0,L|174:186,2,85,8|0|0,0:0|0:0|0:0,0:0:0:0:
370,75,15347,2,0,P|296:53|190:68,1,170,0|0,0:0|0:0,0:0:0:0:
22,200,16168,1,0,0:0:0:0:
119,286,16374,2,0,L|321:302,1,170,8|0,0:0|0:0,0:0:0:0:
252,363,16990,1,0,0:0:0:0:
47,324,17196,6,0,P|34:281|127:209,1,170,0|0,3:0|0:0,0:0:0:0:
294,101,18018,2,0,L|119:89,1,170,8|0,0:0|0:0,0:0:0:0:
316,195,18840,2,0,L|447:184,1,113.333333333333,0|8,3:0|0:0,0:0:0:0:
297,318,19456,2,0,L|213:337,1,85,0|0,0:0|3:0,0:0:0:0:
120,258,19867,2,0,L|224:239,1,85
301,222,20278,1,0,0:0:0:0:
116,144,20484,6,0,P|53:125|85:45,1,170,2|0,3:0|0:0,0:0:0:0:
270,41,21305,2,0,L|180:54,2,85,8|0|0,0:0|0:0|0:0,0:0:0:0:
358,85,21922,1,0,0:0:0:0:
178,173,22333,2,0,L|79:185,1,85,0|0,0:0|3:0,0:0:0:0:
300,329,22744,1,0,0:0:0:0:
210,346,22949,2,0,L|30:326,1,170,8|0,0:0|0:0,0:0:0:0:
389,245,23771,6,0,L|402:131,1,106.25,0|8,3:0|0:0,0:0:0:0:
197,125,24456,2,0,L|278:115,1,56.6666666666667,0|8,3:0|0:0,0:0:0:0:
425,55,25004,1,8,0:0:0:0:
79,224,25415,6,0,L|60:315,2,85,8|0|8,0:3|0:0|0:0,0:0:0:0:
188,166,26031,2,0,L|174:75,1,85,0|8,0:0|0:0,0:0:0:0:
45,25,26511,1,8,0:3:0:0:
100,16,26648,2,0,L|225:2,1,113.333333333333,0|8,0:0|0:0,0:0:0:0:
381,163,27059,5,4,3:2:0:0:
113,200,27881,1,4,0:0:0:0:
450,342,29525,2,0,L|300:329,1,136,4|0,0:0|0:0,0:0:0:0:
147,244,30347,6,0,P|242:168|392:136,2,272,0|4|0,0:0|0:0|0:0,0:0:0:0:
393,337,32812,1,4,0:0:0:0:
83,320,33634,6,0,P|54:272|182:134,1,272,0|4,0:0|0:0,0:0:0:0:
309,113,34867,1,0,0:0:0:0:
172,51,35278,1,0,0:0:0:0:
465,229,36100,6,0,P|441:297|263:353,2,272,4|0|4,0:0|0:0|0:0,0:0:0:0:
321,194,38155,1,0,0:0:0:0:
464,128,38566,1,0,0:0:0:0:
216,95,39388,2,0,L|187:258,1,136,4|0,0:0|0:0,0:0:0:0:
39,309,40210,6,0,L|179:328,2,136,0|0|4,0:0|0:0|0:0,0:0:0:0:
183,250,41442,1,0,0:0:0:0:
330,270,41853,2,0,L|350:118,1,136,0|0,0:0|0:0,0:0:0:0:
201,97,42675,2,0,L|187:244,1,136,4|0,0:0|0:0,0:0:0:0:
353,302,43497,6,0,P|415:275|316:154,1,272,0|4,0:0|0:0,0:0:0:0:
97,69,45141,2,0,L|252:54,1,136,0|0,0:0|0:0,0:0:0:0:
387,192,45963,2,0,L|232:182,1,136,4|0,0:0|0:0,0:0:0:0:
74,281,46785,6,0,L|355:303,2,272,0|4|0,0:0|0:0|0:0,0:0:0:0:
333,362,49251,2,0,L|354:211,1,136,4|0,0:0|0:0,0:0:0:0:
186,215,50073,2,0,P|99:214|83:48,1,272,0|4,0:0|0:0,0:0:0:0:
209,38,51305,1,2,0:3:0:0:
376,304,51716,6,0,P|410:259|401:215,1,90.6666666666667,8|8,0:3|0:0,0:0:0:0:
358,194,52127,1,8,0:0:0:0:
310,175,52264,1,8,0:0:0:0:
358,150,52401,1,8,0:0:0:0:
406,135,52538,2,0,P|446:118|452:83,1,76.5,8|4,0:0|3:0,0:0:0:0:
440,17,53223,1,8,0:0:0:0:
281,101,53360,6,0,P|236:131|384:264,1,340,4|8,3:2|0:0,0:0:0:0:
113,368,54799,2,0,L|15:348,1,85,0|0,3:0|3:0,0:0:0:0:
125,278,55210,2,0,L|219:262,1,85,0|0,0:0|3:0,0:0:0:0:
123,188,55621,1,0,0:0:0:0:
28,142,55826,2,0,P|51:98|167:58,1,170,8|0,0:0|0:0,0:0:0:0:
473,221,56648,6,0,L|292:252,1,170,0|0,3:0|0:0,0:0:0:0:
103,120,57470,2,0,L|279:131,1,170,8|0,0:0|0:0,0:0:0:0:
358,72,58086,1,0,0:0:0:0:
268,40,58292,6,0,L|149:28,1,106.25,0|8,3:0|0:0,0:0:0:0:
20,146,58960,2,0,L|95:164,1,63.75,0|8,3:0|0:0,0:0:0:0:
202,319,59371,2,0,L|276:297,1,63.75,0|0,3:0|0:0,0:0:0:0:
31,284,59781,1,8,0:0:0:0:
88,239,59936,6,0,L|270:209,1,170,4|2,0:0|3:0,0:0:0:0:
438,121,60758,2,0,L|246:92,1,170,8|0,0:0|0:0,0:0:0:0:
189,117,61374,1,0,0:0:0:0:
278,217,61579,2,0,L|401:235,1,113.333333333333,0|8,3:0|0:0,0:0:0:0:
222,350,62264,1,0,3:0:0:0:
286,353,62401,2,0,P|367:353|430:280,1,170,8|8,0:0|0:0,0:0:0:0:
168,247,63086,1,0,0:0:0:0:
104,233,63223,6,0,P|76:228|43:149,1,113.333333333333,4|8,3:2|0:0,0:0:0:0:
342,105,63908,1,0,3:0:0:0:
406,91,64045,2,0,P|434:86|392:-3,1,170,8|8,0:0|0:0,0:0:0:0:
323,13,64662,1,0,0:0:0:0:
401,62,64867,1,0,3:0:0:0:
162,160,65141,1,8,0:0:0:0:
94,222,65278,6,0,L|226:243,1,113.333333333333,4|8,3:2|0:2,0:0:0:0:
382,335,65689,2,0,P|427:329|462:217,1,170,4|8,3:2|0:2,0:0:0:0:
402,175,66237,1,8,0:2:0:0:
336,152,66374,1,8,0:2:0:0:
157,60,66511,6,0,P|99:62|160:245,1,340,4|8,3:2|0:0,0:0:0:0:
327,308,67744,1,0,0:0:0:0:
147,321,68155,2,0,L|117:132,1,170,0|0,3:0|3:0,0:0:0:0:
306,90,68977,2,0,L|486:68,1,170,8|0,0:0|0:0,0:0:0:0:
147,321,69799,6,0,P|169:256|420:155,1,340,4|8,3:2|0:0,0:0:0:0:
188,71,71237,2,0,L|179:167,1,85,0|0,0:0|3:0,0:0:0:0:
77,181,71648,2,0,L|60:271,1,85,0|0,0:0|3:0,0:0:0:0:
160,294,72059,2,0,L|186:385,1,85,0|8,0:0|0:0,0:0:0:0:
314,367,72538,1,8,0:0:0:0:
253,328,72675,2,0,L|132:313,1,113.333333333333,0|0,0:0|3:0,0:0:0:0:
321,235,73086,6,0,P|405:223|350:41,1,340,4|8,3:2|0:0,0:0:0:0:
189,40,74319,1,0,0:0:0:0:
31,143,74730,2,0,L|60:320,1,170,0|0,3:0|3:0,0:0:0:0:
246,344,75552,2,0,L|57:332,1,170,8|0,0:0|0:0,0:0:0:0:
165,297,76168,1,0,0:0:0:0:
361,257,76374,6,0,P|417:224|344:178,1,170,4|0,3:2|0:0,0:0:0:0:
174,89,77196,2,0,L|357:68,1,170,8|0,0:0|0:0,0:0:0:0:
433,173,77812,2,0,L|344:181,1,85,0|0,0:0|3:0,0:0:0:0:
223,255,78292,2,0,L|205:312,1,56.6666666666667,8|0,0:0|3:0,0:0:0:0:
457,361,78703,1,8,0:0:0:0:
392,333,78840,6,0,P|347:321|303:254,1,113.333333333333,8|0,0:0|3:0,0:0:0:0:
353,232,79251,1,8,0:0:0:0:
417,220,79388,1,8,0:0:0:0:
414,170,79525,1,8,0:0:0:0:
231,177,79662,6,0,P|153:175|79:-52,1,340,4|8,3:2|0:0,0:0:0:0:
263,28,80894,1,0,0:0:0:0:
61,263,81305,2,0,L|252:293,1,170,0|0,3:0|3:0,0:0:0:0:
32,360,82127,2,0,L|57:177,1,170,8|0,0:0|0:0,0:0:0:0:
394,235,82949,6,0,P|351:170|112:64,1,340,4|8,3:2|0:0,0:0:0:0:
348,13,84388,2,0,L|368:190,1,170,0|0,0:0|0:0,0:0:0:0:
274,246,85004,1,0,3:0:0:0:
177,286,85210,1,0,0:0:0:0:
373,354,85415,1,8,0:0:0:0:
238,364,85689,1,8,0:0:0:0:
168,366,85826,2,0,L|59:333,1,113.333333333333,0|0,0:0|3:0,0:0:0:0:
223,239,86237,6,0,P|298:216|286:-17,1,340,4|8,3:2|0:0,0:0:0:0:
480,160,87470,1,0,0:0:0:0:
289,289,87881,2,0,L|115:311,1,170,0|0,3:0|3:0,0:0:0:0:
42,337,88497,1,0,0:0:0:0:
130,364,88703,1,8,0:0:0:0:
319,315,89114,2,0,L|217:303,1,85,0|0,0:0|0:0,0:0:0:0:
50,191,89525,6,0,L|229:162,1,170,4|0,3:2|3:0,0:0:0:0:
409,58,90347,2,0,L|240:43,1,170,8|8,0:0|0:0,0:0:0:0:
151,60,90963,1,0,0:0:0:0:
343,154,91168,6,0,P|408:171|453:226,1,113.333333333333,0|8,3:0|0:0,0:0:0:0:
376,249,91579,2,0,L|250:267,1,113.333333333333,0|8,3:0|0:0,0:0:0:0:
318,259,91989,1,8,3:2:0:0:
351,215,92126,1,0,0:0:0:0:
340,161,92263,1,8,0:0:0:0:
293,133,92400,1,0,0:0:0:0:
19,104,92675,1,8,0:0:0:0:
74,60,92812,6,0,L|248:32,1,170,4|2,3:2|0:3,0:0:0:0:
53,157,93634,2,0,P|36:222|128:275,1,170,8|2,0:0|2:2,0:0:0:0:
298,323,94405,2,0,P|290:275|45:119,1,361.25,0|8,0:0|0:0,0:0:0:0:
209,46,95689,2,0,L|305:26,1,85,2|0,2:2|0:0,0:0:0:0:
488,244,96100,6,0,L|319:278,2,170,0|2|8,3:0|0:0|0:0,0:0:0:0:
345,155,97333,2,0,L|244:150,1,85,0|0,3:0|0:0,0:0:0:0:
67,338,97744,2,0,L|70:157,1,170,2|0,0:0|3:0,0:0:0:0:
255,84,98566,2,0,L|117:73,1,113.333333333333,8|8,0:0|0:0,0:0:0:0:
74,53,98977,1,0,3:0:0:0:
342,266,99251,1,8,0:0:0:0:
408,293,99388,6,0,P|466:269|461:157,1,170,4|2,0:0|0:3,0:0:0:0:
293,124,100210,1,8,0:0:0:0:
477,73,100621,1,2,0:0:0:0:
153,66,101031,6,0,P|108:74|51:189,1,170,2|2,0:0|0:0,0:0:0:0:
222,235,101853,2,0,L|390:269,1,170,8|2,0:0|0:0,0:0:0:0:
303,302,102470,1,0,0:0:0:0:
104,367,102675,6,0,L|299:387,2,170,0|2|8,3:0|0:0|0:0,0:0:0:0:
56,241,103908,2,0,L|168:241,1,85,2|0,0:0|0:0,0:0:0:0:
337,227,104319,2,0,P|361:193|277:108,1,170,8|8,3:0|0:0,0:0:0:0:
224,100,104867,1,8,0:0:0:0:
282,51,105004,1,8,0:0:0:0:
352,45,105141,6,0,P|399:62|453:168,1,170,8|8,0:0|0:0,0:0:0:0:
395,181,105689,1,8,0:0:0:0:
328,202,105826,1,8,0:0:0:0:
157,229,105963,6,0,P|79:240|45:327,1,170,4|0,0:0|0:0,0:0:0:0:
250,352,106785,2,0,P|296:334|219:211,1,255,8|0,0:0|3:0,0:0:0:0:
417,171,107812,2,0,L|405:81,1,85,0|0,3:0|3:0,0:0:0:0:
209,41,108429,2,0,P|238:92|354:117,1,170,8|0,0:0|0:0,0:0:0:0:
254,161,109045,1,0,3:0:0:0:
157,213,109251,6,0,L|332:239,2,170,0|0|8,3:0|0:0|0:0,0:0:0:0:
23,339,110484,2,0,L|125:327,1,85,0|0,0:0|3:0,0:0:0:0:
296,273,110894,2,0,L|308:217,2,42.5,0|0|0,0:0|0:0|0:0,0:0:0:0:
212,316,111305,2,0,L|117:324,2,85,0|0|8,0:0|3:0|0:0,0:0:0:0:
386,358,112127,2,0,L|492:352,1,85,0|8,0:0|0:0,0:0:0:0:
269,269,112538,6,0,L|89:237,2,170,0|0|8,3:0|0:0|0:0,0:0:0:0:
451,127,113771,2,0,L|341:138,1,85,0|0,0:0|3:0,0:0:0:0:
174,62,114182,2,0,L|60:58,1,85,0|0,0:0|3:0,0:0:0:0:
183,165,114593,2,0,L|362:142,1,170,0|8,3:0|0:0,0:0:0:0:
153,260,115415,1,0,0:0:0:0:
363,335,115826,6,0,P|430:313|413:196,1,170,0|0,3:0|0:0,0:0:0:0:
360,199,116442,1,0,3:0:0:0:
165,160,116648,2,0,P|99:160|60:69,1,170,8|0,0:0|3:0,0:0:0:0:
205,29,117470,2,0,L|305:43,1,85,0|8,3:0|0:0,0:0:0:0:
478,150,118086,1,0,3:0:0:0:
400,197,118292,2,0,L|277:274,1,141.666666666667,8|0,0:0|0:0,0:0:0:0:
39,332,118908,5,8,0:0:0:0:
480,277,119936,2,0,P|479:208|401:117,1,170,4|0,0:0|3:0,0:0:0:0:
243,102,120757,2,0,L|227:11,2,85,0|0|0,0:0|3:0|3:0,0:0:0:0:
62,154,121579,2,0,P|31:203|100:285,1,170,8|0,0:0|0:0,0:0:0:0:
414,347,122401,6,0,L|218:315,1,170,0|0,3:0|0:0,0:0:0:0:
336,288,123018,1,0,3:0:0:0:
436,259,123223,2,0,L|465:160,2,85,8|0|0,0:0|3:0|3:0,0:0:0:0:
249,105,124045,2,0,L|162:87,2,85,0|0|0,0:0|3:0|3:0,0:0:0:0:
449,38,124867,2,0,L|263:19,1,170,8|0,0:0|0:0,0:0:0:0:
82,28,125689,5,0,3:0:0:0:
399,161,126100,2,0,L|426:253,2,85,0|0|8,0:0|3:0|0:0,0:0:0:0:
200,353,126922,2,0,L|380:333,1,170,0|0,3:0|0:0,0:0:0:0:
57,266,127744,2,0,L|38:177,2,85,0|0|8,3:0|0:0|0:0,0:0:0:0:
238,324,128566,2,0,L|339:338,1,85,0|0,0:0|3:0,0:0:0:0:
124,373,128977,6,0,P|50:357|52:260,1,170,0|0,3:0|0:0,0:0:0:0:
134,233,129593,1,0,3:0:0:0:
328,237,129799,2,0,L|349:54,1,170,8|0,0:0|3:0,0:0:0:0:
153,32,130621,2,0,L|48:42,2,85,0|0|0,0:0|3:0|3:0,0:0:0:0:
338,124,131442,5,8,0:0:0:0:
292,198,131647,1,8,0:0:0:0:
220,247,131852,1,0,0:0:0:0:
136,249,132058,1,0,3:0:0:0:
349,345,132264,6,0,P|412:337|334:171,1,340,4|8,3:2|0:0,0:0:0:0:
90,102,133703,1,0,3:0:0:0:
185,48,133908,2,0,L|354:26,1,170,0|0,3:0|3:0,0:0:0:0:
172,173,134730,1,8,0:0:0:0:
90,186,134935,1,0,0:0:0:0:
38,252,135140,1,0,0:0:0:0:
372,354,135552,6,0,L|394:154,1,170,0|0,3:0|0:0,0:0:0:0:
214,127,136374,1,8,0:0:0:0:
399,60,136785,2,0,L|303:46,1,85,0|0,0:0|0:0,0:0:0:0:
216,42,137196,1,0,3:0:0:0:
82,231,137470,6,0,L|70:305,1,56.6666666666667,8|0,0:0|3:0,0:0:0:0:
212,304,137881,2,0,L|229:371,1,56.6666666666667,0|8,3:0|0:0,0:0:0:0:
370,369,138292,2,0,L|430:375,1,56.6666666666667,0|0,3:0|0:0,0:0:0:0:
172,273,138703,1,0,3:0:0:0:
106,260,138840,6,0,P|41:229|99:155,1,170,4|2,0:0|3:0,0:0:0:0:
276,65,139662,2,0,L|100:47,1,170,8|2,0:0|3:0,0:0:0:0:
193,99,140278,1,0,0:0:0:0:
399,148,140484,2,0,L|268:264,2,170,8|8|8,0:0|3:0|0:0,0:0:0:0:
74,290,141716,5,4,0:0:0:0:
256,192,141922,12,2,143771,0:3:0:0:
408,253,144045,6,0,L|425:189,1,56.6666666666667,8|0,0:0|3:0,0:0:0:0:
292,165,144456,1,8,0:0:0:0:
271,120,144593,2,0,L|149:110,1,113.333333333333,0|0,3:0|3:0,0:0:0:0:
92,103,145004,1,8,0:0:0:0:
156,49,145141,1,8,0:0:0:0:
227,42,145278,1,8,0:0:0:0:
419,104,145415,6,0,P|462:125|345:293,1,340,4|8,0:0|0:0,0:0:0:0:
161,306,146648,1,0,0:0:0:0:
367,346,147059,2,0,P|414:312|351:234,1,170,0|0,3:0|3:0,0:0:0:0:
277,198,147675,1,0,0:0:0:0:
184,159,147881,2,0,L|354:117,1,170,8|0,0:0|0:0,0:0:0:0:
255,89,148497,1,0,0:0:0:0:
52,95,148703,6,0,P|71:185|292:274,1,340,4|8,3:2|0:0,0:0:0:0:
54,353,150141,2,0,L|43:258,1,85,0|0,0:0|3:0,0:0:0:0:
150,242,150552,2,0,L|172:141,1,85,0|0,0:0|3:0,0:0:0:0:
273,110,150963,2,0,L|365:97,1,85,0|8,0:0|0:0,0:0:0:0:
482,24,151442,2,0,L|411:17,1,56.6666666666667,0|0,0:0|0:0,0:0:0:0:
98,53,151990,6,0,P|189:77|80:222,1,340,4|8,3:2|0:0,0:0:0:0:
299,292,153223,1,0,0:0:0:0:
89,326,153634,2,0,L|63:155,1,170,0|0,3:0|3:0,0:0:0:0:
241,99,154456,1,8,0:0:0:0:
42,39,154867,2,0,L|128:28,1,85,0|0,0:0|0:0,0:0:0:0:
331,235,155278,6,0,L|498:283,2,170,0|0|8,3:2|0:0|0:0,0:0:0:0:
130,351,156511,2,0,L|110:248,1,85,0|0,0:0|3:0,0:0:0:0:
312,169,156922,2,0,P|353:135|414:116,1,113.333333333333,0|8,3:0|0:0,0:0:0:0:
473,84,157333,2,0,L|355:52,1,106.25,0|8,3:0|0:0,0:0:0:0:
216,74,157744,6,0,P|189:101|239:154,1,113.333333333333,8|0,0:0|3:0,0:0:0:0:
289,179,158155,2,0,L|365:195,2,56.6666666666667,8|8|8,0:0|0:0|0:0,0:0:0:0:
117,186,158566,6,0,P|70:202|189:317,1,340,4|8,3:2|0:0,0:0:0:0:
363,224,159799,1,0,0:0:0:0:
178,156,160210,2,0,P|91:147|44:76,1,170,0|0,3:0|3:0,0:0:0:0:
252,60,161031,1,8,0:0:0:0:
57,197,161442,2,0,L|75:288,1,85,0|0,0:0|0:0,0:0:0:0:
270,344,161853,6,0,L|94:369,2,170,4|0|8,3:2|0:0|0:0,0:0:0:0:
486,214,163292,1,0,0:0:0:0:
395,157,163497,2,0,L|217:135,1,170,0|0,3:0|3:0,0:0:0:0:
319,107,164114,1,0,0:0:0:0:
123,67,164319,2,0,L|95:196,1,113.333333333333,8|8,0:0|0:0,0:0:0:0:
116,277,164730,2,0,L|237:303,1,113.333333333333,0|0,0:0|3:0,0:0:0:0:
396,343,165141,6,0,P|469:314|362:154,1,340,4|8,3:2|0:0,0:0:0:0:
186,86,166374,2,0,L|92:81,1,85,0|0,0:0|0:0,0:0:0:0:
305,247,166785,2,0,L|477:198,2,170,0|0|8,3:0|3:0|0:0,0:0:0:0:
485,348,168018,2,0,L|379:358,1,85,0|0,0:0|0:0,0:0:0:0:
199,348,168429,6,0,P|152:343|75:236,1,170,4|0,3:2|3:0,0:0:0:0:
409,62,169251,2,0,L|393:233,1,170,8|8,0:0|0:0,0:0:0:0:
292,267,169867,1,0,0:0:0:0:
92,287,170073,6,0,P|55:260|83:189,1,113.333333333333,0|8,3:0|0:0,0:0:0:0:
130,167,170484,2,0,L|254:135,1,113.333333333333,0|8,3:0|0:0,0:0:0:0:
301,111,170894,2,0,L|175:91,1,113.333333333333,8|8,3:2|0:0,0:0:0:0:
250,64,171305,2,0,L|315:56,2,56.6666666666667,8|8|8,0:3|0:3|0:3,0:0:0:0:
76,116,171716,6,0,P|71:193|143:262,1,170,4|2,0:0|0:3,0:0:0:0:
320,348,172538,2,0,L|135:369,1,170,8|0,0:0|0:0,0:0:0:0:
229,317,173155,1,0,0:0:0:0:
425,281,173360,2,0,L|450:100,1,170,0|0,3:0|3:0,0:0:0:0:
357,82,173977,1,0,0:0:0:0:
264,61,174182,2,0,L|455:36,1,170,8|0,0:0|0:0,0:0:0:0:
117,195,175004,6,0,L|295:219,2,170,4|0|8,3:2|0:0|0:0,0:0:0:0:
32,340,176442,1,0,0:0:0:0:
117,353,176648,2,0,L|298:323,1,170,0|0,3:0|3:0,0:0:0:0:
378,306,177264,1,0,0:0:0:0:
187,232,177470,2,0,L|57:218,1,113.333333333333,8|8,0:0|0:0,0:0:0:0:
81,91,177881,2,0,L|205:64,1,113.333333333333,0|0,0:0|3:0,0:0:0:0:
361,48,178292,6,0,P|439:84|302:202,1,340,4|8,3:2|0:0,0:0:0:0:
97,300,179525,1,0,0:0:0:0:
300,362,179936,2,0,P|414:344|464:295,1,170,0|0,3:0|3:0,0:0:0:0:
376,259,180552,1,0,0:0:0:0:
183,297,180758,2,0,P|153:214|147:128,1,170,8|0,0:0|0:0,0:0:0:0:
445,197,181579,6,0,P|459:160|413:102,1,113.333333333333,0|8,3:2|0:0,0:0:0:0:
357,80,181990,1,0,0:0:0:0:
116,45,182264,1,0,3:0:0:0:
177,36,182401,2,0,L|344:95,1,170,8|8,0:0|0:0,0:0:0:0:
250,140,183018,1,0,0:0:0:0:
154,169,183223,6,0,P|90:182|55:234,1,113.333333333333,0|8,3:0|0:0,0:0:0:0:
106,301,183634,2,0,L|234:315,1,113.333333333333,0|8,3:0|0:0,0:0:0:0:
283,371,184045,2,0,L|145:380,1,113.333333333333,8|8,0:0|0:0,0:0:0:0:
108,372,184456,1,8,0:0:0:0:
389,324,184730,1,8,0:0:0:0:
450,306,184867,6,0,P|495:272|361:112,1,340,4|8,0:0|0:0,0:0:0:0:
201,91,186100,1,0,0:0:0:0:
17,249,186511,2,0,L|212:261,1,170,0|0,3:0|3:0,0:0:0:0:
385,345,187333,2,0,L|199:360,1,170,8|0,0:0|0:0,0:0:0:0:
129,351,187949,1,0,0:0:0:0:
340,257,188155,6,0,P|422:237|309:109,1,340,4|8,3:2|0:0,0:0:0:0:
137,193,189388,2,0,L|237:206,1,85,0|0,0:0|0:0,0:0:0:0:
322,264,189799,2,0,P|357:235|294:140,1,170,0|0,3:0|3:0,0:0:0:0:
128,107,190621,2,0,P|86:116|52:196,1,113.333333333333,8|8,0:0|0:0,0:0:0:0:
112,218,191031,1,0,0:0:0:0:
377,301,191305,1,0,3:0:0:0:
315,338,191442,6,0,L|148:271,2,170,4|0|8,3:2|0:0|0:0,0:0:0:0:
492,104,192675,1,0,0:0:0:0:
310,55,193086,2,0,L|123:31,1,170,0|0,3:0|3:0,0:0:0:0:
327,177,193908,2,0,L|419:162,2,85,8|0|0,0:0|0:0|0:0,0:0:0:0:
237,179,194525,1,0,3:0:0:0:
33,291,194730,6,0,L|214:318,3,170,4|0|8|0,3:2|3:0|0:0|3:0,0:0:0:0:
372,304,196374,1,0,3:0:0:0:
465,246,196579,1,0,3:0:0:0:
373,192,196785,1,0,3:0:0:0:
279,170,196990,1,0,3:0:0:0:
181,154,197196,2,0,L|87:144,2,85,8|0|8,2:0|0:0|0:0,0:0:0:0:
279,170,197812,1,0,3:0:0:0:
67,244,198018,6,0,P|52:206|247:43,1,340,4|8,0:0|0:0,0:0:0:0:
48,35,199251,1,0,0:0:0:0:
380,124,199662,2,0,L|413:295,1,170,0|0,3:0|3:0,0:0:0:0:
321,322,200278,1,0,0:0:0:0:
214,339,200484,1,8,0:0:0:0:
399,378,200894,2,0,L|489:365,1,85,0|0,0:0|3:0,0:0:0:0:
278,301,201305,6,0,P|208:295|287:139,1,340,4|8,3:2|0:0,0:0:0:0:
490,71,202744,1,0,0:0:0:0:
407,36,202949,2,0,L|313:26,1,85,0|0,3:0|0:0,0:0:0:0:
232,142,203360,2,0,L|335:135,1,85,0|0,3:0|0:0,0:0:0:0:
412,166,203771,2,0,P|432:202|392:261,1,113.333333333333,8|8,0:0|0:0,0:0:0:0:
332,271,204182,1,0,3:0:0:0:
67,350,204456,1,0,0:0:0:0:
132,321,204593,6,0,L|308:308,2,170,4|0|8,3:2|0:0|0:0,0:0:0:0:
137,190,205826,1,0,0:0:0:0:
455,79,206237,2,0,L|278:58,1,170,0|0,3:0|3:0,0:0:0:0:
481,128,207059,2,0,L|469:305,1,170,8|2,0:0|0:3,0:0:0:0:
384,339,207675,1,0,0:0:0:0:
174,348,207881,6,0,L|72:324,1,85,4|8,0:0|0:0,0:0:0:0:
102,277,208189,1,0,3:0:0:0:
237,230,208497,1,0,3:0:0:0:
37,142,208703,5,8,0:0:0:0:
50,84,208805,2,0,L|179:53,1,127.5,0|0,3:0|3:0,0:0:0:0:
280,113,209319,2,0,L|291:171,1,42.5,8|0,0:0|3:0,0:0:0:0:
420,225,209730,2,0,L|443:326,1,85,0|8,3:0|0:0,0:0:0:0:
335,356,210090,2,0,L|217:342,1,106.25,0|0,3:0|3:0,0:0:0:0:
151,327,210552,1,0,3:0:0:0:
364,167,210757,5,8,0:0:0:0:
38,113,211579,1,4,3:2:0:0:
395,73,211990,6,0,L|394:248,1,170,8|0,0:0|0:0,0:0:0:0:
308,276,212607,1,0,3:0:0:0:
216,324,212812,2,0,L|310:343,1,85,0|0,3:0|3:0,0:0:0:0:
406,197,213223,2,0,L|304:188,1,85,0|0,3:0|3:0,0:0:0:0:
124,206,213634,2,0,P|67:186|119:119,1,170,8|0,0:0|0:0,0:0:0:0:
209,106,214251,1,0,3:0:0:0:
419,142,214456,6,0,P|444:163|293:289,1,340,4|8,2:0|0:0,0:0:0:0:
50,206,215894,1,0,3:0:0:0:
132,171,216100,2,0,L|306:146,1,170,0|0,3:0|3:0,0:0:0:0:
213,114,216716,1,0,0:0:0:0:
393,74,216922,2,0,L|485:62,1,85,8|0,0:0|0:0,0:0:0:0:
455,177,217333,2,0,L|362:171,1,85,0|0,0:0|3:0,0:0:0:0:
152,365,217744,6,0,P|109:366|101:263,1,170,4|0,0:0|0:0,0:0:0:0:
165,207,218360,1,0,0:0:0:0:
252,189,218566,1,8,0:0:0:0:
457,87,218977,2,0,L|366:75,1,85,0|0,0:0|0:0,0:0:0:0:
173,245,219388,6,0,L|75:273,2,85,0|0|0,3:0|0:0|3:0,0:0:0:0:
377,262,220210,1,8,0:0:0:0:
426,197,220415,1,0,0:0:0:0:
396,122,220620,1,2,0:3:0:0:
315,109,220826,1,0,3:0:0:0:
110,122,221031,6,0,P|63:137|68:248,1,170,4|0,3:2|0:0,0:0:0:0:
260,338,221648,2,0,L|88:357,1,170,4|0,3:2|0:0,0:0:0:0:
296,228,222264,2,0,L|472:245,1,170,4|8,3:2|3:2,0:0:0:0:
366,218,223292,1,8,0:2:0:0:
287,147,223497,1,8,0:2:0:0:
189,106,223702,1,8,0:3:0:0:
84,98,223908,1,0,3:3:0:0:
477,49,224319,5,4,3:2:0:0:
256,192,224627,12,0,229251,0:0:0:0:
