osu file format v14

[General]
AudioFilename: audio.mp3
AudioLeadIn: 0
PreviewTime: 25255
Countdown: 0
SampleSet: Soft
StackLeniency: 0.7
Mode: 0
LetterboxInBreaks: 0
WidescreenStoryboard: 0

[Editor]
Bookmarks: 48760,59923,85030,107356,129681,135263,140844,165960,171475,188193
DistanceSpacing: 1.1
BeatDivisor: 4
GridSize: 32
TimelineZoom: 2.4

[Metadata]
Title:Parade
TitleUnicode:Parade
Artist:Carpool Tunnel
ArtistUnicode:Carpool Tunnel
Creator:domSaur
Version:Insane
Source:
Tags:osu! featured artist indie rock english mappers' guild -aqua hinsvar
BeatmapID:2217739
BeatmapSetID:1058934

[Difficulty]
HPDrainRate:6
CircleSize:3.8
OverallDifficulty:8
ApproachRate:9
SliderMultiplier:1.7
SliderTickRate:1

[Events]
//Background and Video events
0,0,"temp.jpg",0,0
//Break Periods
2,129881,134488
2,165960,170401
//Storyboard Layer 0 (Background)
//Storyboard Layer 1 (Fail)
//Storyboard Layer 2 (Pass)
//Storyboard Layer 3 (Foreground)
//Storyboard Layer 4 (Overlay)
//Storyboard Sound Samples

[TimingPoints]
1402,340.909090909091,4,2,0,55,1,0
2765,352.941176470588,4,2,0,55,1,0
4176,348.837209302326,4,2,0,55,1,0
5571,355.029585798817,4,2,0,55,1,0
8411,352.941176470588,4,2,0,55,1,0
9822,346.820809248555,4,2,0,55,1,0
11873,348.837209302326,4,2,0,55,1,0
12570,352.941176470588,4,2,0,55,1,0
13981,347.826086956522,4,2,0,55,1,0
16763,350.877192982456,4,2,0,55,1,0
18166,346.820809248555,4,2,0,55,1,0
19553,340.909090909091,4,2,0,55,1,0
20916,352.941176470588,4,2,0,55,1,0
23739,337.078651685393,4,2,0,55,1,0
26435,348.837209302326,4,2,1,70,1,1
37248,-100,4,2,1,70,0,0
37597,-100,4,2,1,70,0,1
48760,-111.111111111111,4,2,1,60,0,0
69690,346.820809248555,4,2,1,60,1,0
71077,348.837209302326,4,2,1,60,1,0
71077,-111.111111111111,4,2,1,60,0,0
82239,-133.333333333333,4,2,1,65,0,0
82501,-133.333333333333,4,2,1,5,0,0
82588,-100,4,2,1,65,0,0
82850,-100,4,2,1,5,0,0
82937,-90.9090909090909,4,2,1,65,0,0
83024,-90.9090909090909,4,2,1,5,0,0
83111,-83.3333333333333,4,2,1,65,0,0
83199,-83.3333333333333,4,2,1,5,0,0
83286,-83.3333333333333,4,2,1,65,0,0
83547,-83.3333333333333,4,2,1,5,0,0
83635,-100,4,2,1,65,0,0
85030,-100,4,2,1,70,0,1
95844,-100,4,2,1,70,0,0
96193,-100,4,2,1,70,0,1
106658,-100,4,2,1,70,0,0
107356,-100,4,2,1,70,0,1
118170,-100,4,2,1,70,0,0
118518,-100,4,2,1,70,0,1
129681,-133.333333333333,4,2,1,55,0,0
135263,-133.333333333333,4,2,1,55,0,0
140844,-133.333333333333,4,2,1,60,0,0
160379,-133.333333333333,4,2,1,65,0,0
160640,-133.333333333333,4,2,1,5,0,0
160728,-100,4,2,1,65,0,0
160989,-100,4,2,1,5,0,0
161077,-90.9090909090909,4,2,1,65,0,0
161164,-90.9090909090909,4,2,1,5,0,0
161251,-90.9090909090909,4,2,1,65,0,0
161338,-90.9090909090909,4,2,1,5,0,0
161425,-83.3333333333333,4,2,1,65,0,0
161686,-83.3333333333333,4,2,1,5,0,0
161774,-83.3333333333333,4,2,1,65,0,0
170844,315.789473684211,4,2,1,60,1,0
171475,348.837209302326,4,2,1,70,1,0
171475,-100,4,2,1,70,0,1
176707,-100,4,2,1,70,0,0
177056,-100,4,2,1,70,0,1
186823,340.909090909091,4,2,1,70,1,1
187504,344.827586206897,4,2,1,70,1,1
188193,348.837209302326,4,2,1,70,1,1
188193,-133.333333333333,4,2,1,60,0,0
197960,352.941176470588,4,2,1,60,1,0
198665,357.142857142857,4,2,1,60,1,0
199379,342.857142857143,4,2,1,60,1,0
199379,-100,4,2,1,70,0,1
200064,346.820809248555,4,2,1,70,1,1
200757,348.837209302326,4,2,1,70,1,1
207733,352.941176470588,4,2,1,70,1,1
207997,-100,4,2,1,5,0,1
208085,-90.9090909090909,4,2,1,70,0,1
208350,-90.9090909090909,4,2,1,5,0,1
208438,-83.3333333333333,4,2,1,70,0,1
208703,-83.3333333333333,4,2,1,5,0,1
208791,-76.9230769230769,4,2,1,55,0,0
209056,-76.9230769230769,4,2,1,5,0,0
209144,-76.9230769230769,4,2,1,55,0,0
213027,-76.9230769230769,4,2,1,5,0,0
214580,348.837209302326,4,2,0,55,1,0
214841,-100,4,2,1,55,0,0

[Colours]
Combo1 : 150,205,177
Combo2 : 231,199,150
Combo3 : 227,122,28
Combo4 : 62,158,255

[HitObjects]
66,83,26435,6,0,L|171:77,1,85,6|0,1:2|1:0,0:0:0:0:
277,169,26783,2,0,L|192:173,1,85,10|0,0:2|0:0,0:0:0:0:
64,198,27132,1,2,1:2:0:0:
90,296,27307,1,2,1:2:0:0:
189,272,27481,1,8,0:2:0:0:
288,337,27655,6,0,B|347:324|347:324|407:337|407:337|473:322,1,170,2|2,1:2|1:2,0:0:0:0:
409,234,28179,1,10,0:2:0:0:
305,158,28353,2,0,P|248:155|193:272,1,170,2|0,0:2|1:0,0:0:0:0:
395,130,28876,2,0,P|399:78|405:37,1,85,10|0,0:2|1:0,0:0:0:0:
297,175,29225,6,0,L|324:365,2,170,2|10|2,1:2|0:2|1:2,0:0:0:0:
261,77,30097,1,0,1:0:0:0:
375,176,30272,1,8,0:2:0:0:
229,222,30446,1,2,1:2:0:0:
161,147,30621,6,0,B|187:187|187:187|166:316,1,170,2|8,0:0|0:2,0:0:0:0:
74,240,31144,1,0,0:0:0:0:
241,363,31318,2,0,B|330:369|301:304|420:309,1,170,2|8,1:2|0:2,0:0:0:0:
324,226,31841,1,10,0:2:0:0:
324,226,31929,1,8,0:2:0:0:
324,226,32016,5,2,0:2:0:0:
418,191,32190,1,0,1:0:0:0:
245,273,32365,2,0,B|226:231|247:184|247:184,1,85,14|0,0:2|0:0,0:0:0:0:
335,60,32714,1,2,1:2:0:0:
325,151,32888,1,2,1:2:0:0:
400,207,33062,1,10,0:2:0:0:
250,101,33237,6,0,L|68:117,1,170,2|2,1:2|1:2,0:0:0:0:
169,192,33760,1,10,0:2:0:0:
154,18,33935,2,0,L|162:124,1,85,2|0,0:2|1:0,0:0:0:0:
169,192,34283,1,2,1:2:0:0:
109,272,34458,2,0,B|77:276|77:276|18:266,1,85,8|0,0:2|1:0,0:0:0:0:
185,179,34807,6,0,B|217:175|217:175|276:185,1,85,2|0,1:2|0:0,0:0:0:0:
361,274,35155,2,0,L|378:171,1,85,10|0,0:2|0:0,0:0:0:0:
371,75,35504,2,0,L|262:90,1,85,2|0,1:2|1:0,0:0:0:0:
158,183,35853,2,0,L|242:194,1,85,10|0,0:2|1:0,0:0:0:0:
137,76,36202,5,2,1:2:0:0:
114,63,36289,1,8,0:3:0:0:
88,64,36376,1,8,0:3:0:0:
65,76,36464,1,8,0:3:0:0:
45,92,36551,2,0,L|54:166,1,42.5,10|8,1:3|0:3,0:0:0:0:
64,222,36725,5,8,0:3:0:0:
91,242,36812,1,8,0:3:0:0:
133,249,36900,1,10,1:3:0:0:
168,225,36987,1,8,0:3:0:0:
202,200,37074,1,8,0:3:0:0:
242,211,37161,1,8,0:3:0:0:
269,253,37248,6,0,L|277:318,1,42.5,10|8,1:3|0:3,0:0:0:0:
322,137,37423,2,0,L|327:94,1,42.5,8|8,0:3|0:3,0:0:0:0:
464,215,37597,6,0,B|431:232|431:232|364:223,1,85,6|0,1:2|1:0,0:0:0:0:
205,139,37946,2,0,P|245:135|303:129,1,85,10|0,0:2|1:0,0:0:0:0:
467,102,38295,1,2,1:2:0:0:
371,78,38469,1,2,0:2:0:0:
353,224,38644,1,10,0:2:0:0:
374,66,38818,6,0,B|326:42|326:42|261:38|195:59,1,170,2|2,1:2|1:2,0:0:0:0:
79,42,39341,2,0,B|114:63|114:63|128:134,1,85,10|2,0:2|1:2,0:0:0:0:
188,237,39690,2,0,L|203:149,1,85,0|2,1:0|1:2,0:0:0:0:
53,221,40039,1,10,0:2:0:0:
130,92,40214,1,0,1:0:0:0:
275,196,40388,6,0,B|377:181|330:249|443:240,1,170,2|10,1:2|0:2,0:0:0:0:
418,153,40911,1,0,1:0:0:0:
298,275,41086,2,0,P|294:320|303:359,1,85,2|0,1:2|1:0,0:0:0:0:
381,313,41435,1,10,0:2:0:0:
478,161,41609,6,0,L|388:170,1,85,0|2,1:0|1:2,0:0:0:0:
243,99,41958,1,0,1:0:0:0:
347,206,42132,2,0,B|366:263|366:263|356:308|330:385,1,170,10|0,0:2|1:0,0:0:0:0:
199,246,42655,2,0,P|240:251|282:277,1,85,2|10,1:2|0:2,0:0:0:0:
100,333,43004,1,10,0:2:0:0:
100,333,43091,1,8,0:2:0:0:
100,333,43179,6,0,L|79:149,1,170,2|14,0:2|0:2,0:0:0:0:
225,113,43702,1,0,1:0:0:0:
172,265,43876,1,2,1:2:0:0:
70,246,44051,1,2,1:2:0:0:
231,345,44225,2,0,B|257:351|257:351|322:338,1,85,10|2,0:2|1:2,0:0:0:0:
283,176,44574,6,0,L|270:267,1,85,0|2,1:0|1:2,0:0:0:0:
155,136,44923,2,0,L|168:227,1,85,10|2,0:2|1:2,0:0:0:0:
260,82,45272,1,0,1:0:0:0:
183,35,45446,1,2,1:2:0:0:
57,111,45621,6,0,B|41:160|41:160|67:281,1,170,10|2,0:2|1:2,0:0:0:0:
154,253,46144,1,0,1:0:0:0:
309,352,46318,2,0,L|204:364,1,85,10|0,0:2|1:0,0:0:0:0:
381,218,46667,1,2,1:2:0:0:
331,321,46841,1,0,1:0:0:0:
272,138,47016,1,10,0:2:0:0:
325,299,47190,1,0,1:0:0:0:
205,359,47365,5,2,1:2:0:0:
82,267,47539,1,10,0:2:0:0:
82,267,47626,1,8,0:2:0:0:
82,267,47714,1,10,0:2:0:0:
129,184,47888,1,10,0:2:0:0:
94,100,48062,1,10,0:2:0:0:
206,31,48237,1,10,0:3:0:0:
208,52,48324,1,8,0:3:0:0:
210,73,48411,1,10,0:2:0:0:
226,125,48498,1,8,0:2:0:0:
281,117,48586,1,10,0:2:0:0:
335,107,48673,1,8,0:2:0:0:
383,115,48760,6,0,B|418:159|418:159|410:263,1,152.999995330811,2|10,1:2|0:2,0:0:0:0:
321,219,49283,1,0,0:0:0:0:
261,355,49458,1,2,1:2:0:0:
261,355,49632,2,0,L|251:252,1,76.4999976654053,2|8,1:2|0:2,0:0:0:0:
109,201,49981,6,0,B|140:207|161:227|161:227|209:184|263:178,1,152.999995330811,2|2,1:2|1:2,0:0:0:0:
315,110,50504,1,10,0:2:0:0:
322,89,50679,1,2,1:2:0:0:
410,188,50853,1,2,0:2:0:0:
429,178,51028,1,2,1:2:0:0:
396,313,51202,1,10,0:2:0:0:
416,319,51376,1,2,1:2:0:0:
257,318,51551,6,0,B|172:309|195:365|98:362,1,152.999995330811,2|10,1:2|0:2,0:0:0:0:
186,129,52248,1,2,1:2:0:0:
186,129,52423,2,0,B|193:159|193:159|183:211,1,76.4999976654053,2|8,1:2|0:2,0:0:0:0:
354,278,52772,6,0,L|198:302,1,152.999995330811,2|2,1:2|1:2,0:0:0:0:
47,105,53295,1,10,0:2:0:0:
54,191,53469,2,0,L|73:360,1,152.999995330811,2|2,1:2|1:2,0:0:0:0:
151,251,53993,1,10,0:2:0:0:
304,359,54167,1,8,0:3:0:0:
304,359,54254,1,8,0:3:0:0:
304,359,54341,6,0,P|308:301|326:201,1,152.999995330811,2|10,1:2|0:2,0:0:0:0:
437,88,54865,1,0,0:0:0:0:
362,132,55039,1,2,1:2:0:0:
262,20,55214,2,0,B|247:39|247:39|260:120,1,76.4999976654053,2|8,1:2|0:2,0:0:0:0:
415,208,55562,6,0,P|364:168|264:184,1,152.999995330811,2|2,1:2|1:2,0:0:0:0:
189,229,56086,1,10,0:2:0:0:
189,229,56173,1,0,0:0:0:0:
189,229,56260,1,2,0:2:0:0:
243,298,56435,1,2,1:2:0:0:
400,199,56609,1,2,1:2:0:0:
348,288,56783,1,10,0:2:0:0:
240,147,56958,1,2,1:2:0:0:
356,300,57132,6,0,P|266:310|217:372,1,152.999995330811,2|10,1:2|0:2,0:0:0:0:
36,249,57830,1,2,1:2:0:0:
36,249,57917,1,2,0:2:0:0:
36,249,58004,2,0,P|75:246|133:229,1,76.4999976654053,2|8,1:2|0:2,0:0:0:0:
198,137,58353,6,0,B|178:175|178:175|211:294,1,152.999995330811,2|10,1:2|0:2,0:0:0:0:
279,332,58789,1,8,0:2:0:0:
279,332,58876,1,10,0:2:0:0:
469,275,59051,1,10,0:2:0:0:
383,355,59225,1,10,0:2:0:0:
388,156,59400,1,10,0:2:0:0:
407,189,59487,1,8,0:2:0:0:
405,227,59574,1,10,0:2:0:0:
383,258,59661,1,8,0:2:0:0:
346,269,59748,1,8,0:2:0:0:
308,260,59836,1,8,0:2:0:0:
279,234,59923,6,0,B|267:206|267:206|272:133,1,76.4999976654053,6|0,1:2|1:0,0:0:0:0:
367,60,60272,2,0,B|321:47|321:47|266:73|266:73|215:62,1,152.999995330811,10|2,0:2|0:2,0:0:0:0:
126,116,60795,1,0,1:0:0:0:
288,30,60969,1,8,0:2:0:0:
81,38,61144,6,0,B|69:69|69:69|92:199,1,152.999995330811,2|2,1:2|1:2,0:0:0:0:
144,272,61667,2,0,L|131:360,1,76.4999976654053,8|0,0:2|0:0,0:0:0:0:
243,250,62016,1,0,0:0:0:0:
180,167,62190,1,0,1:0:0:0:
223,348,62365,2,0,B|246:355|246:355|299:347,1,76.4999976654053,10|0,0:2|1:0,0:0:0:0:
330,209,62714,6,0,B|353:231|353:231|368:301,1,76.4999976654053,2|0,1:2|1:0,0:0:0:0:
221,151,63062,2,0,B|198:173|198:173|183:243,1,76.4999976654053,10|0,0:2|0:0,0:0:0:0:
303,74,63411,2,0,B|266:47|266:47|140:67,1,152.999995330811,2|8,0:2|0:2,0:0:0:0:
61,190,63935,6,0,B|150:187|115:134|218:145,1,152.999995330811,2|2,1:2|1:2,0:0:0:0:
322,239,64458,1,8,0:2:0:0:
214,288,64632,1,2,0:2:0:0:
288,159,64807,1,2,0:2:0:0:
412,250,64981,1,2,1:2:0:0:
293,318,65155,1,10,0:2:0:0:
322,239,65330,1,2,1:2:0:0:
111,334,65504,5,2,1:2:0:0:
111,334,65679,1,0,1:0:0:0:
97,105,65853,1,10,0:2:0:0:
192,181,66028,2,0,B|144:180|144:180|106:216|106:216|46:209,1,152.999995330811,2|0,0:0|1:0,0:0:0:0:
265,73,66551,1,10,0:2:0:0:
315,162,66725,6,0,P|292:242|279:314,1,152.999995330811,2|2,1:2|1:2,0:0:0:0:
204,233,67248,1,8,0:2:0:0:
358,336,67423,2,0,B|418:346|418:346|467:298|487:243,1,152.999995330811,2|2,0:2|1:2,0:0:0:0:
361,203,67946,2,0,P|398:195|436:185,1,76.4999976654053,8|2,0:2|1:2,0:0:0:0:
478,79,68295,5,2,1:2:0:0:
480,56,68469,1,2,1:2:0:0:
350,216,68644,2,0,L|257:205,1,76.4999976654053,8|0,0:2|0:0,0:0:0:0:
184,255,68993,2,0,L|91:266,1,76.4999976654053,2|2,0:2|1:2,0:0:0:0:
43,190,69341,1,8,0:2:0:0:
172,66,69516,6,0,B|183:95|183:95|172:148,1,76.4999976654053,2|0,1:2|1:0,0:0:0:0:
60,99,69863,1,2,1:2:0:0:
127,262,70036,1,8,0:2:0:0:
241,108,70210,1,2,1:2:0:0:
104,49,70383,1,0,1:0:0:0:
83,76,70470,1,0,0:0:0:0:
83,110,70557,1,8,0:2:0:0:
98,140,70643,1,8,0:2:0:0:
123,162,70730,2,0,L|173:161,1,42.5,8|8,0:2|0:2,0:0:0:0:
255,98,70903,2,0,L|305:99,1,42.5,8|0,0:2|0:0,0:0:0:0:
443,148,71077,5,6,1:2:0:0:
332,283,71251,1,2,1:2:0:0:
503,197,71425,2,0,P|457:189|411:184,1,76.4999976654053,8|2,0:2|0:2,0:0:0:0:
270,341,71774,2,0,B|358:335|328:277|431:274,1,152.999995330811,2|8,0:2|0:2,0:0:0:0:
175,327,72297,6,0,B|160:307|161:284|161:284|190:238|178:162,1,152.999995330811,2|2,1:2|1:2,0:0:0:0:
96,30,72821,2,0,P|88:73|99:114,1,76.4999976654053,8|2,0:2|0:2,0:0:0:0:
188,182,73170,2,0,L|102:188,1,76.4999976654053,0|2,0:0|1:2,0:0:0:0:
277,327,73518,2,0,L|363:319,1,76.4999976654053,10|0,0:2|0:0,0:0:0:0:
195,194,73867,6,0,P|184:238|199:358,1,152.999995330811,2|8,1:2|0:2,0:0:0:0:
286,239,74390,1,0,0:0:0:0:
185,84,74565,2,0,B|133:82|133:82|86:96|30:159,1,152.999995330811,2|8,0:2|0:2,0:0:0:0:
257,38,75088,6,0,B|318:44|318:44|354:88|354:88|418:93,1,152.999995330811,2|2,1:2|1:2,0:0:0:0:
472,185,75611,2,0,P|481:139|495:93,1,76.4999976654053,8|2,0:2|0:2,0:0:0:0:
376,53,75960,1,0,0:0:0:0:
293,226,76135,1,2,1:2:0:0:
450,309,76309,1,10,1:2:0:0:
471,282,76396,1,8,0:2:0:0:
473,248,76483,1,10,0:2:0:0:
463,215,76571,1,8,0:2:0:0:
441,189,76658,6,0,B|277:171,1,152.999995330811,2|8,1:2|0:2,0:0:0:0:
365,99,77181,1,2,0:2:0:0:
275,259,77356,2,0,B|225:266|225:266|188:304|188:304|114:317,1,152.999995330811,2|8,0:2|0:2,0:0:0:0:
143,217,77879,1,0,1:0:0:0:
339,343,78053,6,0,B|373:240|373:240|336:178,1,152.999995330811,2|8,0:2|0:2,0:0:0:0:
273,108,78577,1,0,0:0:0:0:
377,278,78751,2,0,B|430:265|482:264|482:264|489:228|505:192,1,152.999995330811,2|8,0:2|0:2,0:0:0:0:
475,55,79274,6,0,L|383:66,1,76.4999976654053,2|0,1:2|1:0,0:0:0:0:
250,209,79623,1,2,1:2:0:0:
240,217,79797,2,0,L|245:113,1,76.4999976654053,10|0,0:2|0:0,0:0:0:0:
386,244,80146,2,0,P|378:190|372:147,1,76.4999976654053,2|2,0:2|1:2,0:0:0:0:
310,64,80495,1,10,0:2:0:0:
205,184,80670,6,0,P|124:155|63:198,1,152.999995330811,2|2,1:2|1:2,0:0:0:0:
70,359,81193,2,0,B|128:355|128:355|165:326|165:326|225:320,1,152.999995330811,10|2,0:2|1:2,0:0:0:0:
313,217,81716,1,2,1:2:0:0:
206,74,81890,2,0,B|155:80|155:80|132:115,1,76.4999976654053,10|0,0:2|0:0,0:0:0:0:
240,328,82239,6,0,B|265:301|265:301|250:219,1,95.6250036478044,6|0,1:0|0:0,0:0:0:0:
151,246,82588,2,0,B|120:211|120:211|133:116,1,127.5,6|0,1:0|0:0,0:0:0:0:
221,23,82937,2,0,L|229:105,1,46.7500014266968,6|0,1:0|0:0,0:0:0:0:
328,125,83111,2,0,L|320:195,1,50.9999984436036,2|0,1:1|0:0,0:0:0:0:
243,315,83286,6,0,B|256:267|256:267|229:222|229:222|241:166,1,152.999995330811,6|0,1:0|0:0,0:0:0:0:
251,76,83635,1,6,1:0:0:0:
92,310,85030,6,0,B|78:275|78:275|92:202,1,85,6|0,1:2|1:0,0:0:0:0:
154,91,85379,2,0,L|163:199,1,85,10|0,0:2|0:0,0:0:0:0:
230,289,85728,1,2,1:2:0:0:
262,201,85902,1,2,1:2:0:0:
290,111,86077,1,8,0:2:0:0:
233,301,86251,6,0,B|308:289|308:289|340:331|403:357,1,170,2|2,0:2|1:2,0:0:0:0:
476,246,86774,1,10,0:2:0:0:
268,364,86949,2,0,L|259:168,1,170,2|0,0:2|1:0,0:0:0:0:
367,70,87472,2,0,P|373:115|372:161,1,85,10|0,0:2|1:0,0:0:0:0:
460,305,87821,6,0,P|466:220|476:135,2,170,2|10|2,1:2|0:2|1:2,0:0:0:0:
345,157,88693,1,2,1:2:0:0:
494,239,88867,1,10,0:2:0:0:
384,341,89042,1,2,1:2:0:0:
244,355,89216,6,0,B|221:298|221:298|231:185,1,170,2|10,0:0|0:2,0:0:0:0:
282,98,89739,1,0,0:0:0:0:
117,35,89914,2,0,B|138:204,1,170,2|10,1:2|0:2,0:0:0:0:
111,339,90437,1,10,0:2:0:0:
111,339,90524,1,8,0:2:0:0:
111,339,90611,5,2,0:2:0:0:
231,361,90786,1,0,1:0:0:0:
123,196,90960,2,0,B|76:197|33:208,1,85,14|0,0:2|0:0,0:0:0:0:
213,74,91309,1,2,1:2:0:0:
264,153,91483,1,2,1:2:0:0:
363,133,91658,1,10,0:2:0:0:
475,180,91832,6,0,P|469:256|458:366,1,170,2|2,1:2|1:2,0:0:0:0:
390,246,92356,1,10,0:2:0:0:
279,349,92530,2,0,P|214:358|173:367,1,85,2|0,0:2|1:0,0:0:0:0:
94,341,92879,1,2,1:2:0:0:
42,176,93053,2,0,B|35:213|35:213|55:278,1,85,10|0,0:2|1:0,0:0:0:0:
171,139,93402,6,0,L|160:240,1,85,2|0,1:2|0:0,0:0:0:0:
50,90,93751,2,0,L|40:5,1,85,10|0,0:2|0:0,0:0:0:0:
245,140,94100,2,0,B|214:154|214:154|156:146,1,85,2|0,1:2|1:0,0:0:0:0:
339,43,94449,2,0,B|370:29|370:29|428:37,1,85,10|0,0:2|1:0,0:0:0:0:
493,129,94797,5,2,1:2:0:0:
497,154,94885,1,8,0:3:0:0:
490,178,94972,1,8,0:3:0:0:
473,197,95059,1,8,0:3:0:0:
449,205,95146,2,0,L|376:196,1,42.5,10|8,1:3|0:3,0:0:0:0:
285,166,95321,5,8,0:3:0:0:
290,199,95408,1,8,0:3:0:0:
296,232,95495,1,10,1:3:0:0:
303,265,95582,1,8,0:3:0:0:
283,292,95670,1,8,0:3:0:0:
262,318,95757,1,8,0:3:0:0:
235,340,95844,6,0,L|222:291,1,42.5,10|8,1:3|0:3,0:0:0:0:
107,226,96018,2,0,L|96:267,1,42.5,8|8,0:3|0:3,0:0:0:0:
284,152,96193,6,0,B|250:171|250:171|172:161,1,85,6|0,1:2|1:0,0:0:0:0:
75,69,96542,2,0,L|182:53,1,85,10|0,0:2|1:0,0:0:0:0:
335,28,96890,1,2,1:2:0:0:
312,125,97065,1,2,1:2:0:0:
357,217,97239,1,10,0:2:0:0:
501,298,97414,6,0,B|409:293|420:364|328:347,1,170,2|2,1:2|1:2,0:0:0:0:
225,271,97937,2,0,P|235:306|246:378,1,85,10|2,0:2|1:2,0:0:0:0:
351,205,98286,2,0,P|358:163|369:122,1,85,0|2,1:0|1:2,0:0:0:0:
197,32,98635,1,10,0:2:0:0:
237,156,98809,1,0,1:0:0:0:
357,35,98983,6,0,P|244:49|173:65,1,170,2|10,1:2|0:2,0:0:0:0:
133,152,99507,1,0,1:0:0:0:
245,320,99681,2,0,B|227:265|227:265|255:214|255:214|240:161,1,170,2|10,1:2|0:2,0:0:0:0:
110,62,100204,1,0,1:0:0:0:
51,236,100379,5,2,1:2:0:0:
149,160,100553,1,0,1:0:0:0:
67,329,100728,2,0,B|125:355|125:355|236:344,1,170,10|0,0:2|1:0,0:0:0:0:
418,225,101251,2,0,P|376:195|324:197,1,85,2|10,1:2|0:2,0:0:0:0:
213,269,101600,1,10,0:2:0:0:
213,269,101687,1,8,0:2:0:0:
213,269,101774,6,0,B|297:254|288:330|397:309,1,170,2|14,0:2|0:2,0:0:0:0:
428,112,102297,1,0,1:0:0:0:
480,284,102472,1,2,1:2:0:0:
407,191,102646,1,2,1:2:0:0:
302,256,102821,1,10,0:2:0:0:
476,361,102995,6,0,P|465:303|460:252,1,85,2|0,1:2|1:0,0:0:0:0:
359,101,103344,1,2,1:2:0:0:
282,183,103518,2,0,P|293:241|298:292,1,85,10|2,0:2|1:2,0:0:0:0:
201,338,103867,1,0,1:0:0:0:
114,288,104042,1,2,1:2:0:0:
85,145,104216,1,10,0:2:0:0:
29,235,104390,1,8,0:2:0:0:
29,235,104478,1,8,0:2:0:0:
29,235,104565,5,2,0:2:0:0:
200,254,104739,1,0,1:0:0:0:
109,67,104914,2,0,B|77:65|77:65|9:94,1,85,10|0,0:2|1:0,0:0:0:0:
174,136,105263,1,2,1:2:0:0:
290,58,105437,1,0,1:0:0:0:
159,144,105611,1,10,0:2:0:0:
327,145,105786,1,0,1:0:0:0:
146,153,105960,5,2,1:2:0:0:
293,237,106135,1,2,1:2:0:0:
132,162,106309,1,2,0:2:0:0:
223,306,106483,1,2,1:2:0:0:
205,333,106571,1,0,1:0:0:0:
174,344,106658,5,10,0:2:0:0:
137,339,106745,1,8,0:0:0:0:
117,307,106832,1,2,1:2:0:0:
116,259,106920,1,0,1:0:0:0:
137,218,107007,1,10,0:3:0:0:
132,170,107094,1,8,0:3:0:0:
107,131,107181,1,10,0:2:0:0:
96,84,107268,1,8,0:2:0:0:
122,45,107356,6,0,P|170:40|225:39,1,85,6|0,1:2|1:0,0:0:0:0:
387,120,107704,2,0,P|339:125|284:126,1,85,10|0,0:2|0:0,0:0:0:0:
151,206,108053,1,2,1:2:0:0:
216,121,108228,1,2,1:2:0:0:
301,262,108402,1,8,0:2:0:0:
244,366,108577,6,0,P|172:320|88:330,1,170,2|2,0:2|1:2,0:0:0:0:
150,213,109100,1,10,0:2:0:0:
291,272,109274,2,0,B|383:261|359:329|473:312,1,170,2|0,0:2|1:0,0:0:0:0:
343,151,109797,2,0,P|287:156|259:176,1,85,10|0,0:2|1:0,0:0:0:0:
421,62,110146,6,0,L|441:254,2,170,2|10|2,1:2|0:2|1:2,0:0:0:0:
288,50,111018,1,2,1:2:0:0:
296,150,111193,1,10,0:2:0:0:
127,41,111367,1,2,1:2:0:0:
52,117,111542,6,0,P|50:172|64:307,1,170,2|10,0:0|0:2,0:0:0:0:
144,201,112065,1,0,0:0:0:0:
231,349,112239,2,0,B|245:300|245:300|230:170,1,170,2|10,1:2|0:2,0:0:0:0:
160,297,112763,1,10,0:2:0:0:
160,297,112850,1,8,0:2:0:0:
160,297,112937,5,2,0:2:0:0:
134,197,113111,1,0,1:0:0:0:
284,285,113286,2,0,B|371:276,1,85,14|0,0:2|0:0,0:0:0:0:
465,218,113635,1,2,1:2:0:0:
398,140,113809,1,2,1:2:0:0:
299,175,113983,1,10,0:2:0:0:
460,308,114158,6,0,P|480:226|445:137,1,170,2|2,1:2|1:2,0:0:0:0:
337,35,114681,1,10,0:2:0:0:
421,70,114856,2,0,P|377:53|321:57,1,85,2|0,0:2|1:0,0:0:0:0:
247,108,115204,1,2,1:2:0:0:
77,49,115379,2,0,P|125:44|168:42,1,85,10|0,0:2|1:0,0:0:0:0:
322,131,115728,6,0,P|274:136|231:138,1,85,2|0,1:2|0:0,0:0:0:0:
93,232,116077,2,0,P|141:227|184:225,1,85,10|0,0:2|0:0,0:0:0:0:
291,314,116425,2,0,B|299:293|299:293|287:229,1,85,2|0,1:2|1:0,0:0:0:0:
228,64,116774,2,0,B|220:85|220:85|232:149,1,85,10|0,0:2|1:0,0:0:0:0:
386,196,117123,5,2,1:2:0:0:
390,180,117210,1,8,0:3:0:0:
379,138,117297,1,8,0:3:0:0:
399,93,117385,1,8,0:3:0:0:
374,53,117472,6,0,L|310:51,1,42.5,10|8,1:3|0:3,0:0:0:0:
228,79,117646,2,0,L|166:74,1,42.5,8|8,0:3|0:3,0:0:0:0:
85,57,117821,5,10,1:3:0:0:
74,89,117908,1,8,0:3:0:0:
98,141,117995,1,8,0:3:0:0:
89,159,118082,1,8,0:3:0:0:
61,200,118170,6,0,L|67:262,1,42.5,10|8,1:3|0:3,0:0:0:0:
163,340,118344,2,0,L|167:297,1,42.5,8|8,0:3|0:3,0:0:0:0:
281,218,118518,6,0,B|296:234|296:234|307:298,1,85,6|0,1:2|1:0,0:0:0:0:
175,144,118867,2,0,L|273:130,1,85,10|0,0:2|1:0,0:0:0:0:
421,82,119216,1,2,1:2:0:0:
314,56,119390,1,2,1:2:0:0:
400,167,119565,1,10,0:2:0:0:
293,39,119739,6,0,L|112:53,1,170,2|2,1:2|1:2,0:0:0:0:
36,129,120263,1,10,0:2:0:0:
108,302,120437,2,0,B|137:232|142:189|142:189|122:124,1,170,2|2,1:2|1:2,0:0:0:0:
25,242,120960,1,10,0:2:0:0:
120,334,121135,1,2,1:2:0:0:
317,250,121309,6,0,B|280:213|280:213|138:243,1,170,2|10,1:2|0:2,0:0:0:0:
231,147,121832,1,0,1:0:0:0:
348,333,122007,2,0,P|340:275|368:160,1,170,2|10,1:2|0:2,0:0:0:0:
452,148,122530,1,2,1:2:0:0:
335,36,122704,5,0,1:0:0:0:
222,93,122879,1,2,1:2:0:0:
375,215,123053,2,0,B|338:178|338:178|196:208,1,170,10|0,0:2|1:0,0:0:0:0:
384,308,123577,2,0,L|468:294,1,85,2|10,1:2|0:2,0:0:0:0:
481,111,123925,1,10,0:2:0:0:
481,111,124013,1,8,0:2:0:0:
481,111,124100,6,0,P|401:92|334:142,1,170,2|14,0:2|0:2,0:0:0:0:
267,46,124623,1,0,1:0:0:0:
179,195,124797,1,2,1:2:0:0:
82,118,124972,1,2,1:2:0:0:
259,54,125146,2,0,B|267:86|267:86|252:160,1,85,10|2,0:2|1:2,0:0:0:0:
67,199,125495,5,0,1:0:0:0:
180,116,125670,1,2,1:2:0:0:
268,296,125844,1,10,0:2:0:0:
165,347,126018,2,0,B|154:315|154:315|163:263,1,85,2|0,1:2|1:0,0:0:0:0:
290,198,126367,1,2,1:2:0:0:
176,123,126542,1,10,0:2:0:0:
228,32,126716,1,0,1:0:0:0:
398,249,126890,6,0,B|415:202|415:202|396:110,1,127.5,6|0,1:2|0:0,0:0:0:0:
405,45,127239,2,0,P|357:53|304:66,1,85,10|0,0:2|1:0,0:0:0:0:
151,156,127588,1,2,1:2:0:0:
331,201,127763,1,0,1:0:0:0:
252,116,127937,1,10,0:2:0:0:
278,299,128111,1,0,1:0:0:0:
428,186,128286,5,2,1:2:0:0:
237,221,128460,1,2,0:2:0:0:
237,221,128547,1,8,0:2:0:0:
237,221,128635,1,10,0:2:0:0:
334,87,128809,1,10,0:2:0:0:
209,34,128983,1,10,0:3:0:0:
105,74,129158,1,10,0:3:0:0:
62,157,129332,1,10,0:3:0:0:
202,26,129507,1,2,1:2:0:0:
242,224,129681,5,4,0:2:0:0:
121,63,135088,5,8,0:3:0:0:
121,63,135175,1,8,0:3:0:0:
121,63,135263,2,0,P|125:122|134:202,1,127.500004863739,2|10,0:2|0:3,0:0:0:0:
223,54,135960,1,2,1:2:0:0:
223,54,136135,2,0,L|304:46,1,63.7500024318696,2|8,0:2|0:3,0:0:0:0:
438,170,136483,6,0,P|411:164|375:158,1,63.7500024318696,2|0,0:2|1:0,0:0:0:0:
258,260,136832,2,0,P|289:253|320:248,1,63.7500024318696,2|8,0:2|0:3,0:0:0:0:
452,301,137181,1,2,0:2:0:0:
376,359,137356,2,0,L|318:366,3,31.8750012159348,2|0|2|0,1:2|0:0|0:2|0:0,0:0:0:0:
449,315,137704,1,10,0:3:0:0:
222,148,138053,5,14,0:2:0:0:
102,279,138228,1,8,0:3:0:0:
102,279,138315,1,8,0:3:0:0:
102,279,138402,2,0,L|44:272,1,31.8750012159348,2|0,0:2|0:0,0:0:0:0:
221,317,138577,2,0,L|240:342,1,31.8750012159348,14|8,0:2|0:3,0:3:0:0:
200,198,138751,2,0,L|212:168,1,31.8750012159348,12|0,0:2|0:3,0:3:0:0:
317,56,138925,1,2,0:2:0:0:
317,56,139013,1,0,0:0:0:0:
317,56,139100,2,0,L|329:85,1,31.8750012159348,14|0,0:2|0:3,0:3:0:0:
461,154,139274,2,0,L|429:150,1,31.8750012159348,10|8,0:3|0:3,0:3:0:0:
325,200,139449,5,0,0:0:0:0:
459,65,139623,1,14,0:2:0:0:
501,251,139797,1,10,0:2:0:0:
340,98,139972,1,2,1:2:0:0:
340,98,140059,1,0,0:0:0:0:
340,98,140146,1,14,0:2:0:0:
172,202,140321,1,10,0:2:0:0:
162,210,140408,1,8,0:2:0:0:
151,217,140495,2,0,L|94:213,1,31.8750012159348,10|8,0:2|0:2,0:0:0:0:
279,305,140670,2,0,L|336:301,1,31.8750012159348,2|8,0:2|0:2,0:0:0:0:
185,130,140844,6,0,B|177:154|177:154|182:221,1,63.7500024318696,6|0,1:2|0:0,0:0:0:0:
253,56,141193,1,10,0:2:0:0:
101,128,141367,1,2,0:2:0:0:
84,33,141542,1,2,1:2:0:0:
51,222,141716,1,2,1:2:0:0:
150,296,141890,1,10,0:2:0:0:
150,296,141978,1,0,0:0:0:0:
150,296,142065,6,0,B|191:302|191:302|288:292,1,127.500004863739,2|2,1:2|1:2,0:0:0:0:
363,244,142588,1,10,0:2:0:0:
445,277,142763,1,2,1:2:0:0:
464,99,142937,1,10,0:3:0:0:
435,183,143111,1,2,1:2:0:0:
384,42,143286,1,10,0:2:0:0:
259,99,143460,1,10,0:3:0:0:
259,99,143547,1,8,0:3:0:0:
259,99,143635,6,0,B|214:112|214:112|133:97,1,127.500004863739,2|10,1:2|0:2,0:0:0:0:
342,185,144332,1,2,1:2:0:0:
342,185,144507,2,0,L|350:108,1,63.7500024318696,2|8,1:2|0:2,0:0:0:0:
445,341,144856,6,0,L|461:206,1,127.500004863739,2|0,1:2|1:0,0:0:0:0:
468,97,145379,1,8,0:2:0:0:
378,270,145553,2,0,B|337:272|337:272|295:263|251:245,2,127.500004863739,2|2|0,1:2|1:2|0:0,0:0:0:0:
393,91,146425,6,0,B|403:71|403:71|403:17,1,63.7500024318696,2|0,1:2|0:0,0:0:0:0:
319,160,146774,1,10,0:2:0:0:
328,181,146949,1,2,0:2:0:0:
412,273,147123,1,2,1:2:0:0:
310,347,147297,2,0,P|274:342|235:339,1,63.7500024318696,2|10,1:2|0:2,0:0:0:0:
93,275,147646,6,0,P|156:269|234:258,1,127.500004863739,2|2,1:2|1:2,0:0:0:0:
305,210,148170,1,10,0:2:0:0:
312,192,148344,1,2,1:2:0:0:
236,58,148518,1,10,0:3:0:0:
160,148,148693,1,2,1:2:0:0:
160,148,148780,1,0,0:0:0:0:
160,148,148867,1,10,0:2:0:0:
57,49,149042,1,10,0:3:0:0:
57,49,149129,1,8,0:3:0:0:
57,49,149216,6,0,P|68:112|70:191,1,127.500004863739,2|10,1:2|0:2,0:0:0:0:
219,267,149914,1,2,1:2:0:0:
134,325,150088,2,0,L|63:334,1,63.7500024318696,2|8,1:2|0:2,0:0:0:0:
241,342,150437,6,0,P|237:319|232:278,1,63.7500024318696,2|0,1:2|1:0,0:0:0:0:
396,171,150786,1,12,0:2:0:0:
376,288,150960,1,2,1:2:0:0:
224,140,151135,1,14,0:2:0:0:
237,258,151309,1,0,1:0:0:0:
403,182,151483,1,10,0:3:0:0:
448,92,151658,1,10,0:3:0:0:
377,26,151832,1,2,1:2:0:0:
254,47,152007,6,0,B|213:54|213:54|120:37,1,127.500004863739,6|10,1:2|0:2,0:0:0:0:
50,157,152530,1,0,0:0:0:0:
50,157,152617,1,8,0:3:0:0:
50,157,152704,2,0,L|129:145,1,63.7500024318696,10|2,0:3|1:2,0:0:0:0:
243,185,153053,1,10,0:2:0:0:
142,288,153228,6,0,P|75:291|12:303,1,127.500004863739,2|2,1:2|1:2,0:0:0:0:
229,349,153751,1,8,0:2:0:0:
148,265,153925,1,10,0:3:0:0:
145,245,154013,1,8,0:3:0:0:
160,215,154100,1,8,0:3:0:0:
144,182,154187,1,8,0:3:0:0:
169,147,154274,1,10,1:3:0:0:
146,110,154361,1,8,1:3:0:0:
160,66,154449,2,0,L|157:9,1,31.8750012159348,8|8,0:2|0:3,0:0:0:0:
260,138,154623,2,0,L|258:169,1,31.8750012159348,10|8,0:3|0:3,0:0:0:0:
67,250,154797,6,0,B|42:229|42:229|32:114,1,127.500004863739,2|10,1:2|0:2,0:0:0:0:
152,28,155321,1,0,0:0:0:0:
152,28,155408,1,8,0:3:0:0:
152,28,155495,1,10,0:3:0:0:
231,82,155670,1,2,1:2:0:0:
327,47,155844,1,8,0:2:0:0:
421,220,156018,6,0,B|438:173|438:173|418:94,1,127.500004863739,2|2,1:2|1:2,0:0:0:0:
490,27,156542,1,10,0:2:0:0:
389,228,156716,1,10,0:3:0:0:
383,239,156803,1,8,0:3:0:0:
376,250,156890,2,0,L|326:245,1,31.8750012159348,10|8,0:3|0:3,0:0:0:0:
247,192,157065,2,0,L|197:197,1,31.8750012159348,10|8,1:3|1:3,0:0:0:0:
101,264,157239,1,10,0:2:0:0:
86,272,157327,1,8,0:2:0:0:
46,245,157414,1,8,0:3:0:0:
50,197,157501,1,8,0:3:0:0:
88,168,157588,6,0,B|100:134|100:134|75:29,1,127.500004863739,6|10,1:2|0:2,0:0:0:0:
187,210,158111,1,0,0:0:0:0:
187,210,158199,1,8,0:3:0:0:
187,210,158286,1,10,0:3:0:0:
253,136,158460,1,2,1:2:0:0:
187,59,158635,1,10,0:2:0:0:
341,177,158809,6,0,B|372:187|372:187|470:164,1,127.500004863739,2|2,1:2|1:2,0:0:0:0:
370,81,159332,1,10,0:2:0:0:
458,266,159507,1,2,0:2:0:0:
440,256,159594,1,8,0:3:0:0:
420,266,159681,1,8,0:3:0:0:
390,249,159768,1,8,0:3:0:0:
354,265,159856,1,10,1:3:0:0:
317,241,159943,1,8,0:3:0:0:
275,265,160030,2,0,L|227:257,1,31.8750012159348,10|0,0:2|0:0,0:0:0:0:
112,189,160204,2,0,L|162:181,1,31.8750012159348
268,95,160379,6,0,B|231:101|231:101|156:82,1,95.6250036478044,6|0,1:0|0:0,0:0:0:0:
356,145,160728,2,0,B|393:139|393:139|491:162,1,127.5,6|0,1:0|0:0,0:0:0:0:
278,220,161077,2,0,L|220:231,1,46.7500014266968,6|0,1:0|0:0,0:0:0:0:
363,121,161251,2,0,L|432:136,1,46.7500014266968,2|0,1:0|0:0,0:0:0:0:
286,10,161425,6,0,B|249:38|249:38|265:160,1,152.999995330811,6|0,1:0|0:0,0:0:0:0:
284,231,161774,1,6,1:0:0:0:
290,223,171001,5,0,1:0:0:0:
66,196,171159,1,8,0:0:0:0:
153,88,171317,1,0,1:0:0:0:
58,210,171475,6,0,L|145:226,1,85,6|0,1:2|1:0,0:0:0:0:
240,82,171823,2,0,L|224:169,1,85,10|0,0:2|0:0,0:0:0:0:
145,54,172172,1,2,1:2:0:0:
301,20,172347,1,2,1:2:0:0:
386,146,172521,1,10,0:2:0:0:
307,237,172695,6,0,B|366:228|366:228|485:293,1,170,2|2,0:2|1:2,0:0:0:0:
310,322,173219,1,10,0:2:0:0:
216,185,173393,2,0,P|218:237|221:354,1,170,2|2,0:2|1:2,0:0:0:0:
82,240,173916,2,0,P|80:193|80:148,1,85,8|0,0:2|1:0,0:0:0:0:
163,30,174265,6,0,B|187:53|187:53|202:117,1,85,6|0,1:2|0:0,0:0:0:0:
307,211,174614,2,0,B|318:160|318:160|342:137,1,85,10|0,0:2|0:0,0:0:0:0:
495,242,174963,1,2,1:2:0:0:
355,129,175137,1,0,1:0:0:0:
314,316,175312,2,0,B|281:320|281:320|262:317|262:317|229:320,1,85,10|0,0:2|1:0,0:0:0:0:
58,245,175661,5,2,1:2:0:0:
61,257,175748,1,8,0:3:0:0:
65,269,175835,1,8,0:3:0:0:
69,280,175922,1,8,0:3:0:0:
83,306,176009,2,0,L|78:367,1,42.5,10|8,1:3|0:3,0:0:0:0:
173,218,176184,6,0,L|169:175,1,42.5,8|8,0:3|0:3,0:0:0:0:
210,63,176358,1,10,1:3:0:0:
253,30,176445,1,8,0:3:0:0:
308,35,176533,1,8,0:3:0:0:
342,77,176620,1,8,0:3:0:0:
355,130,176707,6,0,L|412:127,1,42.5,10|8,1:3|0:3,0:0:0:0:
495,261,176881,2,0,L|438:264,1,42.5,8|8,0:3|0:3,0:0:0:0:
279,207,177056,5,6,1:2:0:0:
224,301,177230,1,0,1:0:0:0:
380,360,177405,2,0,P|375:320|369:276,1,85,10|0,0:2|1:0,0:0:0:0:
379,119,177754,1,2,1:2:0:0:
286,100,177928,1,2,1:2:0:0:
227,33,178102,1,10,0:2:0:0:
88,78,178277,6,0,B|63:128|63:128|79:262,1,170,2|2,1:2|1:2,0:0:0:0:
128,320,178800,1,10,0:2:0:0:
237,192,178975,2,0,P|203:196|141:203,1,85,2|0,1:2|1:0,0:0:0:0:
218,90,179323,1,2,1:2:0:0:
326,243,179498,2,0,P|360:239|422:232,1,85,10|0,0:2|1:0,0:0:0:0:
216,364,179847,6,0,B|205:298|208:239|208:239|235:203,1,170,2|10,1:2|0:2,0:0:0:0:
331,260,180370,1,0,1:0:0:0:
254,110,180544,2,0,P|211:115|152:148,1,85,2|0,1:2|1:0,0:0:0:0:
383,113,180893,2,0,P|378:70|345:11,1,85,10|0,0:2|1:0,0:0:0:0:
166,45,181242,6,0,B|142:84|142:84|147:158|162:222,1,170,2|10,1:2|0:2,0:0:0:0:
137,292,181765,1,2,1:2:0:0:
258,144,181940,1,0,1:0:0:0:
357,197,182114,1,2,1:2:0:0:
254,129,182288,1,10,0:2:0:0:
442,246,182463,1,10,0:2:0:0:
442,246,182550,1,8,0:2:0:0:
442,246,182637,6,0,B|395:226|395:226|276:268,1,170,2|14,0:2|0:2,0:0:0:0:
185,217,183161,1,0,1:0:0:0:
395,76,183335,1,2,1:2:0:0:
382,160,183509,1,2,1:2:0:0:
469,297,183684,1,10,0:2:0:0:
408,352,183858,6,0,B|372:361|372:361|294:345,1,85,2|0,1:2|1:0,0:0:0:0:
246,204,184207,1,2,1:2:0:0:
164,277,184381,2,0,L|172:376,1,85,10|2,0:2|1:2,0:0:0:0:
264,186,184730,2,0,L|256:87,1,85,0|2,1:0|1:2,0:0:0:0:
93,50,185079,2,0,B|119:59|119:59|179:48,1,85,10|0,0:2|1:0,0:0:0:0:
34,140,185428,5,2,1:2:0:0:
167,191,185602,1,0,1:0:0:0:
39,316,185777,2,0,P|33:273|32:216,1,85,10|0,0:2|1:0,0:0:0:0:
136,353,186126,1,2,1:2:0:0:
232,309,186300,1,0,1:0:0:0:
378,353,186475,1,10,0:2:0:0:
373,214,186649,1,0,0:0:0:0:
373,214,186736,1,0,0:0:0:0:
373,214,186823,5,8,0:2:0:0:
485,131,186993,1,10,0:2:0:0:
320,292,187163,1,10,0:2:0:0:
467,230,187334,1,10,0:2:0:0:
264,149,187504,5,10,0:2:0:0:
445,77,187676,1,10,0:2:0:0:
504,262,187848,1,10,0:2:0:0:
364,130,188021,1,0,1:0:0:0:
231,344,188193,6,0,P|172:351|104:319,2,127.500004863739,6|2|10,1:2|1:2|0:2,0:0:0:0:
295,216,189065,2,0,P|300:247|301:279,1,63.7500024318696,2|2,0:2|1:2,0:0:0:0:
153,214,189413,6,0,B|136:178|136:178|139:77,1,127.500004863739,6|2,1:2|1:2,0:0:0:0:
231,29,189937,1,2,0:2:0:0:
320,138,190111,2,0,L|310:211,1,63.7500024318696,2|8,1:2|0:2,0:0:0:0:
291,296,190460,1,0,1:0:0:0:
439,341,190634,2,0,L|430:277,1,63.7500024318696,2|0,1:2|0:0,0:0:0:0:
403,137,190983,6,0,B|323:148|341:105|265:112,2,127.500004863739,6|2|10,1:2|1:2|0:2,0:0:0:0:
239,203,191855,2,0,B|203:201|203:201|164:183,1,63.7500024318696,0|2,0:0|0:2,0:0:0:0:
186,43,192204,6,0,B|163:58|163:58|143:89,1,63.7500024318696,2|0,1:2|0:0,0:0:0:0:
73,296,192553,2,0,B|94:249|95:206|95:206|75:179,1,127.500004863739,0|0,1:0|1:0,0:0:0:0:
256,210,193076,1,10,0:2:0:0:
327,145,193251,1,8,0:3:0:0:
312,50,193425,1,8,0:3:0:0:
217,34,193599,1,0,1:0:0:0:
83,99,193774,6,0,L|94:233,2,127.500004863739,6|2|10,1:2|1:2|0:2,0:0:0:0:
198,157,194646,1,2,1:2:0:0:
198,157,194820,1,2,1:2:0:0:
191,326,194995,6,0,P|123:316|46:310,1,127.500004863739,6|2,1:2|1:2,0:0:0:0:
173,233,195518,1,2,1:2:0:0:
298,286,195693,2,0,P|301:307|303:361,1,63.7500024318696,2|8,1:2|0:2,0:0:0:0:
250,194,196041,1,2,1:2:0:0:
278,59,196216,1,0,1:0:0:0:
300,55,196303,1,8,0:2:0:0:
322,52,196390,1,8,0:2:0:0:
344,49,196477,1,8,0:2:0:0:
381,68,196565,6,0,L|430:72,1,31.8750012159348,2|0,1:2|0:0,0:0:0:0:
299,186,196739,2,0,L|267:188,1,31.8750012159348,8|0,0:2|0:0,0:0:0:0:
420,224,196913,1,2,1:2:0:0:
226,121,197088,1,0,1:0:0:0:
320,329,197262,2,0,B|305:285|305:285|315:198,1,127.500004863739,10|10,0:2|0:2,0:0:0:0:
452,145,197786,1,0,1:0:0:0:
295,307,197960,5,2,1:2:0:0:
274,322,198048,1,8,0:3:0:0:
249,328,198136,1,8,0:3:0:0:
223,323,198224,1,8,0:3:0:0:
178,297,198312,5,2,1:2:0:0:
129,281,198401,1,8,0:3:0:0:
80,296,198489,1,10,0:3:0:0:
49,336,198577,1,8,0:3:0:0:
91,376,198665,5,0,1:0:0:0:
84,317,198754,1,8,0:3:0:0:
78,257,198843,1,8,0:3:0:0:
70,198,198932,1,8,0:3:0:0:
94,148,199022,6,0,P|90:127|87:103,1,42.5,2|8,1:2|0:3,0:0:0:0:
200,23,199200,2,0,P|203:43|207:68,1,42.5,8|8,0:3|0:3,0:0:0:0:
301,158,199379,6,0,P|346:153|394:148,1,85,6|0,1:2|1:0,0:0:0:0:
269,279,199721,2,0,P|224:284|176:289,1,85,10|0,0:2|1:0,0:0:0:0:
397,361,200064,2,0,B|411:324|411:324|389:258,1,85,2|2,1:2|1:2,0:0:0:0:
320,184,200410,1,10,0:2:0:0:
324,40,200584,1,2,1:2:0:0:
238,30,200757,6,0,B|225:54|225:54|236:133,1,85,0|2,1:0|1:2,0:0:0:0:
395,194,201105,2,0,L|288:190,1,85,8|2,0:2|1:2,0:0:0:0:
153,245,201454,2,0,P|155:289|160:334,1,85,0|2,1:0|1:2,0:0:0:0:
303,365,201803,2,0,P|301:321|296:276,1,85,10|0,0:2|1:0,0:0:0:0:
235,142,202152,6,0,P|168:102|75:127,1,170,2|10,1:2|0:2,0:0:0:0:
48,33,202675,1,0,1:0:0:0:
149,193,202850,2,0,B|157:250|157:250|130:298|130:298|143:382,1,170,2|10,1:2|0:2,0:0:0:0:
300,362,203373,6,0,P|302:324|310:277,1,85,2|2,1:2|1:2,0:0:0:0:
429,207,203722,2,0,B|392:201|392:201|356:143,1,85,2|10,1:2|0:2,0:0:0:0:
291,74,204070,1,2,1:2:0:0:
293,58,204245,1,2,1:2:0:0:
229,166,204419,1,2,1:2:0:0:
322,291,204594,1,10,0:2:0:0:
153,362,204768,1,10,0:2:0:0:
153,362,204855,1,8,0:2:0:0:
153,362,204943,6,0,B|138:305|138:305|138:247|147:189,1,170,2|14,0:0|0:2,0:0:0:0:
198,53,205466,1,2,1:2:0:0:
295,115,205640,2,0,B|314:121|314:121|394:106,1,85,0|2,1:0|1:2,0:0:0:0:
488,221,205989,2,0,B|469:215|469:215|389:230,1,85,10|0,0:2|1:0,0:0:0:0:
238,250,206338,5,2,1:2:0:0:
333,149,206512,1,2,1:2:0:0:
288,345,206687,1,10,0:2:0:0:
142,364,206861,2,0,B|129:324|129:324|140:257,1,85,0|0,1:0|1:0,0:0:0:0:
288,337,207210,1,2,1:2:0:0:
314,145,207384,2,0,B|327:185|327:185|316:252,1,85,10|2,0:2|1:2,0:0:0:0:
159,104,207733,6,0,B|86:95|115:143|11:142,1,127.5,6|0,1:0|0:0,0:0:0:0:
231,163,208085,2,0,B|308:149|287:203|399:191,1,140.25000428009,6|0,1:0|0:0,0:0:0:0:
156,87,208438,6,0,B|71:85|104:144|-22:128,1,152.999995330811,6|0,1:0|0:0,0:0:0:0:
236,185,208791,2,0,B|325:173|302:235|406:223,1,165.749992412568,6|0,1:0|0:0,0:0:0:0:
471,162,209144,5,6,1:0:0:0:
256,192,209233,12,0,213027,0:0:0:0:
317,300,214841,6,0,L|314:266,2,21.25,2|2|2,0:0|0:0|0:0,0:0:0:0:
