osu file format v14

[General]
AudioFilename: audio.mp3
AudioLeadIn: 0
PreviewTime: 25255
Countdown: 0
SampleSet: Soft
StackLeniency: 0.7
Mode: 0
LetterboxInBreaks: 0
WidescreenStoryboard: 1

[Editor]
Bookmarks: 199379,214580
DistanceSpacing: 1.3
BeatDivisor: 4
GridSize: 32
TimelineZoom: 1

[Metadata]
Title:Parade
TitleUnicode:Parade
Artist:Carpool Tunnel
ArtistUnicode:Carpool Tunnel
Creator:domSaur
Version:Hinsvar's Hard
Source:
Tags:osu! featured artist indie rock english mappers' guild -aqua hinsvar
BeatmapID:2239508
BeatmapSetID:1058934

[Difficulty]
HPDrainRate:5
CircleSize:3.5
OverallDifficulty:6.5
ApproachRate:8
SliderMultiplier:1.35
SliderTickRate:1

[Events]
//Background and Video events
0,0,"temp.jpg",0,0
//Break Periods
2,129881,134513
2,165960,170094
//Storyboard Layer 0 (Background)
//Storyboard Layer 1 (Fail)
//Storyboard Layer 2 (Pass)
//Storyboard Layer 3 (Foreground)
//Storyboard Layer 4 (Overlay)
//Storyboard Sound Samples

[TimingPoints]
1402,340.909090909091,4,2,0,55,1,0
2765,352.941176470588,4,2,0,55,1,0
4176,348.837209302326,4,2,0,55,1,0
5571,355.029585798817,4,2,0,55,1,0
8411,352.941176470588,4,2,0,55,1,0
9822,346.820809248555,4,2,0,55,1,0
11873,348.837209302326,4,2,0,55,1,0
12570,352.941176470588,4,2,0,55,1,0
13981,347.826086956522,4,2,0,55,1,0
16763,350.877192982456,4,2,0,55,1,0
18166,346.820809248555,4,2,0,55,1,0
19553,340.909090909091,4,2,0,55,1,0
20916,352.941176470588,4,2,0,55,1,0
23739,337.078651685393,4,2,0,55,1,0
26435,348.837209302326,4,2,1,70,1,1
37248,-100,4,2,1,70,0,0
37597,-100,4,2,1,70,0,1
40650,-100,4,2,1,5,0,1
40737,-100,4,2,1,70,0,1
40998,-100,4,2,1,5,0,1
41086,-100,4,2,1,70,0,1
46231,-100,4,2,1,5,0,1
46318,-100,4,2,1,70,0,1
48760,-100,4,2,1,60,0,0
59923,-111.111111111111,4,2,1,60,0,0
63324,-111.111111111111,4,2,1,5,0,0
63411,-111.111111111111,4,2,1,60,0,0
69690,346.820809248555,4,2,1,60,1,0
69690,-111.111111111111,4,2,1,60,0,0
71077,348.837209302326,4,2,1,60,1,0
71077,-111.111111111111,4,2,1,60,0,0
82152,-111.111111111111,4,2,1,5,0,0
82239,-125,4,2,1,60,0,0
82501,-125,4,2,1,5,0,0
82588,-111.111111111111,4,2,1,60,0,0
82850,-111.111111111111,4,2,1,5,0,0
82937,-100,4,2,1,60,0,0
83547,-100,4,2,1,5,0,0
83635,-100,4,2,1,60,0,0
85030,-90.9090909090909,4,2,1,70,0,1
110408,-90.9090909090909,4,2,1,5,0,1
110495,-90.9090909090909,4,2,1,70,0,1
128547,-90.9090909090909,4,2,1,70,0,1
128635,-90.9090909090909,4,2,1,70,0,1
129594,-90.9090909090909,4,2,1,5,0,1
129681,-111.111111111111,4,2,1,55,0,0
138053,-100,4,2,1,60,0,0
150699,-100,4,2,1,5,0,0
150786,-100,4,2,1,60,0,0
160379,-125,4,2,1,60,0,0
160640,-125,4,2,1,5,0,0
160728,-111.111111111111,4,2,1,60,0,0
160989,-111.111111111111,4,2,1,5,0,0
161077,-100,4,2,1,60,0,0
161687,-100,4,2,1,5,0,0
161774,-100,4,2,1,60,0,0
170844,315.789473684211,4,2,1,60,1,0
171475,348.837209302326,4,2,1,60,1,0
171475,-90.9090909090909,4,2,1,70,0,1
177318,-90.9090909090909,4,2,1,5,0,1
177405,-90.9090909090909,4,2,1,70,0,1
177666,-90.9090909090909,4,2,1,5,0,1
177754,-90.9090909090909,4,2,1,70,0,1
180108,-90.9090909090909,4,2,1,5,0,1
180195,-90.9090909090909,4,2,1,70,0,1
186823,340.909090909091,4,2,1,70,1,1
186823,-90.9090909090909,4,2,1,70,0,1
187504,344.827586206897,4,2,1,70,1,1
187504,-90.9090909090909,4,2,1,70,0,1
188193,348.837209302326,4,2,1,55,1,0
188193,-100,4,2,1,55,0,0
188454,-100,4,2,1,5,0,0
188541,-100,4,2,1,55,0,0
188803,-100,4,2,1,5,0,0
188890,-100,4,2,1,60,0,0
191245,-100,4,2,1,5,0,0
191332,-100,4,2,1,60,0,0
191594,-100,4,2,1,5,0,0
191681,-100,4,2,1,60,0,0
197960,352.941176470588,4,2,1,60,1,0
198665,357.142857142857,4,2,1,60,1,0
199379,342.857142857143,4,2,1,55,1,1
199379,-90.9090909090909,4,2,1,70,0,1
200064,346.820809248555,4,2,1,70,1,1
200064,-90.9090909090909,4,2,1,70,0,1
200757,348.837209302326,4,2,1,70,1,1
200757,-90.9090909090909,4,2,1,70,0,1
200930,-90.9090909090909,4,2,1,70,0,1
207733,352.941176470588,4,2,1,70,1,1
207733,-125,4,2,1,70,0,1
207997,-125,4,2,1,5,0,1
208085,-111.111111111111,4,2,1,70,0,1
208350,-111.111111111111,4,2,1,5,0,1
208438,-100,4,2,1,70,0,1
208703,-100,4,2,1,5,0,1
208791,-100,4,2,1,70,0,1
209144,-100,4,2,1,60,0,0
213027,-100,4,2,1,5,0,0
214580,348.837209302326,4,2,1,60,1,0

[Colours]
Combo1 : 150,205,177
Combo2 : 231,199,150
Combo3 : 232,65,23
Combo4 : 62,158,255

[HitObjects]
75,37,26435,6,0,P|90:65|100:99,1,67.5,6|0,1:2|1:0,0:0:0:0:
59,176,26783,2,0,B|91:205|91:205|183:184,1,135,10|2,0:2|1:2,0:0:0:0:
236,252,27307,1,2,1:2:0:0:
133,316,27481,1,8,0:2:0:0:
237,377,27655,6,0,P|280:328|352:323,1,135,2|2,1:2|1:2,0:0:0:0:
425,361,28179,1,10,0:2:0:0:
484,263,28353,2,0,P|417:269|400:197,1,135,2|0,0:2|1:0,0:0:0:0:
462,160,28876,2,0,B|474:126|474:126|460:89,1,67.5,10|0,0:2|1:0,0:0:0:0:
495,14,29225,5,2,1:2:0:0:
495,14,29400,1,0,0:0:0:0:
370,49,29574,2,0,B|300:66|300:66|237:26,1,135,10|2,0:2|1:2,0:0:0:0:
165,64,30097,1,0,1:0:0:0:
225,169,30272,1,8,0:2:0:0:
184,261,30446,5,2,1:2:0:0:
184,261,30621,2,0,P|127:210|49:222,1,135,0|8,0:0|0:2,0:0:0:0:
5,268,31144,1,0,0:0:0:0:
83,306,31318,2,0,P|93:341|98:376,1,67.5,2|0,1:2|1:0,0:0:0:0:
218,339,31667,1,8,0:2:0:0:
332,374,31841,5,10,0:2:0:0:
358,369,31929,1,8,0:2:0:0:
384,362,32016,2,0,B|392:330|392:330|366:299,1,67.5,2|0,0:2|1:0,0:0:0:0:
483,320,32365,6,0,B|462:265|462:265|487:192,1,135,14|2,0:2|1:2,0:0:0:0:
456,110,32888,1,2,1:2:0:0:
344,158,33062,1,10,0:2:0:0:
261,88,33237,6,0,B|295:116|295:116|386:72,1,135,2|2,1:2|1:2,0:0:0:0:
306,3,33760,1,10,0:2:0:0:
190,38,33935,2,0,P|122:29|29:9,1,135,2|2,0:2|1:2,0:0:0:0:
18,131,34458,2,0,P|48:116|96:109,1,67.5,8|0,0:2|1:0,0:0:0:0:
155,155,34807,5,2,1:2:0:0:
181,238,34981,1,0,0:0:0:0:
120,335,35155,2,0,B|177:323|177:323|250:372,1,135,10|2,0:2|1:2,0:0:0:0:
276,284,35679,1,0,1:0:0:0:
393,313,35853,1,10,0:2:0:0:
358,231,36028,1,0,1:0:0:0:
360,143,36202,6,0,P|366:116|384:74,1,67.5,2|8,1:2|0:3,0:0:0:0:
447,21,36551,1,10,1:3:0:0:
326,4,36725,1,8,0:3:0:0:
299,7,36812,1,8,0:3:0:0:
272,10,36900,1,10,1:3:0:0:
201,61,37074,2,0,L|157:53,2,33.75,8|8|10,0:3|0:3|1:3,0:0:0:0:
247,135,37423,1,8,0:3:0:0:
171,238,37597,6,0,P|167:205|153:171,1,67.5,6|0,1:2|1:0,0:0:0:0:
70,115,37946,2,0,P|59:184|14:235,1,135,10|2,0:2|1:2,0:0:0:0:
60,309,38469,1,2,0:2:0:0:
167,267,38644,1,10,0:2:0:0:
128,374,38818,6,0,B|191:345|191:345|268:366,1,135,2|2,1:2|1:2,0:0:0:0:
331,319,39341,1,10,0:2:0:0:
342,226,39516,2,0,L|274:242,1,67.5,2|0,1:2|1:0,0:0:0:0:
212,181,39865,1,2,1:2:0:0:
248,101,40039,2,0,B|255:75|255:75|245:30,1,67.5,10|0,0:2|1:0,0:0:0:0:
345,9,40388,6,0,P|383:35|454:43,1,101.25,2|0,1:2|0:0,0:0:0:0:
428,70,40737,2,0,P|386:89|344:147,1,101.25,10|0,0:2|0:0,0:0:0:0:
363,154,41086,1,2,1:2:0:0:
446,183,41260,1,0,1:0:0:0:
345,241,41435,2,0,P|311:236|274:211,1,67.5,10|0,0:2|1:0,0:0:0:0:
217,161,41783,5,2,1:2:0:0:
141,206,41958,1,0,1:0:0:0:
84,297,42132,2,0,L|162:290,1,67.5,10|2,0:2|1:2,0:0:0:0:
222,363,42481,2,0,L|244:299,1,67.5,0|2,1:0|1:2,0:0:0:0:
332,350,42830,1,10,0:2:0:0:
375,237,43004,5,10,0:2:0:0:
369,210,43091,1,8,0:2:0:0:
362,183,43179,2,0,B|330:170|330:170|296:176,1,67.5,2|0,0:2|1:0,0:0:0:0:
227,75,43528,6,0,L|296:89,1,67.5,14|0,0:2|1:0,0:0:0:0:
359,3,43876,2,0,P|376:34|377:73,1,67.5,2|2,1:2|1:2,0:0:0:0:
492,22,44225,1,10,0:2:0:0:
446,135,44400,6,0,P|424:200|408:264,1,135,2|2,1:2|1:2,0:0:0:0:
495,348,44923,1,10,0:2:0:0:
411,373,45097,2,0,P|380:364|345:337,1,67.5,2|0,1:2|1:0,0:0:0:0:
300,272,45446,1,2,1:2:0:0:
330,167,45621,2,0,B|332:130|332:130|315:96,1,67.5,10|0,0:2|1:0,0:0:0:0:
217,140,45969,6,0,B|246:195|246:195|213:235,1,101.25,2|0,1:2|0:0,0:0:0:0:
204,246,46318,1,10,0:2:0:0:
99,198,46493,1,0,1:0:0:0:
27,270,46667,2,0,P|60:274|97:289,1,67.5,2|0,1:2|1:0,0:0:0:0:
171,366,47016,2,0,B|199:340|199:340|256:327,1,67.5,10|0,0:2|1:0,0:0:0:0:
333,352,47365,5,2,1:2:0:0:
293,278,47539,1,10,0:2:0:0:
293,278,47626,1,8,0:2:0:0:
293,278,47714,1,10,0:2:0:0:
305,177,47888,1,10,0:2:0:0:
393,104,48062,1,10,0:2:0:0:
507,148,48237,1,10,0:3:0:0:
507,148,48324,1,8,0:3:0:0:
507,148,48411,2,0,L|501:188,3,33.75,10|8|10|8,0:2|0:2|0:2|0:2,0:0:0:0:
484,202,48760,6,0,P|450:206|419:227,1,67.5,2|0,1:2|1:0,0:0:0:0:
335,239,49109,2,0,P|318:269|318:306,1,67.5,10|0,0:2|0:0,0:0:0:0:
247,355,49458,1,2,1:2:0:0:
247,355,49632,2,0,P|221:339|181:331,1,67.5,2|8,1:2|0:2,0:0:0:0:
89,279,49981,6,0,P|149:255|229:247,1,135,2|2,1:2|1:2,0:0:0:0:
279,182,50504,2,0,P|287:147|286:111,1,67.5,10|2,0:2|1:2,0:0:0:0:
228,47,50853,1,2,0:2:0:0:
228,47,51028,1,2,1:2:0:0:
144,74,51202,1,10,0:2:0:0:
33,259,51551,6,0,B|71:297|71:297|158:258,2,135,2|10|2,1:2|0:2|1:2,0:0:0:0:
21,171,52423,1,2,1:2:0:0:
72,100,52597,1,8,0:2:0:0:
15,15,52772,6,0,P|63:58|128:39,1,135,2|2,1:2|1:2,0:0:0:0:
210,15,53295,2,0,L|278:38,1,67.5,10|2,0:2|1:2,0:0:0:0:
322,110,53644,1,0,0:0:0:0:
384,48,53818,1,2,1:2:0:0:
465,80,53993,2,0,B|481:101|481:101|478:145,1,67.5,10|8,0:2|0:3,0:0:0:0:
508,245,54341,6,0,P|448:219|381:202,1,135,2|10,1:2|0:2,0:0:0:0:
303,246,54865,1,0,0:0:0:0:
241,183,55039,2,0,P|228:150|229:109,1,67.5,2|2,1:2|1:2,0:0:0:0:
272,42,55388,1,8,0:2:0:0:
166,19,55562,6,0,P|151:74|68:89,1,135,2|2,1:2|1:2,0:0:0:0:
48,176,56086,2,0,L|4:179,2,33.75,10|0|2,0:2|0:0|0:2,0:0:0:0:
123,220,56435,1,2,1:2:0:0:
69,288,56609,1,2,1:2:0:0:
135,371,56783,2,0,P|138:342|161:295,1,67.5,10|2,0:2|1:2,0:0:0:0:
272,328,57132,6,0,P|231:281|219:207,2,135,2|10|2,1:2|0:2|1:2,0:0:0:0:
347,373,58004,2,0,P|374:353|411:350,1,67.5,2|8,1:2|0:2,0:0:0:0:
504,322,58353,6,0,P|435:310|388:249,1,135,2|10,1:2|0:2,0:0:0:0:
388,242,58789,1,8,0:2:0:0:
388,242,58876,1,10,0:2:0:0:
465,200,59051,1,10,0:2:0:0:
506,122,59225,2,0,B|508:97|508:97|488:53,1,67.5,10|10,0:2|0:2,0:0:0:0:
409,24,59574,2,0,L|373:32,3,33.75,10|8|8|8,0:2|0:2|0:2|0:2,0:0:0:0:
350,41,59923,5,6,1:2:0:0:
293,104,60097,1,0,1:0:0:0:
212,76,60272,2,0,L|86:64,1,121.499996292114,10|2,0:2|0:2,0:0:0:0:
34,128,60795,1,0,1:0:0:0:
91,189,60969,1,8,0:2:0:0:
48,276,61144,6,0,P|96:243|161:241,1,121.499996292114,2|2,1:2|1:2,0:0:0:0:
210,306,61667,1,8,0:2:0:0:
338,194,62016,2,0,P|352:220|358:258,1,60.7499981460572,0|0,0:0|1:0,0:0:0:0:
405,321,62365,1,10,0:2:0:0:
484,291,62539,1,0,1:0:0:0:
500,208,62714,5,2,1:2:0:0:
500,208,62888,1,0,1:0:0:0:
428,152,63062,2,0,B|408:127|408:127|399:50,1,91.1249972190858,10|0,0:2|0:0,0:0:0:0:
420,48,63411,2,0,P|448:64|490:64,2,60.7499981460572,2|0|8,0:2|1:0|0:2,0:0:0:0:
347,2,63935,6,0,B|314:4|314:4|261:29|261:29|215:33,1,121.499996292114,2|2,1:2|1:2,0:0:0:0:
160,79,64458,2,0,B|193:81|193:81|246:106|246:106|292:110,1,121.499996292114,8|2,0:2|0:2,0:0:0:0:
332,171,64981,2,0,B|337:208|337:208|331:243,1,60.7499981460572,2|10,1:2|0:2,0:0:0:0:
308,312,65330,1,2,1:2:0:0:
227,285,65504,6,0,P|197:278|158:276,1,60.7499981460572,2|0,1:2|1:0,0:0:0:0:
106,337,65853,2,0,P|124:283|86:225,1,121.499996292114,10|2,0:2|0:2,0:0:0:0:
24,179,66376,1,0,1:0:0:0:
6,95,66551,1,10,0:2:0:0:
67,36,66725,6,0,B|149:44|149:44|172:80,1,121.499996292114,2|2,1:2|1:2,0:0:0:0:
278,36,67248,1,8,0:2:0:0:
240,132,67423,2,0,P|288:90|364:95,1,121.499996292114,2|2,0:2|1:2,0:0:0:0:
404,146,67946,2,0,P|436:146|480:131,1,60.7499981460572,8|2,0:2|1:2,0:0:0:0:
512,217,68295,5,2,1:2:0:0:
512,217,68469,1,2,1:2:0:0:
476,294,68644,1,8,0:2:0:0:
476,294,68993,2,0,B|436:272|436:272|413:280,1,60.7499981460572,2|2,0:2|1:2,0:0:0:0:
360,336,69341,1,8,0:2:0:0:
283,374,69516,1,2,1:2:0:0:
202,323,69690,6,0,B|192:286|192:286|208:258,2,60.7499981460572,0|2|8,1:0|1:2|0:2,0:0:0:0:
42,222,70383,1,0,1:0:0:0:
7,133,70557,1,8,0:2:0:0:
7,133,70643,1,8,0:2:0:0:
7,133,70730,2,0,L|14:98,3,30.3749990730286,8|8|8|0,0:2|0:2|0:2|0:0,0:0:0:0:
15,70,71077,6,0,P|48:65|76:45,1,60.7499981460572,6|2,1:2|1:2,0:0:0:0:
113,137,71425,2,0,P|114:79|171:36,1,121.499996292114,8|2,0:2|0:2,0:0:0:0:
238,71,71949,1,0,1:0:0:0:
305,19,72123,1,8,0:2:0:0:
387,66,72297,6,0,B|398:107|398:107|326:160,1,121.499996292114,2|2,1:2|1:2,0:0:0:0:
248,162,72821,2,0,B|248:197|248:197|261:230,1,60.7499981460572,8|2,0:2|0:2,0:0:0:0:
246,325,73170,2,0,P|279:306|313:307,1,60.7499981460572,0|2,0:0|1:2,0:0:0:0:
377,341,73518,1,10,0:2:0:0:
450,298,73693,1,0,0:0:0:0:
477,217,73867,6,0,L|462:152,1,60.7499981460572,2|0,1:2|1:0,0:0:0:0:
379,96,74216,1,8,0:2:0:0:
379,96,74565,2,0,P|390:65|394:31,2,60.7499981460572,2|0|8,0:2|1:0|0:2,0:0:0:0:
307,157,75088,6,0,P|250:110|178:98,1,121.499996292114,2|2,1:2|1:2,0:0:0:0:
127,133,75611,1,8,0:2:0:0:
52,286,75960,1,0,0:0:0:0:
129,320,76135,1,2,1:2:0:0:
181,253,76309,2,0,L|173:202,2,30.3749990730286,10|8|10,1:2|0:2|0:2,0:0:0:0:
251,300,76658,6,0,L|281:371,2,60.7499981460572,2|0|8,1:2|1:0|0:2,0:0:0:0:
284,132,77356,2,0,L|311:63,2,60.7499981460572,2|0|8,0:2|1:0|0:2,0:0:0:0:
120,179,78053,2,0,P|87:173|58:156,1,60.7499981460572,2|0,0:2|1:0,0:0:0:0:
3,232,78402,6,0,B|76:269|76:269|82:324,1,121.499996292114,8|2,0:2|0:2,0:0:0:0:
153,352,78925,1,0,1:0:0:0:
224,305,79100,1,8,0:2:0:0:
302,336,79274,6,0,P|336:349|387:347,1,60.7499981460572,2|0,1:2|1:0,0:0:0:0:
439,320,79623,1,2,1:2:0:0:
399,244,79797,2,0,P|409:179|463:161,1,121.499996292114,8|2,0:2|0:2,0:0:0:0:
487,80,80321,1,2,1:2:0:0:
424,23,80495,2,0,B|400:36|400:36|352:40,1,60.7499981460572,10|2,0:2|1:2,0:0:0:0:
290,77,80844,6,0,P|281:109|278:142,2,60.7499981460572,0|2|10,0:0|1:2|0:2,0:0:0:0:
106,11,81542,1,2,1:2:0:0:
35,58,81716,1,2,1:2:0:0:
87,124,81890,2,0,B|99:165|99:165|92:224,1,91.1249972190858,10|0,0:2|0:0,0:0:0:0:
85,239,82239,6,0,L|101:326,1,81,6|0,1:0|0:0,0:0:0:0:
122,333,82588,6,0,P|152:298|208:277,1,91.1249972190858,6|0,1:0|0:0,0:0:0:0:
216,291,82937,5,6,1:0:0:0:
324,349,83111,1,2,1:1:0:0:
286,239,83286,2,0,P|340:237|390:204,1,101.25,6|0,1:0|0:0,0:0:0:0:
374,187,83635,5,6,1:0:0:0:
374,187,85030,6,0,B|473:166|473:166|524:208,2,148.50000453186,6|10|2,1:2|0:2|1:2,0:0:0:0:
429,90,85902,2,0,P|443:52|440:19,1,74.2500022659302,2|8,1:2|0:2,0:0:0:0:
345,41,86251,6,0,B|279:31|279:31|268:19|268:19|200:8,1,148.50000453186,2|2,0:2|1:2,0:0:0:0:
94,46,86774,1,10,0:2:0:0:
128,137,86949,2,0,B|225:106|225:106|271:141,1,148.50000453186,2|0,0:2|1:0,0:0:0:0:
224,223,87472,2,0,P|261:236|303:238,1,74.2500022659302,10|0,0:2|1:0,0:0:0:0:
382,198,87821,5,2,0:2:0:0:
233,364,88170,1,10,0:2:0:0:
40,252,88518,1,2,1:2:0:0:
122,202,88693,2,0,B|131:179|131:179|120:123,1,74.2500022659302,2|10,1:2|0:2,0:0:0:0:
50,63,89042,1,2,1:2:0:0:
127,13,89216,6,0,P|165:15|210:27,1,74.2500022659302,0|2,0:0|1:2,0:0:0:0:
250,105,89565,2,0,P|286:92|326:69,1,74.2500022659302,10|0,0:2|0:0,0:0:0:0:
385,5,89914,1,2,1:2:0:0:
469,51,90088,1,0,1:0:0:0:
417,150,90263,1,10,0:2:0:0:
447,256,90437,5,10,0:2:0:0:
456,283,90524,1,8,0:2:0:0:
463,311,90611,2,0,B|465:351|465:351|456:385,1,74.2500022659302,2|0,0:2|1:0,0:0:0:0:
319,370,90960,6,0,B|349:315|349:315|331:211,1,148.50000453186,14|2,0:2|1:2,0:0:0:0:
256,150,91483,2,0,P|293:148|339:127,1,74.2500022659302,2|10,1:2|0:2,0:0:0:0:
412,62,91832,6,0,B|320:99|320:99|285:56,1,148.50000453186,2|2,1:2|1:2,0:0:0:0:
196,31,92356,1,10,0:2:0:0:
114,84,92530,2,0,P|93:160|81:243,1,148.50000453186,2|2,0:2|1:2,0:0:0:0:
184,206,93053,2,0,B|205:222|205:222|214:285,1,74.2500022659302,10|0,0:2|1:0,0:0:0:0:
163,355,93402,5,2,1:2:0:0:
19,225,93751,2,0,B|5:173|5:173|96:145,1,148.50000453186,10|2,0:2|1:2,0:0:0:0:
11,82,94274,1,0,1:0:0:0:
97,8,94449,2,0,P|123:42|153:58,1,74.2500022659302,10|0,0:2|1:0,0:0:0:0:
251,34,94797,6,0,P|249:71|238:125,1,74.2500022659302,2|8,1:2|0:3,0:0:0:0:
349,139,95146,2,0,P|321:163|275:194,1,74.2500022659302,10|8,1:3|0:3,0:0:0:0:
376,256,95495,1,10,1:3:0:0:
286,292,95670,2,0,L|248:275,2,37.1250011329651,8|8|10,0:3|0:3|1:3,0:0:0:0:
372,356,96018,1,8,0:3:0:0:
372,356,96106,1,8,0:3:0:0:
372,356,96193,6,0,P|405:341|455:343,1,74.2500022659302,6|0,1:2|1:0,0:0:0:0:
509,250,96542,2,0,P|431:248|357:217,1,148.50000453186,10|2,0:2|1:2,0:0:0:0:
285,168,97065,1,2,1:2:0:0:
216,236,97239,1,10,0:2:0:0:
279,327,97414,6,0,P|216:288|127:288,1,148.50000453186,2|2,1:2|1:2,0:0:0:0:
78,355,97937,1,10,0:2:0:0:
128,256,98111,2,0,P|135:216|132:176,1,74.2500022659302,2|0,1:2|1:0,0:0:0:0:
176,96,98460,1,2,1:2:0:0:
256,149,98635,2,0,P|273:181|282:217,1,74.2500022659302,10|0,0:2|1:0,0:0:0:0:
357,277,98983,6,0,B|385:258|385:258|441:262,1,74.2500022659302,2|0,1:2|1:0,0:0:0:0:
486,185,99332,1,10,0:2:0:0:
486,185,99681,2,0,P|480:149|467:106,1,74.2500022659302,2|0,1:2|1:0,0:0:0:0:
397,39,100030,2,0,P|387:75|358:110,1,74.2500022659302,10|0,0:2|1:0,0:0:0:0:
282,151,100379,6,0,P|248:137|209:127,1,74.2500022659302,2|0,1:2|1:0,0:0:0:0:
102,174,100728,1,10,0:2:0:0:
42,63,100902,2,0,P|106:83|175:29,1,148.50000453186,2|2,1:2|1:2,0:0:0:0:
250,93,101425,1,10,0:2:0:0:
335,21,101600,5,10,0:2:0:0:
363,27,101687,1,8,0:2:0:0:
386,44,101774,2,0,B|402:78|402:78|404:121,1,74.2500022659302,2|0,0:2|1:0,0:0:0:0:
502,167,102123,6,0,P|430:150|365:213,1,148.50000453186,14|2,0:2|1:2,0:0:0:0:
339,282,102646,1,2,1:2:0:0:
252,237,102821,1,10,0:2:0:0:
158,259,102995,6,0,P|84:245|9:225,1,148.50000453186,2|2,1:2|1:2,0:0:0:0:
102,158,103518,2,0,P|117:121|116:81,1,74.2500022659302,10|2,0:2|1:2,0:0:0:0:
192,26,103867,2,0,B|241:31|241:31|274:57,1,74.2500022659302,0|2,1:0|1:2,0:0:0:0:
318,124,104216,1,10,0:2:0:0:
242,183,104390,1,8,0:2:0:0:
228,209,104478,1,8,0:2:0:0:
226,238,104565,6,0,P|230:277|243:315,1,74.2500022659302,2|0,0:2|1:0,0:0:0:0:
329,348,104914,2,0,P|375:330|447:325,1,111.375003398895,10|0,0:2|0:0,0:0:0:0:
468,344,105263,1,2,1:2:0:0:
510,241,105437,1,0,1:0:0:0:
440,154,105611,1,10,0:2:0:0:
480,49,105786,1,0,1:0:0:0:
391,7,105960,6,0,P|356:12|316:32,1,74.2500022659302,2|2,1:2|1:2,0:0:0:0:
240,106,106309,2,0,P|275:111|315:131,1,74.2500022659302,2|2,0:2|1:2,0:0:0:0:
337,220,106658,2,0,L|326:263,4,37.1250011329651,2|0|2|0|10,0:2|0:0|1:2|1:0|0:3,0:0:0:0:
245,296,107181,1,10,0:2:0:0:
251,324,107268,1,8,0:2:0:0:
260,352,107356,6,0,P|221:335|179:325,1,74.2500022659302,6|0,1:2|1:0,0:0:0:0:
82,298,107704,2,0,P|140:250|148:178,1,148.50000453186,10|2,0:2|1:2,0:0:0:0:
91,102,108228,2,0,B|83:71|83:71|104:27,1,74.2500022659302,2|8,1:2|0:2,0:0:0:0:
195,8,108577,6,0,P|259:43|336:49,1,148.50000453186,2|2,0:2|1:2,0:0:0:0:
442,11,109100,1,10,0:2:0:0:
500,93,109274,2,0,B|468:86|424:108|433:121|388:143|359:130,1,148.50000453186,2|0,0:2|1:0,0:0:0:0:
447,202,109797,2,0,B|457:246|457:246|436:285,1,74.2500022659302,10|0,0:2|1:0,0:0:0:0:
377,371,110146,6,0,P|374:338|312:271,1,111.375003398895,2|0,1:2|0:0,0:0:0:0:
302,295,110495,2,0,B|274:305|274:305|219:289,1,74.2500022659302,10|0,0:2|0:0,0:0:0:0:
162,224,110844,1,2,1:2:0:0:
276,171,111018,1,2,1:2:0:0:
204,106,111193,1,10,0:2:0:0:
232,13,111367,6,0,P|150:63|103:41,1,148.50000453186,2|2,1:2|1:2,0:0:0:0:
30,103,111890,2,0,B|39:154|39:154|10:183,1,74.2500022659302,10|0,0:2|0:0,0:0:0:0:
48,263,112239,1,2,1:2:0:0:
248,322,112588,1,10,0:2:0:0:
332,259,112763,5,10,0:2:0:0:
357,243,112850,1,8,0:2:0:0:
384,254,112937,2,0,B|401:300|401:300|400:339,1,74.2500022659302,2|0,0:2|1:0,0:0:0:0:
482,229,113286,6,0,P|483:166|501:82,1,148.50000453186,14|2,0:2|1:2,0:0:0:0:
421,26,113809,1,2,1:2:0:0:
334,68,113983,1,10,0:2:0:0:
221,29,114158,6,0,P|277:81|296:154,1,148.50000453186,2|2,1:2|1:2,0:0:0:0:
194,211,114681,1,10,0:2:0:0:
272,267,114856,2,0,P|325:192|374:203,1,148.50000453186,2|2,0:2|1:2,0:0:0:0:
417,284,115379,2,0,B|394:309|394:309|390:368,1,74.2500022659302,10|0,0:2|1:0,0:0:0:0:
298,376,115728,5,2,1:2:0:0:
159,201,116077,1,10,0:2:0:0:
362,112,116425,2,0,P|371:74|370:37,1,74.2500022659302,2|0,1:2|1:0,0:0:0:0:
279,3,116774,2,0,B|252:25|252:25|209:32,1,74.2500022659302,10|0,0:2|1:0,0:0:0:0:
117,12,117123,5,2,1:2:0:0:
34,61,117297,1,8,0:3:0:0:
85,143,117472,1,10,1:3:0:0:
39,227,117646,2,0,L|26:272,2,37.1250011329651,8|8|10,0:3|0:3|1:3,0:0:0:0:
111,291,117995,2,0,L|124:336,2,37.1250011329651,8|8|10,0:3|0:3|1:3,0:0:0:0:
191,237,118344,1,8,0:3:0:0:
276,282,118518,6,0,P|310:274|346:254,1,74.2500022659302,6|0,1:2|1:0,0:0:0:0:
338,158,118867,2,0,B|388:140|388:140|467:208,1,148.50000453186,10|2,0:2|1:2,0:0:0:0:
511,284,119390,1,2,1:2:0:0:
420,361,119565,1,10,0:2:0:0:
323,355,119739,6,0,P|392:334|400:262,1,148.50000453186,2|2,1:2|1:2,0:0:0:0:
325,205,120263,1,10,0:2:0:0:
249,264,120437,2,0,P|218:277|173:286,1,74.2500022659302,2|0,1:2|1:0,0:0:0:0:
114,358,120786,1,2,1:2:0:0:
31,308,120960,2,0,B|23:289|23:289|43:238,1,74.2500022659302,10|2,0:2|1:2,0:0:0:0:
115,174,121309,5,2,1:2:0:0:
115,174,121483,1,0,1:0:0:0:
40,112,121658,2,0,B|100:144|100:144|171:94,1,148.50000453186,10|2,0:2|1:2,0:0:0:0:
233,27,122181,1,0,1:0:0:0:
352,68,122356,1,10,0:2:0:0:
297,147,122530,6,0,P|365:110|446:125,1,148.50000453186,2|2,1:2|1:2,0:0:0:0:
482,201,123053,1,10,0:2:0:0:
476,297,123228,2,0,P|408:334|327:319,1,148.50000453186,2|2,1:2|1:2,0:0:0:0:
251,285,123751,1,10,0:2:0:0:
331,232,123925,5,10,0:2:0:0:
348,207,124013,1,8,0:2:0:0:
358,179,124100,2,0,B|355:143|355:143|341:105,1,74.2500022659302,2|0,0:2|1:0,0:0:0:0:
244,175,124449,6,0,P|175:206|90:218,1,148.50000453186,14|2,0:2|1:2,0:0:0:0:
149,311,124972,1,2,1:2:0:0:
245,273,125146,1,10,0:2:0:0:
326,337,125321,6,0,P|400:310|483:329,1,148.50000453186,2|2,1:2|1:2,0:0:0:0:
406,217,125844,1,10,0:2:0:0:
452,132,126018,2,0,P|464:98|462:56,2,74.2500022659302,2|0|2,1:2|1:0|1:2,0:0:0:0:
358,103,126542,2,0,B|318:99|318:99|281:123,1,74.2500022659302,10|0,0:2|1:0,0:0:0:0:
374,194,126890,6,0,P|345:255|272:302,1,148.50000453186,6|10,1:2|0:2,0:0:0:0:
196,249,127414,1,0,1:0:0:0:
119,329,127588,2,0,P|113:293|98:252,1,74.2500022659302,2|0,1:2|1:0,0:0:0:0:
25,155,127937,2,0,B|53:177|53:177|105:171,1,74.2500022659302,10|0,0:2|1:0,0:0:0:0:
67,63,128286,6,0,P|128:28|185:25,1,111.375003398895,2|8,1:2|0:2,0:0:0:0:
201,36,128635,1,10,0:2:0:0:
232,157,128809,1,10,0:2:0:0:
303,92,128983,1,10,0:3:0:0:
303,92,129158,1,10,0:3:0:0:
390,172,129332,2,0,P|404:116|406:56,1,111.375003398895,10|0,0:3|0:0,0:0:0:0:
383,47,129681,5,4,0:2:0:0:
51,77,135263,6,0,P|116:75|164:126,1,121.499996292114,2|10,0:2|0:3,0:0:0:0:
290,214,135960,2,0,L|358:200,2,60.7499981460572,2|2|8,1:2|0:2|0:3,0:0:0:0:
249,289,136483,1,2,0:2:0:0:
249,289,136832,5,2,0:2:0:0:
172,326,137007,1,8,0:3:0:0:
172,326,137181,1,2,0:2:0:0:
110,266,137356,2,0,L|117:224,2,30.3749990730286,2|0|2,1:2|0:0|0:2,0:0:0:0:
36,294,137704,1,10,0:3:0:0:
128,144,138053,6,0,B|173:125|173:125|203:136,1,67.5,14|8,0:2|0:3,0:0:0:0:
244,200,138402,1,2,0:2:0:0:
313,116,138577,1,14,0:2:0:0:
313,116,138751,2,0,P|334:141|345:175,1,67.5,12|2,0:2|0:2,0:0:0:0:
449,203,139100,1,14,0:2:0:0:
390,270,139274,6,0,L|343:262,2,33.75,10|8|0,0:3|0:3|0:0,0:0:0:0:
484,329,139623,1,14,0:2:0:0:
484,329,139797,2,0,P|457:343|409:356,1,67.5,10|2,0:2|1:2,0:0:0:0:
334,340,140146,1,14,0:2:0:0:
248,360,140321,1,10,0:2:0:0:
248,360,140408,1,8,0:2:0:0:
248,360,140495,2,0,L|204:342,3,33.75,10|8|2|8,0:2|0:2|0:2|0:2,0:0:0:0:
202,324,140844,6,0,B|224:237|224:237|184:198,1,135,6|10,1:2|0:2,0:0:0:0:
116,250,141367,1,2,0:2:0:0:
49,191,141542,1,2,1:2:0:0:
49,191,141716,2,0,P|67:161|71:117,1,67.5,2|10,1:2|0:2,0:0:0:0:
10,66,142065,6,0,P|73:38|140:36,1,135,2|2,1:2|1:2,0:0:0:0:
237,79,142588,2,0,P|205:93|172:125,1,67.5,10|2,0:2|1:2,0:0:0:0:
200,199,142937,2,0,P|232:185|265:153,1,67.5,10|2,0:3|1:2,0:0:0:0:
329,213,143286,1,10,0:2:0:0:
392,152,143460,1,10,0:3:0:0:
417,160,143547,1,8,0:3:0:0:
446,169,143635,6,0,B|471:233|471:233|481:309,2,135,2|10|2,1:2|0:2|1:2,0:0:0:0:
456,61,144507,2,0,P|429:80|392:88,1,67.5,2|8,1:2|0:2,0:0:0:0:
321,41,144856,6,0,P|258:22|181:13,1,135,2|0,1:2|1:0,0:0:0:0:
114,59,145379,1,8,0:2:0:0:
218,102,145553,2,0,P|235:132|243:169,1,67.5,2|8,1:2|0:3,0:0:0:0:
326,136,145902,1,2,1:2:0:0:
351,220,146077,2,0,B|337:262|337:262|306:283,1,67.5,8|0,0:2|0:0,0:0:0:0:
240,315,146425,5,2,1:2:0:0:
240,315,146774,2,0,P|206:301|169:293,1,67.5,10|2,0:2|0:2,0:0:0:0:
76,311,147123,1,2,1:2:0:0:
155,273,147297,1,2,1:2:0:0:
192,193,147472,1,10,0:2:0:0:
180,81,147646,6,0,P|124:39|47:43,1,135,2|2,1:2|1:2,0:0:0:0:
3,114,148170,2,0,P|37:118|69:144,1,67.5,10|2,0:2|1:2,0:0:0:0:
28,219,148518,1,10,0:3:0:0:
28,219,148693,1,2,1:2:0:0:
88,282,148867,2,0,L|79:330,2,33.75,10|0|10,0:2|0:0|0:3,0:0:0:0:
166,242,149216,6,0,P|200:224|233:220,1,67.5,2|0,1:2|0:0,0:0:0:0:
335,261,149565,1,10,0:2:0:0:
335,261,149914,1,2,1:2:0:0:
300,341,150088,1,2,1:2:0:0:
410,309,150263,1,8,0:2:0:0:
335,261,150437,6,0,P|314:215|317:154,1,101.25,2|0,1:2|0:0,0:0:0:0:
326,141,150786,1,12,0:2:0:0:
220,97,150960,1,2,1:2:0:0:
326,141,151135,1,14,0:2:0:0:
220,97,151309,1,0,1:0:0:0:
231,183,151483,1,10,0:3:0:0:
176,252,151658,2,0,P|147:271|106:279,1,67.5,10|2,0:3|1:2,0:0:0:0:
214,337,152007,6,0,P|279:346|356:372,1,135,6|10,1:2|0:2,0:0:0:0:
475,270,152617,1,8,0:3:0:0:
475,270,152704,2,0,B|427:268|427:268|402:287,1,67.5,10|2,0:3|1:2,0:0:0:0:
344,222,153053,1,10,0:2:0:0:
443,179,153228,6,0,P|469:116|466:43,1,135,2|2,1:2|1:2,0:0:0:0:
395,0,153751,1,8,0:2:0:0:
318,43,153925,2,0,L|277:37,2,33.75,10|8|8,0:3|0:3|0:3,0:0:0:0:
354,122,154274,1,10,1:3:0:0:
284,176,154449,2,0,B|241:152|241:152|232:127,1,67.5,8|10,0:2|0:3,0:0:0:0:
153,101,154797,6,0,P|86:106|17:130,1,135,2|10,1:2|0:2,0:0:0:0:
22,127,155495,1,10,0:3:0:0:
111,187,155670,1,2,1:2:0:0:
53,269,155844,1,8,0:2:0:0:
95,352,156018,6,0,P|108:290|179:282,1,135,2|2,1:2|1:2,0:0:0:0:
248,321,156542,1,10,0:2:0:0:
319,270,156716,2,0,L|328:226,2,33.75,10|8|10,0:3|0:3|0:3,0:0:0:0:
401,301,157065,1,10,1:3:0:0:
460,236,157239,1,10,0:2:0:0:
450,210,157327,1,8,0:2:0:0:
441,184,157414,1,8,0:3:0:0:
481,91,157588,6,0,P|417:139|354:124,1,135,6|10,1:2|0:2,0:0:0:0:
234,36,158199,1,8,0:3:0:0:
234,36,158286,2,0,L|222:106,1,67.5,10|2,0:3|1:2,0:0:0:0:
259,182,158635,1,10,0:2:0:0:
182,228,158809,6,0,B|149:238|117:216|123:210|83:186|54:199,1,135,2|2,1:2|1:2,0:0:0:0:
9,304,159332,1,10,0:2:0:0:
78,358,159507,1,2,0:2:0:0:
160,328,159681,2,0,L|203:321,2,33.75,8|8|10,0:3|0:3|1:3,0:0:0:0:
232,247,160030,2,0,B|286:257|286:257|299:280,1,67.5,10|0,0:2|0:0,0:0:0:0:
356,341,160379,6,0,P|371:305|409:281,1,81,6|0,1:0|0:0,0:0:0:0:
424,263,160728,6,0,P|429:218|403:177,1,91.1249972190858,6|0,1:0|0:0,0:0:0:0:
380,164,161077,5,6,1:0:0:0:
290,211,161251,1,2,1:1:0:0:
200,129,161425,2,0,B|154:141|154:141|146:140|146:140|90:153,1,101.25,6|0,1:0|0:0,0:0:0:0:
108,125,161774,5,6,1:0:0:0:
90,85,170844,6,0,P|120:107|138:148,1,67.5,0|0,0:0|1:0,0:0:0:0:
99,213,171159,1,8,0:2:0:0:
262,353,171475,6,0,B|283:327|283:327|278:276,1,74.2500022659302,6|0,1:2|1:0,0:0:0:0:
333,207,171823,2,0,B|373:193|408:215|396:227|434:249|474:226,1,148.50000453186,10|2,0:2|1:2,0:0:0:0:
503,134,172347,1,2,1:2:0:0:
436,64,172521,1,10,0:2:0:0:
328,104,172695,6,0,P|293:101|261:81,1,74.2500022659302,2|0,0:2|1:0,0:0:0:0:
179,15,173044,2,0,B|164:58|164:58|173:93,1,74.2500022659302,2|10,1:2|0:2,0:0:0:0:
59,96,173393,2,0,P|143:125|167:180,1,148.50000453186,2|2,0:2|1:2,0:0:0:0:
120,260,173916,1,8,0:2:0:0:
31,221,174091,1,0,1:0:0:0:
60,343,174265,6,0,P|128:365|214:370,1,148.50000453186,6|10,1:2|0:2,0:0:0:0:
204,370,174963,2,0,B|210:316|210:316|229:290,1,74.2500022659302,2|0,1:2|1:0,0:0:0:0:
341,341,175312,1,10,0:2:0:0:
309,249,175486,1,0,1:0:0:0:
367,172,175661,6,0,P|389:128|385:52,1,111.375003398895,2|8,1:2|0:3,0:0:0:0:
370,43,176009,1,10,1:3:0:0:
282,84,176184,2,0,P|244:77|205:63,1,74.2500022659302,8|10,0:3|1:3,0:0:0:0:
105,7,176533,1,8,0:3:0:0:
118,33,176620,1,8,0:3:0:0:
118,62,176707,2,0,B|110:103|110:103|94:144,1,74.2500022659302,10|8,1:3|0:3,0:0:0:0:
186,233,177056,6,0,P|213:192|180:129,1,111.375003398895,6|0,1:2|0:0,0:0:0:0:
209,112,177405,2,0,P|250:139|313:106,1,111.375003398895,10|0,0:2|0:0,0:0:0:0:
320,93,177754,1,2,1:2:0:0:
407,132,177928,1,2,1:2:0:0:
315,218,178102,1,10,0:2:0:0:
378,310,178277,6,0,P|298:263|228:273,1,148.50000453186,2|2,1:2|1:2,0:0:0:0:
182,340,178800,1,10,0:2:0:0:
102,284,178975,2,0,B|74:239|74:239|94:144,1,148.50000453186,2|2,1:2|1:2,0:0:0:0:
7,73,179498,2,0,P|43:62|91:55,1,74.2500022659302,10|0,0:2|1:0,0:0:0:0:
168,18,179847,6,0,P|196:58|272:57,1,111.375003398895,2|0,1:2|0:0,0:0:0:0:
278,48,180195,1,10,0:2:0:0:
278,48,180544,1,2,1:2:0:0:
354,107,180719,1,0,1:0:0:0:
300,187,180893,2,0,B|291:215|291:215|306:263,1,74.2500022659302,10|0,0:2|1:0,0:0:0:0:
360,336,181242,5,2,1:2:0:0:
454,315,181416,1,0,1:0:0:0:
486,223,181591,1,10,0:2:0:0:
405,146,181765,2,0,P|478:106|476:43,1,148.50000453186,2|2,1:2|1:2,0:0:0:0:
392,4,182288,1,10,0:2:0:0:
305,47,182463,5,10,0:2:0:0:
276,40,182550,1,8,0:2:0:0:
247,33,182637,2,0,B|218:34|218:34|177:54,1,74.2500022659302,2|0,0:2|1:0,0:0:0:0:
69,25,182986,6,0,P|134:80|117:137,1,148.50000453186,14|2,0:2|1:2,0:0:0:0:
46,194,183509,1,2,1:2:0:0:
95,277,183684,1,10,0:2:0:0:
36,371,183858,6,0,B|116:318|116:318|178:337,1,148.50000453186,2|2,1:2|1:2,0:0:0:0:
257,366,184381,1,10,0:2:0:0:
299,279,184556,2,0,B|298:222|298:222|271:195,1,74.2500022659302,2|0,1:2|1:0,0:0:0:0:
210,148,184905,1,2,1:2:0:0:
218,52,185079,2,0,P|251:37|296:36,1,74.2500022659302,10|0,0:2|1:0,0:0:0:0:
361,100,185428,6,0,L|445:116,1,74.2500022659302,2|0,1:2|1:0,0:0:0:0:
499,185,185777,2,0,B|437:166|437:166|354:227,1,148.50000453186,10|2,0:2|1:2,0:0:0:0:
325,301,186300,1,0,1:0:0:0:
239,256,186475,2,0,P|224:225|226:185,1,74.2500022659302,10|0,0:2|0:0,0:0:0:0:
255,101,186823,5,8,0:2:0:0:
175,47,186993,1,10,0:2:0:0:
64,52,187163,1,10,0:2:0:0:
64,52,187334,1,10,0:2:0:0:
9,147,187504,1,10,0:2:0:0:
9,147,187676,1,10,0:2:0:0:
53,248,187848,2,0,P|86:260|130:256,1,74.2500022659302,10|0,0:2|1:0,0:0:0:0:
222,328,188193,6,0,L|210:219,1,101.25,6|0,1:2|0:0,0:0:0:0:
234,207,188541,2,0,L|246:98,1,101.25,2|0,1:2|0:0,0:0:0:0:
226,81,188890,2,0,P|209:50|209:14,2,67.5,10|2|2,0:2|0:2|1:2,0:0:0:0:
301,24,189413,5,6,1:2:0:0:
301,24,189762,2,0,P|333:27|372:39,1,67.5,2|2,1:2|0:2,0:0:0:0:
445,90,190111,1,2,1:2:0:0:
373,188,190286,2,0,P|431:147|496:173,1,135,8|2,0:2|1:2,0:0:0:0:
508,256,190809,1,0,0:0:0:0:
441,357,190983,6,0,P|436:311|391:280,1,101.25,6|0,1:2|0:0,0:0:0:0:
403,247,191332,2,0,P|364:221|311:235,1,101.25,2|0,1:2|0:0,0:0:0:0:
289,257,191681,2,0,B|244:262|244:262|217:240,2,67.5,10|0|2,0:2|0:0|0:2,0:0:0:0:
281,351,192204,5,2,1:2:0:0:
281,351,192553,1,0,1:0:0:0:
188,331,192727,2,0,P|156:334|117:349,1,67.5,0|0,0:0|1:0,0:0:0:0:
18,296,193076,2,0,B|70:275|70:275|76:238,1,67.5,10|8,0:2|0:3,0:0:0:0:
34,176,193425,2,0,P|35:141|46:103,1,67.5,8|0,0:3|1:0,0:0:0:0:
108,14,193774,6,0,P|134:37|170:50,1,67.5,6|0,1:2|0:0,0:0:0:0:
251,12,194123,1,2,1:2:0:0:
251,12,194472,2,0,P|286:19|320:32,2,67.5,10|2|2,0:2|1:2|1:2,0:0:0:0:
294,111,194995,6,0,B|317:66|317:66|413:47,1,135,6|2,1:2|1:2,0:0:0:0:
478,103,195518,1,2,1:2:0:0:
427,183,195693,1,2,1:2:0:0:
474,264,195867,2,0,L|484:341,2,67.5,8|2|0,0:2|1:2|1:0,0:0:0:0:
387,303,196390,1,8,0:2:0:0:
387,303,196477,1,8,0:2:0:0:
387,303,196565,6,0,P|337:259|322:189,1,135,2|2,1:2|1:2,0:0:0:0:
199,50,197262,2,0,B|146:89|146:89|134:164,1,135,10|10,0:2|0:2,0:0:0:0:
59,215,197786,1,0,1:0:0:0:
101,298,197960,6,0,P|136:285|175:286,1,67.5,2|8,1:2|0:3,0:0:0:0:
244,232,198312,2,0,P|277:247|304:275,1,67.5,2|10,1:2|0:3,0:0:0:0:
377,217,198665,1,0,1:0:0:0:
452,273,198843,2,0,L|493:262,2,33.75,8|8|2,0:3|0:3|1:2,0:0:0:0:
420,362,199200,1,8,0:3:0:0:
320,287,199379,6,0,B|282:273|282:273|236:277,1,74.2500022659302,6|0,1:2|1:0,0:0:0:0:
153,294,199721,1,10,0:2:0:0:
153,294,200064,2,0,P|143:333|115:367,2,74.2500022659302,2|2|10,1:2|1:2|0:2,0:0:0:0:
37,324,200584,6,0,B|10:275|10:275|29:177,1,148.50000453186,2|2,1:2|1:2,0:0:0:0:
51,90,201105,1,8,0:2:0:0:
125,27,201280,2,0,P|99:94|159:129,1,148.50000453186,2|2,1:2|1:2,0:0:0:0:
237,81,201803,2,0,P|274:83|313:99,1,74.2500022659302,10|0,0:2|1:0,0:0:0:0:
292,206,202152,6,0,B|336:199|336:199|367:168,1,74.2500022659302,2|0,1:2|1:0,0:0:0:0:
445,257,202501,1,10,0:2:0:0:
445,257,202850,2,0,P|430:296|428:339,1,74.2500022659302,2|0,1:2|1:0,0:0:0:0:
338,365,203198,2,0,P|327:325|308:298,1,74.2500022659302,10|2,0:2|1:2,0:0:0:0:
230,241,203547,5,2,1:2:0:0:
230,241,203722,1,2,1:2:0:0:
181,323,203896,2,0,B|156:315|156:315|105:336,1,74.2500022659302,10|2,0:2|1:2,0:0:0:0:
42,264,204245,1,2,1:2:0:0:
42,264,204419,1,2,1:2:0:0:
93,181,204594,1,10,0:2:0:0:
43,98,204768,5,10,0:2:0:0:
34,69,204855,1,8,0:2:0:0:
38,39,204943,2,0,P|75:21|111:13,1,74.2500022659302,0|0,0:0|1:0,0:0:0:0:
234,52,205291,6,0,B|224:106|224:106|125:93,1,148.50000453186,14|0,0:2|1:0,0:0:0:0:
175,189,205815,1,2,1:2:0:0:
85,255,205989,2,0,B|134:278|134:278|144:303,1,74.2500022659302,10|0,0:2|1:0,0:0:0:0:
215,359,206338,6,0,P|292:320|374:327,1,148.50000453186,2|10,1:2|0:2,0:0:0:0:
438,365,206861,1,0,1:0:0:0:
498,289,207036,2,0,B|507:260|507:260|498:215,1,74.2500022659302,0|2,1:0|1:2,0:0:0:0:
453,131,207384,1,10,0:2:0:0:
366,175,207559,1,2,1:2:0:0:
309,104,207733,6,0,P|270:86|226:78,1,81,6|0,1:2|0:0,0:0:0:0:
223,52,208085,6,0,P|189:81|135:77,1,91.1249972190858,6|0,1:2|0:0,0:0:0:0:
120,66,208438,6,0,P|67:68|16:86,1,101.25,6|0,1:2|0:0,0:0:0:0:
13,116,208791,1,6,1:2:0:0:
162,296,209144,5,6,1:2:0:0:
256,192,209321,12,0,213027,0:0:0:0:
415,167,214841,6,0,L|375:177,1,33.75,2|2,0:0|0:0,0:0:0:0:
