osu file format v14

[General]
AudioFilename: audio.mp3
AudioLeadIn: 0
PreviewTime: 25255
Countdown: 0
SampleSet: Soft
StackLeniency: 0.7
Mode: 0
LetterboxInBreaks: 0
WidescreenStoryboard: 0

[Editor]
DistanceSpacing: 1.1
BeatDivisor: 4
GridSize: 32
TimelineZoom: 1.3

[Metadata]
Title:Parade
TitleUnicode:Parade
Artist:Carpool Tunnel
ArtistUnicode:Carpool Tunnel
Creator:domSaur
Version:Aqua's Normal
Source:
Tags:osu! featured artist indie rock english mappers' guild -aqua hinsvar
BeatmapID:2239507
BeatmapSetID:1058934

[Difficulty]
HPDrainRate:4
CircleSize:3.5
OverallDifficulty:4
ApproachRate:5
SliderMultiplier:1.2
SliderTickRate:1

[Events]
//Background and Video events
0,0,"temp.jpg",0,0
//Break Periods
2,165960,169644
//Storyboard Layer 0 (Background)
//Storyboard Layer 1 (Fail)
//Storyboard Layer 2 (Pass)
//Storyboard Layer 3 (Foreground)
//Storyboard Layer 4 (Overlay)
//Storyboard Sound Samples

[TimingPoints]
1402,340.909090909091,4,2,1,55,1,0
2765,352.941176470588,4,2,1,55,1,0
4176,348.837209302326,4,2,1,55,1,0
5571,355.029585798817,4,2,1,55,1,0
8411,352.941176470588,4,2,1,55,1,0
9822,346.820809248555,4,2,1,55,1,0
11873,348.837209302326,4,2,1,55,1,0
12570,352.941176470588,4,2,1,55,1,0
13981,347.826086956522,4,2,1,55,1,0
16763,350.877192982456,4,2,1,55,1,0
18166,346.820809248555,4,2,1,55,1,0
19553,340.909090909091,4,2,1,55,1,0
20916,352.941176470588,4,2,1,55,1,0
23739,337.078651685393,4,2,1,55,1,0
26435,348.837209302326,4,2,1,70,1,1
26435,-100,4,2,1,70,0,1
37248,-100,4,2,1,70,0,0
37597,-100,4,2,1,70,0,1
48760,-100,4,2,1,60,0,0
69690,346.820809248555,4,2,1,60,1,0
71077,348.837209302326,4,2,1,60,1,0
85030,-100,4,2,1,70,0,1
95844,-100,4,2,1,70,0,0
96193,-100,4,2,1,70,0,1
107007,-100,4,2,1,70,0,0
107356,-100,4,2,1,70,0,1
118170,-100,4,2,1,70,0,0
118518,-100,4,2,1,70,0,1
129681,-100,4,2,1,55,0,0
140844,-100,4,2,1,60,0,0
170844,315.789473684211,4,2,1,55,1,0
171475,348.837209302326,4,2,1,70,1,1
176707,-100,4,2,1,70,0,0
177056,-100,4,2,1,70,0,1
186823,340.909090909091,4,2,1,70,1,1
187504,344.827586206897,4,2,1,70,1,1
188193,348.837209302326,4,2,1,60,1,0
197960,352.941176470588,4,2,1,60,1,0
198665,357.142857142857,4,2,1,60,1,0
199379,342.857142857143,4,2,1,70,1,1
200064,346.820809248555,4,2,1,70,1,1
200757,348.837209302326,4,2,1,70,1,1
207733,352.941176470588,4,2,1,70,1,0
213027,-100,4,2,1,5,0,0
214580,348.837209302326,4,2,1,55,1,0

[Colours]
Combo1 : 150,205,177
Combo2 : 231,199,150
Combo3 : 232,65,23
Combo4 : 62,158,255

[HitObjects]
58,64,26436,6,0,P|70:168|70:188,1,120,6|10,1:2|0:2,0:0:0:0:
55,278,27133,2,0,P|18:262|-9:251,2,60,2|2|8,1:2|1:2|0:2,0:0:0:0:
85,315,27656,2,0,B|156:302|135:362|215:353,1,120,2|2,1:2|1:2,0:0:0:0:
237,334,28180,1,10,0:2:0:0:
279,311,28354,2,0,P|324:306|398:308,1,120,2|0,0:2|1:0,0:0:0:0:
433,341,28877,1,10,0:2:0:0:
501,274,29226,6,0,P|508:230|510:149,1,120,2|10,1:2|0:2,0:0:0:0:
423,113,29924,1,2,1:2:0:0:
423,113,30098,2,0,P|409:55|409:52,1,60,0|8,1:0|0:2,0:0:0:0:
376,19,30447,2,0,P|330:15|242:44,1,120,2|0,1:2|1:0,0:0:0:0:
236,76,30970,1,8,0:2:0:0:
142,52,31319,2,0,L|85:36,1,60,2|0,1:2|1:0,0:0:0:0:
50,69,31668,1,8,0:2:0:0:
94,153,32017,6,0,B|108:184|108:184|86:274,1,120,2|14,0:2|0:2,0:0:0:0:
61,360,32715,2,0,P|17:347|-25:342,2,60,2|2|10,1:2|1:2|0:2,0:0:0:0:
106,343,33238,2,0,P|170:324|227:321,1,120,2|2,1:2|1:2,0:0:0:0:
257,354,33761,1,10,0:2:0:0:
297,380,33936,2,0,L|325:249,1,120,2|2,0:2|1:2,0:0:0:0:
283,233,34459,1,8,0:2:0:0:
198,188,34808,6,0,B|175:114|234:145|184:51,1,120,2|10,1:2|0:2,0:0:0:0:
270,13,35505,2,0,P|313:38|338:48,1,60,2|0,1:2|1:0,0:0:0:0:
367,26,35854,1,10,0:2:0:0:
435,93,36203,2,0,P|474:81|519:81,2,60,2|8|10,1:2|0:3|1:3,0:0:0:0:
389,177,36901,2,0,P|350:165|305:165,2,60,10|8|10,1:3|0:3|1:3,0:0:0:0:
457,244,37598,6,0,B|483:314|483:314|469:368,1,120,6|10,1:2|0:2,0:0:0:0:
376,344,38295,2,0,P|381:301|391:274,2,60,2|2|10,1:2|0:2|0:2,0:0:0:0:
334,367,38818,2,0,B|286:370|286:370|271:386|271:386|200:383,1,120,2|2,1:2|1:2,0:0:0:0:
191,345,39342,1,10,0:2:0:0:
146,328,39516,2,0,L|27:325,1,120,2|2,1:2|1:2,0:0:0:0:
10,279,40039,1,10,0:2:0:0:
80,214,40388,6,0,P|87:170|89:89,1,120,2|10,1:2|0:2,0:0:0:0:
165,36,41086,1,2,1:2:0:0:
165,36,41260,2,0,P|223:22|226:22,1,60,0|10,1:0|0:2,0:0:0:0:
266,43,41609,2,0,B|270:89|270:89|241:177,1,120,0|0,1:0|1:0,0:0:0:0:
228,203,42132,1,10,0:2:0:0:
281,282,42481,2,0,L|265:339,1,60,0|2,1:0|1:2,0:0:0:0:
293,378,42830,1,10,0:2:0:0:
388,371,43179,6,0,P|446:361|481:301,1,120,2|14,0:2|0:2,0:0:0:0:
426,232,43877,2,0,P|382:219|340:214,2,60,2|2|10,1:2|1:2|0:2,0:0:0:0:
463,202,44400,2,0,P|458:142|440:85,1,120,2|2,1:2|1:2,0:0:0:0:
400,58,44923,1,10,0:2:0:0:
354,40,45098,2,0,L|223:68,1,120,2|2,1:2|1:2,0:0:0:0:
223,111,45621,1,10,0:2:0:0:
129,87,45970,6,0,B|42:63|42:63|39:101,1,120,2|10,1:2|0:2,0:0:0:0:
85,177,46667,2,0,P|76:225|66:247,1,60,2|0,1:2|1:0,0:0:0:0:
33,264,47016,1,10,0:2:0:0:
79,348,47366,2,0,P|112:336|138:336,1,60,2|10,1:2|0:2,0:0:0:0:
179,358,47715,2,0,P|212:370|238:370,1,60,10|10,0:2|0:2,0:0:0:0:
272,338,48063,1,10,0:2:0:0:
231,250,48412,1,10,0:2:0:0:
292,176,48761,6,0,L|265:54,1,120,2|10,1:2|0:2,0:0:0:0:
344,3,49459,2,0,P|400:6|424:15,1,60,2|2,1:2|1:2,0:0:0:0:
438,40,49808,1,8,0:2:0:0:
438,40,49982,2,0,B|478:110|419:97|459:168,1,120,2|2,1:2|1:2,0:0:0:0:
487,188,50505,1,10,0:2:0:0:
416,252,50854,2,0,L|429:310,1,60,2|2,0:2|1:2,0:0:0:0:
472,331,51203,1,10,0:2:0:0:
390,381,51552,6,0,P|337:356|266:348,1,120,2|10,1:2|0:2,0:0:0:0:
199,289,52249,2,0,P|216:256|235:234,2,60,2|2|8,1:2|1:2|0:2,0:0:0:0:
159,317,52773,2,0,B|99:338|99:338|49:308,1,120,2|2,1:2|1:2,0:0:0:0:
32,264,53296,1,10,0:2:0:0:
20,217,53470,2,0,L|50:92,1,120,2|2,1:2|1:2,0:0:0:0:
91,78,53994,1,10,0:2:0:0:
157,146,54342,6,0,B|221:133|211:190|272:182,1,120,2|10,1:2|0:2,0:0:0:0:
314,265,55040,2,0,P|306:319|295:336,1,60,2|2,1:2|1:2,0:0:0:0:
267,354,55389,1,8,0:2:0:0:
267,354,55563,2,0,B|317:344|317:344|400:382,1,120,2|2,1:2|1:2,0:0:0:0:
419,344,56087,1,10,0:2:0:0:
493,283,56436,2,0,L|478:219,1,60,2|2,1:2|1:2,0:0:0:0:
441,195,56784,1,10,0:2:0:0:
477,106,57133,6,0,P|474:70|394:51,1,120,2|10,1:2|0:2,0:0:0:0:
329,106,57831,2,0,P|342:148|342:170,2,60,2|2|8,1:2|1:2|0:2,0:0:0:0:
289,78,58354,2,0,B|241:67|241:67|227:78|227:78|161:69,1,120,2|10,1:2|0:2,0:0:0:0:
139,103,58877,1,10,0:2:0:0:
54,148,59226,2,0,P|46:183|47:206,1,60,10|10,0:2|0:2,0:0:0:0:
84,236,59575,2,0,P|91:264|90:294,1,60,10|8,0:2|0:2,0:0:0:0:
63,334,59924,6,0,B|116:317|116:317|184:350,1,120,6|10,1:2|0:2,0:0:0:0:
252,290,60621,2,0,L|243:222,2,60,0|0|8,0:0|0:0|0:0,0:0:0:0:
287,323,61145,2,0,P|326:335|398:301,1,120,2|2,1:2|1:2,0:0:0:0:
478,255,61842,1,0,0:0:0:0:
454,221,62017,2,0,L|453:152,1,60,0|0,0:0|1:0,0:0:0:0:
487,127,62366,1,10,0:2:0:0:
432,47,62715,6,0,P|383:60|316:92,1,120,2|10,1:2|0:2,0:0:0:0:
246,150,63412,2,0,L|256:228,1,60,2|0,0:2|1:0,0:0:0:0:
287,243,63761,1,8,0:2:0:0:
284,291,63936,2,0,P|248:328|165:312,1,120,2|2,1:2|1:2,0:0:0:0:
91,296,64633,2,0,L|74:233,1,60,2|2,0:2|0:2,0:0:0:0:
59,192,64982,2,0,P|31:192|1:207,2,60,2|10|2,1:2|0:2|1:2,0:0:0:0:
78,147,65505,6,0,P|111:132|193:139,1,120,2|10,1:2|0:2,0:0:0:0:
263,203,66203,1,2,0:2:0:0:
263,203,66377,1,0,1:0:0:0:
339,144,66726,2,0,B|351:115|351:115|314:22,1,120,2|2,1:2|1:2,0:0:0:0:
223,13,67424,1,2,0:2:0:0:
198,54,67598,2,0,L|132:47,1,60,0|2,0:0|1:2,0:0:0:0:
91,37,67947,1,8,0:2:0:0:
18,100,68296,6,0,P|13:157|24:184,1,60,2|2,1:2|1:2,0:0:0:0:
46,194,68645,1,8,0:2:0:0:
133,234,68994,2,0,L|106:359,1,120,2|8,0:2|0:2,0:0:0:0:
143,383,69517,1,2,1:2:0:0:
225,333,69864,1,2,1:2:0:0:
260,365,70037,2,0,L|320:351,1,60,8|2,0:2|1:2,0:0:0:0:
343,310,70384,2,0,L|403:324,1,60,0|8,1:0|0:2,0:0:0:0:
435,357,70731,1,8,0:2:0:0:
504,291,71078,6,0,B|521:238|488:170,1,120,6|8,1:2|0:2,0:0:0:0:
416,113,71774,2,0,L|424:45,2,60,0|0|8,0:0|0:0|0:0,0:0:0:0:
376,140,72297,2,0,B|304:127|325:180|245:156,1,120,2|2,1:2|1:2,0:0:0:0:
171,124,72996,1,2,0:2:0:0:
126,141,73171,2,0,L|125:210,1,60,0|2,0:0|1:2,0:0:0:0:
91,235,73518,1,10,0:2:0:0:
2,198,73867,6,0,P|5:131|5:75,1,120,2|8,1:2|0:2,0:0:0:0:
74,15,74566,2,0,L|152:5,1,60,2|0,0:2|1:0,0:0:0:0:
173,33,74915,1,8,0:2:0:0:
209,64,75088,2,0,P|245:27|328:43,1,120,2|2,1:2|1:2,0:0:0:0:
391,79,75787,2,0,L|374:142,1,60,2|0,0:2|0:0,0:0:0:0:
396,180,76136,2,0,P|425:167|459:163,2,60,2|10|10,1:2|1:2|0:2,0:0:0:0:
380,225,76659,6,0,P|347:240|265:233,1,120,2|8,1:2|0:2,0:0:0:0:
207,156,77357,2,0,P|216:96|225:79,2,60,2|0|8,0:2|1:0|0:2,0:0:0:0:
114,180,78054,2,0,P|55:169|0:188,1,120,2|8,0:2|0:2,0:0:0:0:
6,284,78752,2,0,L|25:347,1,60,2|0,0:2|1:0,0:0:0:0:
66,361,79101,1,8,0:2:0:0:
66,361,79275,6,0,P|137:349|194:349,1,120,2|2,1:2|1:2,0:0:0:0:
225,374,79798,1,8,0:2:0:0:
286,299,80147,2,0,L|266:239,2,60,2|2|10,0:2|1:2|0:2,0:0:0:0:
328,322,80671,1,2,1:2:0:0:
414,362,81018,1,2,1:2:0:0:
449,330,81193,2,0,L|435:270,1,60,10|0,0:2|0:0,0:0:0:0:
403,236,81542,2,0,L|417:176,1,60,2|2,1:2|1:2,0:0:0:0:
459,157,81890,1,10,0:2:0:0:
396,84,82239,6,0,B|339:73|351:134|267:121,1,120,6|6,1:1|1:1,0:0:0:0:
212,61,82937,2,0,L|154:43,1,60,6|2,1:1|1:1,0:0:0:0:
122,79,83286,1,6,1:1:0:0:
39,29,83635,1,6,1:0:0:0:
39,29,85030,6,0,P|21:72|15:148,1,120,6|10,1:2|0:2,0:0:0:0:
82,212,85728,2,0,L|165:201,1,60,2|2,1:2|1:2,0:0:0:0:
174,169,86077,1,8,0:2:0:0:
174,169,86251,2,0,P|214:162|295:176,1,120,2|2,0:2|1:2,0:0:0:0:
307,220,86774,2,0,P|347:237|368:237,1,60,10|2,0:2|0:2,0:0:0:0:
445,188,87297,1,0,1:0:0:0:
479,222,87472,2,0,L|463:288,1,60,10|0,0:2|1:0,0:0:0:0:
482,324,87821,6,0,B|443:304|443:304|343:330,1,120,2|10,0:2|0:2,0:0:0:0:
282,281,88518,2,0,L|288:202,2,60,2|2|10,1:2|1:2|0:2,0:0:0:0:
265,326,89042,2,0,P|179:354|140:335,1,120,2|2,1:2|1:2,0:0:0:0:
123,308,89565,1,10,0:2:0:0:
89,273,89739,2,0,B|72:242|72:242|85:148,1,120,0|0,0:0|1:0,0:0:0:0:
124,132,90263,1,10,0:2:0:0:
204,183,90611,6,0,B|259:178|259:226|315:225,1,120,2|14,0:2|0:2,0:0:0:0:
398,180,91309,2,0,L|383:113,1,60,2|2,1:2|1:2,0:0:0:0:
417,86,91658,1,10,0:2:0:0:
417,86,91832,2,0,P|349:103|293:76,1,120,2|2,1:2|1:2,0:0:0:0:
280,43,92356,2,0,P|250:46|223:59,1,60,10|2,0:2|0:2,0:0:0:0:
173,141,92879,1,2,1:2:0:0:
133,168,93053,2,0,L|68:153,1,60,10|0,0:2|1:0,0:0:0:0:
42,190,93402,6,0,B|5:241|5:241|31:298,1,120,2|10,1:2|0:2,0:0:0:0:
103,353,94100,2,0,P|151:337|224:333,1,120,2|10,1:2|0:2,0:0:0:0:
306,373,94797,1,2,1:2:0:0:
330,331,94972,2,0,L|397:345,1,60,8|10,0:3|1:3,0:0:0:0:
476,383,95495,1,10,1:3:0:0:
507,346,95670,2,0,L|493:282,1,60,8|10,0:3|1:3,0:0:0:0:
410,241,96193,6,0,P|392:198|436:137,1,120,6|10,1:2|0:2,0:0:0:0:
499,75,96891,2,0,L|488:-8,1,60,2|2,1:2|1:2,0:0:0:0:
448,10,97240,1,10,0:2:0:0:
448,10,97414,2,0,P|388:43|327:3,1,120,2|2,1:2|1:2,0:0:0:0:
306,55,97937,2,0,P|266:38|245:38,1,60,10|2,0:2|1:2,0:0:0:0:
166,85,98460,1,2,1:2:0:0:
145,128,98635,2,0,L|159:186,1,60,10|0,0:2|1:0,0:0:0:0:
206,193,98983,6,0,B|233:262|181:244|216:314,1,120,2|10,1:2|0:2,0:0:0:0:
118,324,99681,2,0,L|124:403,2,60,2|0|10,1:2|1:0|0:2,0:0:0:0:
73,305,100205,2,0,P|32:253|63:200,1,120,0|0,1:0|1:0,0:0:0:0:
84,174,100728,1,10,0:2:0:0:
126,151,100902,2,0,B|146:95|142:30,1,120,2|2,1:2|1:2,0:0:0:0:
185,12,101425,1,10,0:2:0:0:
256,76,101774,6,0,B|311:71|311:119|367:118,1,120,2|14,0:2|0:2,0:0:0:0:
438,179,102472,2,0,L|423:246,1,60,2|2,1:2|1:2,0:0:0:0:
443,281,102821,1,10,0:2:0:0:
443,281,102995,2,0,P|375:264|319:291,1,120,2|2,1:2|1:2,0:0:0:0:
307,324,103519,2,0,P|277:321|250:308,1,60,10|2,0:2|1:2,0:0:0:0:
217,217,104042,1,2,1:2:0:0:
170,230,104216,2,0,L|155:295,1,60,10|8,0:2|0:2,0:0:0:0:
120,320,104565,6,0,P|91:298|3:267,1,120,2|10,0:2|0:2,0:0:0:0:
12,172,105263,1,2,1:2:0:0:
46,139,105437,2,0,L|110:159,1,60,0|10,1:0|0:2,0:0:0:0:
137,123,105786,2,0,P|198:116|260:101,1,120,0|2,1:0|1:2,0:0:0:0:
287,137,106309,1,2,0:2:0:0:
357,202,106658,2,0,L|334:269,2,60,10|2|10,0:2|1:2|0:3,0:0:0:0:
445,163,107356,6,0,P|462:131|427:50,1,120,6|10,1:2|0:2,0:0:0:0:
350,12,108053,1,2,1:2:0:0:
314,44,108228,2,0,L|243:26,1,60,2|8,1:2|0:2,0:0:0:0:
221,63,108577,1,2,0:2:0:0:
131,96,108925,2,0,L|55:109,2,60,2|10|2,1:2|0:2|0:2,0:0:0:0:
197,165,109623,1,0,1:0:0:0:
197,165,109797,2,0,P|221:203|226:225,1,60,10|0,0:2|1:0,0:0:0:0:
197,256,110146,6,0,P|174:303|177:384,1,120,2|10,1:2|0:2,0:0:0:0:
266,345,110844,2,0,P|268:321|273:281,2,60,2|2|10,1:2|1:2|0:2,0:0:0:0:
307,369,111367,2,0,P|372:339|430:333,1,120,2|2,1:2|1:2,0:0:0:0:
458,360,111890,1,10,0:2:0:0:
510,279,112239,2,0,L|497:212,1,60,2|0,1:2|1:0,0:0:0:0:
457,194,112588,1,10,0:2:0:0:
366,226,112937,6,0,B|327:243|327:243|253:208,1,120,2|14,0:2|0:2,0:0:0:0:
175,260,113634,1,2,1:2:0:0:
146,221,113809,2,0,L|75:203,1,60,2|10,1:2|0:2,0:0:0:0:
73,160,114158,1,2,1:2:0:0:
58,65,114507,2,0,L|-18:78,2,60,2|10|2,1:2|0:2|0:2,0:0:0:0:
149,26,115204,1,2,1:2:0:0:
149,26,115378,2,0,P|173:64|178:86,1,60,10|0,0:2|1:0,0:0:0:0:
194,123,115728,6,0,P|253:123|307:98,1,120,2|10,1:2|0:2,0:0:0:0:
397,63,116425,2,0,P|399:39|404:-1,2,60,2|0|10,1:2|1:0|0:2,0:0:0:0:
458,137,117123,2,0,B|490:190|490:190|494:260,1,120,2|10,1:2|1:3,0:0:0:0:
460,283,117646,1,8,0:3:0:0:
373,324,117995,2,0,L|392:382,2,60,8|10|8,0:3|1:3|0:3,0:0:0:0:
332,297,118518,6,0,B|273:286|285:343|220:334,1,120,6|10,1:2|0:2,0:0:0:0:
136,375,119215,1,2,1:2:0:0:
102,340,119390,2,0,L|120:269,1,60,2|10,1:2|0:2,0:0:0:0:
123,234,119739,1,2,1:2:0:0:
191,167,120088,2,0,L|178:91,2,60,2|10|2,1:2|0:2|1:2,0:0:0:0:
273,216,120786,1,2,1:2:0:0:
273,216,120960,2,0,P|301:206|325:188,1,60,10|2,0:2|1:2,0:0:0:0:
372,194,121309,6,0,P|395:147|392:66,1,120,2|10,1:2|0:2,0:0:0:0:
302,59,122007,2,0,B|304:35|304:35|309:-5,2,60,2|0|10,1:2|1:0|0:2,0:0:0:0:
262,86,122530,2,0,B|214:77|214:77|197:56|197:56|139:50,1,120,2|2,1:2|1:2,0:0:0:0:
116,82,123052,1,10,0:2:0:0:
37,137,123402,2,0,L|24:204,1,60,0|2,1:0|1:2,0:0:0:0:
53,235,123750,1,10,0:2:0:0:
108,313,124100,6,0,B|146:299|146:299|221:331,1,120,2|14,0:2|0:2,0:0:0:0:
293,269,124797,1,2,1:2:0:0:
335,292,124972,2,0,L|406:274,1,60,2|10,1:2|0:2,0:0:0:0:
439,262,125321,1,2,1:2:0:0:
405,172,125669,2,0,L|329:159,2,60,2|10|2,1:2|0:2|1:2,0:0:0:0:
482,115,126367,1,2,1:2:0:0:
482,115,126541,2,0,P|472:86|454:62,1,60,10|0,0:2|1:0,0:0:0:0:
414,36,126890,6,0,B|346:15|354:57|284:50,1,120,6|10,1:2|0:2,0:0:0:0:
233,122,127588,2,0,P|168:92|110:86,1,120,2|10,1:2|0:2,0:0:0:0:
54,16,128286,1,2,1:2:0:0:
2,97,128635,2,0,L|15:164,1,60,10|10,0:2|0:2,0:0:0:0:
55,177,128983,2,0,L|42:244,1,60,10|10,0:3|0:3,0:0:0:0:
4,263,129332,1,10,0:3:0:0:
62,338,129681,6,0,B|127:327|119:365|192:360,1,120,12|2,1:2|1:2,0:0:0:0:
237,285,130379,1,2,1:2:0:0:
237,285,130553,1,2,0:0:0:0:
191,200,130902,2,0,L|213:75,1,120,2|2,0:0|0:0,0:0:0:0:
281,15,131600,1,2,0:0:0:0:
320,41,131774,2,0,P|357:59|390:60,1,60,2|2,1:2|0:0,0:0:0:0:
419,41,132123,1,2,1:2:0:0:
468,123,132472,6,0,B|496:186|441:185|470:242,1,120,14|2,1:2|1:2,0:0:0:0:
490,280,132995,1,12,0:0:0:0:
368,357,133518,2,0,B|327:316|327:316|251:336,1,120,12|2,0:0|1:2,0:0:0:0:
234,367,134042,1,14,0:0:0:0:
108,296,134565,2,0,P|71:338|-15:266,1,180,14|8,0:0|0:0,0:0:0:0:
11,242,135263,5,2,0:2:0:0:
66,163,135611,1,10,0:3:0:0:
8,86,135960,2,0,B|42:55|42:55|127:78,1,120,2|8,1:2|0:3,0:0:0:0:
202,37,136658,2,0,B|236:68|236:68|321:45,1,120,0|8,1:0|0:3,0:0:0:0:
365,125,137356,1,2,1:2:0:0:
449,79,137704,1,10,0:3:0:0:
499,160,138053,6,0,P|505:208|509:285,1,120,14|2,0:2|0:2,0:0:0:0:
486,322,138577,1,14,0:2:0:0:
486,322,138751,1,12,0:2:0:0:
396,288,139100,2,0,P|382:236|378:214,2,60,14|10|0,0:2|0:3|0:0,0:3:0:0:
364,324,139623,1,14,0:2:0:0:
364,324,139797,2,0,L|289:344,1,60,10|2,0:2|1:2,0:0:0:0:
268,308,140146,1,14,0:2:0:0:
293,215,140495,2,0,L|273:130,1,60,10|2,0:2|0:2,0:0:0:0:
309,118,140844,6,0,P|287:71|211:67,1,120,6|10,1:2|0:2,0:0:0:0:
144,112,141542,2,0,L|71:98,1,60,2|2,1:2|1:2,0:0:0:0:
49,69,141890,1,10,0:2:0:0:
4,88,142065,2,0,P|6:133|9:215,1,120,2|2,1:2|1:2,0:0:0:0:
48,234,142588,1,10,0:2:0:0:
61,329,142937,2,0,P|16:345|-6:360,2,60,10|2|10,0:3|1:2|0:2,0:0:0:0:
152,359,143635,6,0,B|216:341|209:392|276:383,1,120,2|10,1:2|0:2,0:0:0:0:
328,312,144332,2,0,L|385:333,1,60,2|2,1:2|1:2,0:0:0:0:
408,374,144681,1,8,0:2:0:0:
408,374,144856,1,2,1:2:0:0:
493,330,145204,2,0,P|495:291|486:266,1,60,0|8,1:0|0:2,0:0:0:0:
460,232,145553,1,2,1:2:0:0:
396,159,145902,2,0,P|394:120|403:95,2,60,2|8|0,1:2|0:2|0:0,0:0:0:0:
353,180,146425,6,0,B|301:173|301:173|285:187|285:187|217:188,1,120,2|10,1:2|0:2,0:0:0:0:
186,268,147123,2,0,L|110:251,1,60,2|2,1:2|1:2,0:0:0:0:
88,282,147472,1,10,0:2:0:0:
49,253,147646,2,0,B|30:221|30:221|49:122,1,120,2|2,1:2|1:2,0:0:0:0:
79,105,148170,1,10,0:2:0:0:
160,55,148518,2,0,L|135:-7,2,60,10|2|10,0:3|1:2|0:2,0:0:0:0:
246,96,149216,6,0,B|283:69|283:69|362:96,1,120,2|10,1:2|0:2,0:0:0:0:
433,146,149914,2,0,L|416:216,1,60,2|2,1:2|1:2,0:0:0:0:
447,242,150263,1,8,0:2:0:0:
447,242,150437,1,2,1:2:0:0:
392,321,150786,2,0,P|364:308|318:300,1,60,12|2,0:2|1:2,0:0:0:0:
290,318,151135,1,14,0:2:0:0:
210,264,151483,2,0,P|219:224|229:195,2,60,10|10|2,0:3|0:3|1:2,0:0:0:0:
193,309,152007,6,0,P|165:338|91:310,1,120,6|10,1:2|0:2,0:0:0:0:
24,253,152704,2,0,L|28:191,1,60,10|2,0:3|1:2,0:0:0:0:
63,160,153053,1,10,0:2:0:0:
107,141,153228,2,0,P|101:106|79:6,1,120,2|2,1:2|1:2,0:0:0:0:
175,50,153925,2,0,B|246:39|222:96|291:79,1,120,10|10,0:3|1:3,0:0:0:0:
367,30,154623,1,10,0:3:0:0:
403,60,154797,6,0,L|400:187,1,120,2|10,1:2|0:2,0:0:0:0:
479,234,155495,2,0,P|485:219|502:168,2,60,10|2|8,0:3|1:2|0:2,0:0:0:0:
486,282,156018,2,0,P|445:277|361:312,1,120,2|2,1:2|1:2,0:0:0:0:
348,345,156542,1,10,0:2:0:0:
257,313,156890,2,0,L|244:251,1,60,10|10,0:3|1:3,0:0:0:0:
264,210,157239,1,10,0:2:0:0:
306,124,157588,6,0,P|293:67|233:41,1,120,6|10,1:2|0:2,0:0:0:0:
146,27,158286,2,0,L|78:56,1,60,10|2,0:3|1:2,0:0:0:0:
74,95,158635,1,10,0:2:0:0:
50,136,158809,2,0,P|74:187|85:269,1,120,2|2,1:2|1:2,0:0:0:0:
62,343,159507,2,0,B|106:328|106:328|131:340|131:340|182:326,1,120,2|10,0:2|1:3,0:0:0:0:
198,285,160030,1,10,0:2:0:0:
272,345,160379,6,0,B|342:328|323:380|396:371,1,120,6|6,1:0|1:0,0:0:0:0:
461,314,161077,2,0,L|441:253,1,60,6|2,1:0|1:0,0:0:0:0:
399,236,161425,1,6,1:0:0:0:
436,147,161774,1,6,1:0:0:0:
436,147,170844,6,0,L|357:171,1,60,0|0,0:0|1:0,0:0:0:0:
352,204,171159,2,0,L|273:180,1,60,8|0,0:2|1:0,0:0:0:0:
260,159,171475,6,0,B|197:155|211:202|145:197,1,120,6|10,1:2|0:2,0:0:0:0:
82,265,172172,2,0,P|101:322|109:347,2,60,2|2|10,1:2|1:2|0:2,0:0:0:0:
39,241,172695,2,0,P|12:184|54:117,1,120,2|2,0:2|1:2,0:0:0:0:
62,97,173218,1,10,0:2:0:0:
104,74,173393,2,0,B|147:56|147:56|223:71,1,120,2|2,0:2|1:2,0:0:0:0:
255,101,173916,1,8,0:2:0:0:
335,48,174265,6,0,B|380:71|380:71|460:57,1,120,6|10,1:2|0:2,0:0:0:0:
493,144,174963,1,2,1:2:0:0:
493,144,175137,2,0,P|507:202|507:205,1,60,0|10,1:0|0:2,0:0:0:0:
479,241,175486,1,0,1:0:0:0:
444,275,175661,6,0,P|388:251|321:277,1,120,2|10,1:2|1:3,0:0:0:0:
298,299,176184,1,8,0:3:0:0:
226,234,176533,1,8,0:3:0:0:
195,270,176707,2,0,L|119:253,1,60,10|8,1:3|0:3,0:0:0:0:
101,290,177056,6,0,B|115:259|115:259|93:169,1,120,6|10,1:2|0:2,0:0:0:0:
27,106,177753,2,0,P|40:62|45:20,2,60,2|2|10,1:2|1:2|0:2,0:0:0:0:
73,92,178277,2,0,P|137:73|194:70,1,120,2|2,1:2|1:2,0:0:0:0:
226,100,178800,1,10,0:2:0:0:
255,137,178974,2,0,B|282:193|282:193|283:268,1,120,2|2,1:2|1:2,0:0:0:0:
262,294,179498,1,10,0:2:0:0:
341,347,179846,6,0,B|412:333|391:388|471:384,1,120,2|10,1:2|0:2,0:0:0:0:
508,306,180544,2,0,P|509:280|490:242,1,60,2|0,1:2|1:0,0:0:0:0:
464,213,180893,1,10,0:2:0:0:
487,119,181242,2,0,B|457:50|457:50|397:24,1,120,2|10,1:2|0:2,0:0:0:0:
350,103,181940,2,0,L|267:78,1,60,0|2,1:0|1:2,0:0:0:0:
267,44,182288,2,0,L|184:69,1,60,10|10,0:2|0:2,0:0:0:0:
192,106,182637,6,0,B|124:83|68:118,1,120,2|14,0:2|0:2,0:0:0:0:
21,193,183335,2,0,P|64:198|91:208,2,60,2|2|10,1:2|1:2|0:2,0:0:0:0:
1,236,183858,2,0,B|-11:285|-11:285|17:370,1,120,2|2,1:2|1:2,0:0:0:0:
104,370,184556,2,0,L|230:336,1,120,2|2,1:2|1:2,0:0:0:0:
242,296,185079,1,10,0:2:0:0:
325,342,185428,6,0,P|332:298|334:217,1,120,2|10,1:2|0:2,0:0:0:0:
259,162,186126,2,0,P|248:190|245:219,2,60,2|0|10,1:2|1:0|0:2,0:0:0:0:
344,114,186823,2,0,P|334:77|323:53,1,60,8|10,0:2|0:2,0:0:0:0:
296,18,187163,1,10,0:2:0:0:
390,6,187504,2,0,L|447:22,1,60,10|10,0:2|0:2,0:0:0:0:
476,59,187849,1,10,0:2:0:0:
502,150,188194,6,0,P|492:208|432:243,1,120,6|2,1:2|1:2,0:0:0:0:
359,197,188890,2,0,P|346:153|341:111,2,60,10|2|2,0:2|0:2|1:2,0:0:0:0:
325,231,189413,2,0,P|320:291|302:348,1,120,6|2,1:2|1:2,0:0:0:0:
258,369,189936,1,2,0:2:0:0:
215,347,190111,2,0,L|84:375,1,120,2|0,1:2|1:0,0:0:0:0:
65,336,190634,1,2,1:2:0:0:
28,247,190983,6,0,B|4:175|4:175|32:112,1,120,6|2,1:2|1:2,0:0:0:0:
108,93,191681,2,0,P|156:102|178:112,1,60,10|0,0:2|0:0,0:0:0:0:
190,147,192030,1,2,0:2:0:0:
227,177,192204,2,0,P|277:197|342:196,1,120,2|0,1:2|1:0,0:0:0:0:
409,265,192902,2,0,P|458:243|503:197,1,120,0|8,1:0|0:3,0:0:0:0:
507,148,193425,1,8,0:3:0:0:
460,63,193774,6,0,B|399:45|414:97|339:95,1,120,6|2,1:2|1:2,0:0:0:0:
261,54,194472,2,0,P|271:22|281:-9,2,60,10|2|2,0:2|1:2|1:2,0:0:0:0:
220,80,194995,2,0,P|150:108|94:118,1,120,6|2,1:2|1:2,0:0:0:0:
62,90,195518,1,2,1:2:0:0:
62,90,195693,1,2,1:2:0:0:
8,169,196041,1,2,1:2:0:0:
39,205,196216,2,0,L|32:271,1,60,0|8,1:0|0:2,0:0:0:0:
58,305,196565,6,0,B|103:298|103:298|126:318|126:318|185:309,1,120,2|2,1:2|1:2,0:0:0:0:
249,364,197262,2,0,L|331:344,1,60,10|0,0:2|1:0,0:0:0:0:
331,308,197611,1,10,0:2:0:0:
266,237,197960,2,0,P|253:186|242:114,1,120,2|2,1:2|1:2,0:0:0:0:
271,80,198489,1,10,0:3:0:0:
352,128,198843,1,8,0:3:0:0:
385,93,199022,2,0,L|368:30,1,60,2|8,1:2|0:3,0:0:0:0:
410,6,199379,6,0,P|448:9|479:79,1,120,6|10,1:2|0:2,0:0:0:0:
450,166,200064,2,0,L|480:238,1,60,2|2,1:2|1:2,0:0:0:0:
462,268,200410,1,10,0:2:0:0:
423,297,200584,2,0,P|392:285|305:275,1,120,2|2,1:2|1:2,0:0:0:0:
272,309,201105,1,8,0:2:0:0:
187,262,201454,2,0,L|167:189,2,60,0|2|10,1:0|1:2|0:2,0:0:0:0:
99,302,202152,6,0,P|46:261|53:195,1,120,2|10,1:2|0:2,0:0:0:0:
94,130,202850,2,0,L|67:74,1,60,2|0,1:2|1:0,0:0:0:0:
88,32,203198,1,10,0:2:0:0:
173,74,203547,2,0,B|242:55|225:104|292:90,1,120,2|10,1:2|0:2,0:0:0:0:
378,58,204245,2,0,L|363:-9,2,60,2|2|10,1:2|1:2|0:2,0:0:0:0:
471,80,204943,6,0,P|467:122|456:203,1,120,2|14,0:0|0:2,0:0:0:0:
368,236,205640,2,0,P|316:217|284:211,1,60,0|2,1:0|1:2,0:0:0:0:
282,177,205989,1,10,0:2:0:0:
198,224,206338,2,0,P|209:258|218:290,2,60,2|2|10,1:2|1:2|0:2,0:0:0:0:
154,204,206861,1,0,1:0:0:0:
77,262,207210,2,0,P|67:290|59:319,1,60,2|10,1:2|0:2,0:0:0:0:
96,349,207559,1,2,1:2:0:0:
141,336,207733,6,0,B|218:323|189:368|260:358,1,120,6|6,1:0|1:0,0:0:0:0:
337,310,208438,2,0,P|349:272|294:211,1,120,6|6,1:0|1:0,0:0:0:0:
215,174,209144,1,6,1:2:0:0:
256,192,209233,12,0,213027,0:0:0:0:
215,174,214928,5,2,0:0:0:0:
