osu file format v14

[General]
AudioFilename: audio.mp3
AudioLeadIn: 0
PreviewTime: 83896
Countdown: 0
SampleSet: Soft
StackLeniency: 0.7
Mode: 2
LetterboxInBreaks: 0
WidescreenStoryboard: 0

[Editor]
Bookmarks: 12570,118518
DistanceSpacing: 1.3
BeatDivisor: 1
GridSize: 8
TimelineZoom: 2.3

[Metadata]
Title:Parade
TitleUnicode:Parade
Artist:Carpool Tunnel
ArtistUnicode:Carpool Tunnel
Creator:Dapuluous
Version:Happiness is Real
Source:osu!
Tags:english indie rock osu! featured artist mappers guild jemzuu ajamez crowley du5t idu5t dust idust
BeatmapID:2166954
BeatmapSetID:1036382

[Difficulty]
HPDrainRate:6
CircleSize:4.5
OverallDifficulty:9.4
ApproachRate:9.4
SliderMultiplier:2
SliderTickRate:2

[Events]
//Background and Video events
0,0,"115.jpg",0,0
//Break Periods
2,165960,170059
//Storyboard Layer 0 (Background)
//Storyboard Layer 1 (Fail)
//Storyboard Layer 2 (Pass)
//Storyboard Layer 3 (Foreground)
//Storyboard Layer 4 (Overlay)
//Storyboard Sound Samples

[TimingPoints]
1402,340.909090909091,4,2,11,30,1,0
2765,352.941176470588,4,2,11,30,1,0
4176,348.837209302326,4,2,11,30,1,0
5571,355.029585798817,4,2,11,30,1,0
8411,352.941176470588,4,2,11,30,1,0
9822,346.820809248555,4,2,11,30,1,0
11873,348.837209302326,4,2,11,30,1,0
12570,352.941176470588,4,2,11,30,1,0
13981,347.826086956522,4,2,11,40,1,0
16763,350.877192982456,4,2,11,40,1,0
18166,346.820809248555,4,2,11,40,1,0
19553,340.909090909091,4,2,11,40,1,0
20916,352.941176470588,4,2,11,40,1,0
23739,337.078651685393,4,2,11,40,1,0
26435,348.837209302326,4,2,11,55,1,1
26435,-83.3333333333333,4,2,11,55,0,1
48760,-90.9090909090909,4,2,11,60,0,0
59923,-100,4,2,11,60,0,0
69690,346.820809248555,4,2,11,60,1,0
71077,348.837209302326,4,2,11,60,1,0
82239,-66.6666666666667,4,2,11,60,0,0
82566,-66.6666666666667,4,2,11,5,0,0
82588,-66.6666666666667,4,2,11,60,0,0
82937,-83.3333333333333,4,2,11,60,0,0
85030,-83.3333333333333,4,2,11,70,0,1
118518,-90.9090909090909,4,2,11,70,0,0
126890,-66.6666666666667,4,2,11,70,0,0
127239,-90.9090909090909,4,2,11,70,0,0
129681,-111.111111111111,4,2,11,50,0,0
134042,-90.9090909090908,4,2,11,50,0,0
134914,-111.111111111111,4,2,11,50,0,0
138053,-100,4,2,11,55,0,0
140844,-83.3333333333333,4,2,11,55,0,0
160379,-66.6666666666667,4,2,11,55,0,0
160706,-66.6666666666667,4,2,11,5,0,0
160728,-66.6666666666667,4,2,11,55,0,0
161077,-83.3333333333333,4,2,11,55,0,0
170844,315.789473684211,4,2,11,60,1,0
170844,-100,4,2,11,60,0,0
171475,348.837209302326,4,2,11,70,1,1
171475,-83.3333333333333,4,2,11,70,0,1
186823,340.909090909091,4,2,11,70,1,1
187504,344.827586206897,4,2,11,70,1,1
188193,348.837209302326,4,2,11,70,1,0
188193,-100,4,2,11,70,0,0
197960,352.941176470588,4,2,11,70,1,0
198665,357.142857142857,4,2,11,70,1,0
199379,342.857142857143,4,2,11,70,1,0
200064,346.820809248555,4,2,11,70,1,0
200757,348.837209302326,4,2,11,70,1,0
207733,352.941176470588,4,2,11,70,1,0
209850,-100,4,2,11,60,0,0
210556,-100,4,2,11,50,0,0
211262,-100,4,2,11,40,0,0
211968,-100,4,2,11,30,0,0
212674,-100,4,2,11,20,0,0
214580,348.837209302326,4,2,11,40,1,0
217370,-100,4,2,11,30,0,0
218766,-100,4,2,11,20,0,0
220161,-100,4,2,11,10,0,0

[Colours]
Combo1 : 185,130,140
Combo2 : 75,95,200
Combo3 : 130,140,210
Combo4 : 160,90,105

[HitObjects]
416,192,1402,5,2,0:0:0:0:
104,192,2765,5,2,0:0:0:0:
344,80,4176,6,0,P|432:104|288:224,1,400,2|0,0:0|0:0,0:0:0:0:
40,192,5571,5,2,0:0:0:0:
440,192,6991,5,2,0:0:0:0:
192,72,8411,6,0,P|392:72|440:240,1,400,2|0,0:0|0:0,0:0:0:0:
136,144,9822,6,0,P|136:256|368:256,1,400,2|0,0:0|0:0,0:0:0:0:
64,192,11209,5,2,0:0:0:0:
448,192,12570,5,2,0:0:0:0:
80,48,13981,6,0,P|176:48|80:216,1,400,2|0,0:0|0:0,0:0:0:0:
384,312,15372,6,0,P|174:312|104:160,1,400,2|0,0:0|0:0,0:0:0:0:
448,192,16763,5,2,0:0:0:0:
40,40,18166,6,0,P|40:168|264:168,1,400,2|0,0:0|0:0,0:0:0:0:
464,64,19553,6,0,P|272:64|144:216,2,400,2|0|2,0:0|0:0|0:0,0:0:0:0:
40,48,23739,6,0,P|248:128|24:264,1,600,2|0,0:0|0:0,0:0:0:0:
416,192,25340,1,0,0:0:0:0:
192,48,25761,2,0,P|48:48|48:176,1,300,0|0,0:0|0:0,0:0:0:0:
488,264,26435,6,0,L|368:264,1,119.999996337891,4|0,3:2|3:0,0:0:0:0:
128,336,26783,2,0,L|256:336,1,119.999996337891,8|0,0:0|0:0,0:0:0:0:
56,72,27132,2,0,L|176:72,2,119.999996337891,0|0|8,3:0|3:0|0:0,0:0:0:0:
344,48,27655,6,0,P|432:96|344:144,1,239.999992675781,0|0,3:0|3:0,0:0:0:0:
32,232,28179,2,0,L|32:352,1,119.999996337891,8|0,0:0|0:0,0:0:0:0:
224,272,28528,2,0,L|104:272,1,119.999996337891,0|0,3:0|3:0,0:0:0:0:
416,336,28876,2,0,B|488:336|488:336|488:280,1,119.999996337891,8|0,0:0|3:0,0:0:0:0:
176,40,29225,6,0,P|88:88|176:136,1,239.999992675781,0|8,3:0|0:0,0:0:0:0:
304,40,29748,1,0,0:0:0:0:
424,40,29922,1,0,3:0:0:0:
424,40,30096,1,0,3:0:0:0:
304,40,30271,1,8,0:0:0:0:
16,320,30446,6,0,L|136:320,2,119.999996337891,0|0|0,3:0|0:0|3:0,0:0:0:0:
328,112,30969,2,0,L|464:112,1,119.999996337891,8|0,0:0|0:0,0:0:0:0:
256,152,31318,2,0,L|136:152,1,119.999996337891,0|0,3:0|3:0,0:0:0:0:
448,336,31667,2,0,L|328:336,1,119.999996337891,8|8,0:0|0:0,0:0:0:0:
400,296,31929,1,8,0:0:0:0:
160,48,32016,6,0,L|32:48,1,119.999996337891,0|0,3:2|3:0,0:0:0:0:
408,40,32365,2,0,L|408:160,1,119.999996337891,8|0,0:0|0:0,0:0:0:0:
248,160,32714,1,0,3:0:0:0:
408,160,32888,1,0,3:0:0:0:
216,160,33062,1,8,0:0:0:0:
496,312,33237,6,0,L|256:312,1,239.999992675781,0|0,3:0|3:0,0:0:0:0:
448,352,33760,2,0,L|448:232,1,119.999996337891,8|0,0:0|0:0,0:0:0:0:
288,192,34109,1,0,3:0:0:0:
128,192,34283,1,0,3:0:0:0:
440,32,34458,2,0,L|440:160,1,119.999996337891,8|0,0:0|3:0,0:0:0:0:
136,56,34807,6,0,L|16:56,1,119.999996337891,0|0,3:0|0:0,0:0:0:0:
336,64,35155,1,8,0:0:0:0:
216,64,35329,1,0,0:0:0:0:
336,64,35504,1,0,3:0:0:0:
216,64,35678,1,0,3:0:0:0:
496,248,35853,2,0,L|360:248,1,119.999996337891,8|0,0:0|3:0,0:0:0:0:
304,248,36115,1,0,0:0:0:0:
128,192,36202,5,0,3:0:0:0:
296,192,36376,1,8,0:0:0:0:
464,192,36551,1,0,3:0:0:0:
296,192,36725,1,0,0:0:0:0:
216,192,36812,1,0,0:0:0:0:
136,192,36899,1,0,3:0:0:0:
296,192,37074,1,0,3:0:0:0:
16,280,37248,2,0,L|88:280,1,59.9999981689454,0|0,3:0|0:0,0:0:0:0:
320,312,37423,2,0,L|384:312,1,59.9999981689454,8|0,0:0|0:0,0:0:0:0:
56,64,37597,6,0,L|184:64,1,119.999996337891,4|0,3:2|3:0,0:0:0:0:
488,40,37946,2,0,L|488:160,1,119.999996337891,8|0,0:0|0:0,0:0:0:0:
328,248,38295,1,0,3:0:0:0:
168,248,38469,1,0,3:0:0:0:
328,248,38644,1,8,0:0:0:0:
40,32,38818,6,0,P|40:120|168:120,1,239.999992675781,0|0,3:0|3:0,0:0:0:0:
16,192,39341,1,8,0:0:0:0:
208,232,39516,2,0,P|208:320|80:320,1,239.999992675781,0|0,0:0|3:0,0:0:0:0:
376,232,40039,2,0,L|496:232,1,119.999996337891,8|0,0:0|3:0,0:0:0:0:
176,88,40388,6,0,L|32:88,2,119.999996337891,0|0|8,3:0|0:0|0:0,0:0:0:0:
296,192,40911,1,0,0:0:0:0:
176,192,41085,1,0,3:0:0:0:
176,192,41259,1,0,3:0:0:0:
296,192,41434,1,8,0:0:0:0:
16,312,41609,6,0,L|264:312,1,239.999992675781,0|0,3:0|3:0,0:0:0:0:
96,192,42132,1,8,0:0:0:0:
288,32,42307,2,0,P|384:88|304:136,1,239.999992675781,0|0,0:0|3:0,0:0:0:0:
24,272,42830,2,0,L|24:336,1,59.9999981689454,8|0,0:0|0:0,0:0:0:0:
216,280,43004,2,0,L|312:280,1,59.9999981689454,8|8,0:0|0:0,0:0:0:0:
72,32,43179,6,0,L|72:160,1,119.999996337891,0|0,3:2|3:0,0:0:0:0:
440,56,43528,2,0,L|312:56,1,119.999996337891,12|0,0:0|0:0,0:0:0:0:
128,136,43876,2,0,L|248:136,2,119.999996337891,0|0|8,3:0|3:0|0:0,0:0:0:0:
416,256,44400,6,0,P|480:256|408:328,1,239.999992675781,0|0,3:0|3:0,0:0:0:0:
256,192,44923,1,8,0:0:0:0:
64,80,45097,2,0,L|192:80,2,119.999996337891,0|0|0,0:0|3:0|3:0,0:0:0:0:
352,88,45621,2,0,L|480:88,1,119.999996337891,8|0,0:0|3:0,0:0:0:0:
160,128,45969,6,0,L|40:128,1,119.999996337891,0|0,3:0|3:0,0:0:0:0:
352,272,46318,2,0,L|224:272,1,119.999996337891,8|0,0:0|3:0,0:0:0:0:
352,136,46667,2,0,L|488:136,1,119.999996337891,0|0,3:0|3:0,0:0:0:0:
280,64,47016,2,0,L|160:64,1,119.999996337891,8|0,0:0|3:0,0:0:0:0:
448,240,47365,6,0,L|448:360,1,119.999996337891,0|8,3:0|0:0,0:0:0:0:
384,296,47626,1,8,0:0:0:0:
136,192,47714,1,8,0:0:0:0:
304,192,47888,1,8,0:0:0:0:
472,192,48062,1,8,0:0:0:0:
304,192,48237,1,8,0:3:0:0:
24,272,48411,2,0,L|88:272,1,59.9999981689454,8|0,0:0|3:0,0:0:0:0:
296,288,48586,2,0,L|368:288,1,59.9999981689454,8|8,0:0|0:0,0:0:0:0:
136,96,48760,6,0,L|16:96,1,110.000003356934,0|0,3:0|3:0,0:0:0:0:
296,80,49109,2,0,P|392:80|344:144,1,220.000006713867,8|0,0:0|3:0,0:0:0:0:
176,192,49632,1,0,3:0:0:0:
344,192,49807,1,8,0:0:0:0:
80,304,49981,6,0,L|304:304,1,220.000006713867,0|0,3:0|3:0,0:0:0:0:
120,192,50504,1,8,0:0:0:0:
256,192,50679,1,0,3:0:0:0:
120,192,50853,1,0,0:0:0:0:
256,192,51028,1,0,3:0:0:0:
72,240,51202,2,0,L|72:352,1,110.000003356934,8|0,0:0|3:0,0:0:0:0:
424,192,51551,5,0,3:0:0:0:
128,192,51900,1,8,0:0:0:0:
392,288,52248,2,0,L|280:288,2,110.000003356934,0|0|8,3:0|3:0|0:0,0:0:0:0:
128,48,52772,6,0,P|48:88|136:128,1,220.000006713867,0|0,3:0|3:0,0:0:0:0:
16,192,53295,1,8,0:0:0:0:
200,240,53469,2,0,P|200:320|80:320,1,220.000006713867,0|0,3:0|3:0,0:0:0:0:
272,192,53993,1,8,0:0:0:0:
392,48,54167,2,0,L|456:48,1,55.0000016784668,4|4,3:0|3:0,0:0:0:0:
280,112,54341,6,0,L|168:112,1,110.000003356934,0|0,3:0|3:0,0:0:0:0:
456,232,54690,2,0,P|456:328|352:328,1,220.000006713867,8|0,0:0|3:0,0:0:0:0:
456,232,55214,1,0,3:0:0:0:
344,232,55388,1,8,0:0:0:0:
72,40,55562,6,0,P|72:136|176:136,1,220.000006713867,0|0,3:0|3:0,0:0:0:0:
360,40,56086,2,0,L|248:40,1,110.000003356934,8|0,0:0|3:0,0:0:0:0:
360,112,56435,2,0,L|472:112,1,110.000003356934,0|0,0:0|3:0,0:0:0:0:
272,240,56783,2,0,L|392:240,1,110.000003356934,8|0,0:0|3:0,0:0:0:0:
112,32,57132,6,0,P|32:80|120:128,1,220.000006713867,0|8,3:0|0:0,0:0:0:0:
360,88,57830,2,0,L|248:88,1,110.000003356934,0|0,3:0|3:0,0:0:0:0:
440,192,58179,1,8,0:0:0:0:
152,240,58353,6,0,P|72:288|152:328,1,220.000006713867,0|0,3:0|3:0,0:0:0:0:
208,328,58789,1,0,3:0:0:0:
432,72,58876,1,8,0:0:0:0:
272,72,59051,1,8,0:0:0:0:
112,72,59225,1,8,0:0:0:0:
272,160,59400,2,0,L|352:160,1,55.0000016784668,0|0,3:3|3:3,0:0:0:0:
104,264,59574,2,0,L|104:328,1,55.0000016784668,8|8,0:0|0:0,0:0:0:0:
384,256,59748,2,0,L|448:256,1,55.0000016784668,0|0,3:3|3:3,0:0:0:0:
184,64,59923,6,0,L|304:64,1,100,4|0,3:2|3:0,0:0:0:0:
48,288,60272,2,0,L|152:288,1,100,8|0,0:0|0:0,0:0:0:0:
48,144,60621,2,0,L|48:40,1,100,0|0,0:0|3:0,0:0:0:0:
224,192,60969,1,8,0:0:0:0:
48,192,61144,5,0,3:0:0:0:
368,192,61493,1,0,3:0:0:0:
184,248,61667,2,0,L|184:360,1,100,8|0,0:0|0:0,0:0:0:0:
304,72,62016,1,0,0:0:0:0:
176,72,62190,1,2,0:3:0:0:
176,72,62365,1,8,0:0:0:0:
304,72,62539,1,0,3:0:0:0:
56,40,62714,6,0,L|56:152,1,100,0|0,3:0|3:0,0:0:0:0:
328,192,63062,1,8,0:0:0:0:
48,288,63411,2,0,L|160:288,2,100,0|0|8,0:0|3:0|0:0,0:0:0:0:
296,48,63935,6,0,P|368:96|296:136,1,200,0|0,3:0|3:0,0:0:0:0:
112,272,64458,2,0,L|216:272,1,100,8|0,0:0|0:0,0:0:0:0:
400,248,64807,1,0,0:0:0:0:
386,296,64894,1,0,0:0:0:0:
372,344,64981,1,2,0:3:0:0:
200,248,65155,1,8,0:0:0:0:
386,296,65330,1,0,3:0:0:0:
144,64,65504,6,0,L|32:64,1,100,0|0,3:2|3:0,0:0:0:0:
232,64,65853,1,8,0:0:0:0:
360,64,66028,1,0,0:0:0:0:
128,272,66202,2,0,P|40:272|88:336,1,200,0|8,0:0|0:0,0:0:0:0:
264,192,66725,5,0,3:0:0:0:
56,192,67074,1,0,3:0:0:0:
240,40,67248,2,0,L|240:152,1,100,8|0,0:0|0:0,0:0:0:0:
120,192,67597,1,0,0:0:0:0:
304,272,67772,2,0,L|184:272,2,100,2|8|0,0:3|0:0|3:0,0:0:0:0:
56,56,68295,6,0,L|168:56,1,100,0|0,3:0|3:0,0:0:0:0:
344,192,68644,1,8,0:0:0:0:
80,192,68993,1,0,0:0:0:0:
184,192,69167,1,0,3:0:0:0:
184,192,69341,1,8,0:0:0:0:
80,192,69516,1,0,3:0:0:0:
328,240,69690,6,0,L|432:240,1,100,0|0,3:0|3:0,0:0:0:0:
248,64,70036,2,0,L|144:64,1,100,8|0,0:0|3:0,0:0:0:0:
392,64,70383,1,0,3:0:0:0:
448,64,70469,1,0,0:0:0:0:
448,64,70556,1,8,0:0:0:0:
392,64,70643,1,8,0:0:0:0:
176,152,70730,2,0,L|104:152,1,50,8|8,0:0|0:0,0:0:0:0:
360,256,70903,2,0,L|416:256,1,50,8|8,0:0|0:0,0:0:0:0:
168,280,71077,6,0,L|56:280,2,100,4|0|8,3:2|3:0|0:0,0:0:0:0:
16,56,71774,1,0,0:0:0:0:
200,56,71949,2,0,L|200:160,1,100,0|8,3:0|0:0,0:0:0:0:
376,160,72297,5,0,3:0:0:0:
112,192,72646,1,0,3:0:0:0:
296,312,72821,2,0,L|416:312,1,100,8|0,0:0|0:0,0:0:0:0:
216,56,73170,1,0,0:0:0:0:
264,64,73257,1,0,0:0:0:0:
312,72,73344,1,2,0:3:0:0:
128,240,73518,2,0,L|128:352,1,100,8|0,0:0|3:0,0:0:0:0:
384,232,73867,6,0,L|280:232,2,100,0|0|8,3:0|3:0|0:0,0:0:0:0:
120,104,74565,2,0,L|232:104,2,100,0|0|8,0:0|3:0|0:0,0:0:0:0:
16,104,75088,1,0,3:0:0:0:
304,192,75437,1,0,3:0:0:0:
120,240,75611,2,0,L|120:344,1,100,8|0,0:0|0:0,0:0:0:0:
168,336,75873,1,0,0:0:0:0:
216,336,75960,1,0,0:0:0:0:
216,336,76047,1,0,0:0:0:0:
168,336,76135,1,2,0:3:0:0:
120,200,76222,1,0,0:0:0:0:
168,200,76309,1,8,0:0:0:0:
320,112,76396,2,0,L|376:112,2,50,8|8|8,0:0|0:0|0:0,0:0:0:0:
256,112,76658,5,0,3:2:0:0:
136,112,76832,1,0,3:0:0:0:
400,192,77007,1,8,0:0:0:0:
80,320,77356,2,0,L|184:320,2,100,0|0|8,0:0|3:0|0:0,0:0:0:0:
344,48,78053,6,0,L|456:48,1,100,0|0,0:0|3:0,0:0:0:0:
264,192,78402,1,8,0:0:0:0:
464,240,78751,2,0,L|464:352,1,100,0|2,0:0|0:3,0:0:0:0:
288,192,79100,1,8,0:0:0:0:
464,192,79274,1,0,3:0:0:0:
216,320,79449,6,0,L|344:320,2,100,0|0|8,3:0|3:0|0:0,0:0:0:0:
416,48,80146,2,0,L|416:152,1,100,2|0,0:3|3:3,0:0:0:0:
232,256,80495,6,0,L|128:256,3,100,8|0|0|0,0:0|3:3|0:0|3:3,0:0:0:0:
384,192,81193,1,8,0:0:0:0:
168,192,81542,1,0,3:3:0:0:
48,192,81716,1,0,3:3:0:0:
168,192,81890,1,8,0:0:0:0:
48,192,82065,1,0,3:3:0:0:
352,32,82239,6,0,L|64:32,1,281.250010728837,4|0,3:2|0:0,0:0:0:0:
72,72,82588,2,0,L|304:72,1,225.000008583069,4|0,3:2|0:0,0:0:0:0:
112,192,82937,1,4,3:2:0:0:
392,192,83111,1,0,3:2:0:0:
72,192,83286,2,0,L|72:320,1,119.999996337891,4|0,3:2|0:0,0:0:0:0:
440,192,83635,5,4,3:2:0:0:
128,192,83983,1,0,0:0:0:0:
320,264,84332,2,0,P|448:264|344:376,1,359.999989013672,0|0,0:0|0:0,0:0:0:0:
16,96,85030,6,0,L|136:96,1,119.999996337891,4|0,3:2|3:0,0:0:0:0:
424,232,85379,2,0,L|296:232,1,119.999996337891,8|0,0:0|0:0,0:0:0:0:
496,32,85728,2,0,L|360:32,2,119.999996337891,0|0|8,3:0|3:0|0:0,0:0:0:0:
184,248,86251,6,0,P|120:248|200:312,1,239.999992675781,0|0,3:0|3:0,0:0:0:0:
32,192,86774,1,8,0:0:0:0:
344,48,86949,2,0,P|408:48|328:104,1,239.999992675781,0|0,0:0|3:0,0:0:0:0:
48,40,87472,2,0,L|48:160,1,119.999996337891,8|0,0:0|3:0,0:0:0:0:
360,240,87821,6,0,L|488:240,1,119.999996337891,0|0,3:0|0:0,0:0:0:0:
144,136,88170,2,0,L|264:136,2,119.999996337891,8|0|0,0:0|0:0|3:0,0:0:0:0:
24,136,88693,1,0,3:0:0:0:
168,136,88867,1,8,0:0:0:0:
464,232,89042,6,0,P|464:320|336:320,1,239.999992675781,0|0,3:0|3:0,0:0:0:0:
488,192,89565,1,8,0:0:0:0:
168,48,89739,2,0,P|88:48|152:136,1,239.999992675781,0|0,0:0|3:0,0:0:0:0:
436,64,90263,2,0,L|496:64,1,59.9999981689454,8|0,0:0|0:0,0:0:0:0:
224,248,90437,2,0,L|224:320,1,59.9999981689454,8|8,0:0|0:0,0:0:0:0:
464,344,90611,6,0,L|464:224,1,119.999996337891,0|0,3:2|3:0,0:0:0:0:
96,160,90960,2,0,P|96:56|208:56,1,239.999992675781,12|0,0:0|3:0,0:0:0:0:
64,192,91483,1,0,3:0:0:0:
208,192,91658,1,8,0:0:0:0:
496,32,91832,6,0,L|240:32,1,239.999992675781,0|0,3:0|3:0,0:0:0:0:
400,104,92356,1,8,0:0:0:0:
88,232,92530,2,0,B|88:352|88:352|216:352,1,239.999992675781,0|0,0:0|3:0,0:0:0:0:
496,192,93053,1,8,0:0:0:0:
336,192,93228,1,0,3:0:0:0:
24,40,93402,6,0,L|24:168,1,119.999996337891,0|0,3:0|0:0,0:0:0:0:
360,48,93751,2,0,L|232:48,1,119.999996337891,8|0,0:0|0:0,0:0:0:0:
400,192,94100,1,0,3:0:0:0:
272,192,94274,1,0,3:0:0:0:
272,192,94449,1,8,0:0:0:0:
400,192,94623,1,0,3:0:0:0:
88,248,94797,5,0,3:0:0:0:
36,272,94884,1,0,0:0:0:0:
31,329,94971,1,8,0:0:0:0:
79,362,95058,1,0,0:0:0:0:
130,337,95145,1,0,3:0:0:0:
304,32,95233,5,0,3:0:0:0:
352,32,95320,1,8,0:0:0:0:
304,88,95407,1,0,0:0:0:0:
248,88,95494,1,0,3:0:0:0:
248,88,95581,1,0,0:0:0:0:
304,88,95669,1,8,0:0:0:0:
352,88,95756,1,8,0:0:0:0:
104,240,95844,2,0,L|24:240,1,59.9999981689454,0|0,3:0|0:0,0:0:0:0:
352,312,96018,2,0,L|416:312,1,59.9999981689454,8|0,0:0|0:0,0:0:0:0:
64,40,96193,6,0,L|64:176,1,119.999996337891,4|0,3:2|3:0,0:0:0:0:
360,56,96542,2,0,L|240:56,1,119.999996337891,8|0,0:0|0:0,0:0:0:0:
432,128,96890,2,0,L|296:128,2,119.999996337891,0|0|8,3:0|3:0|0:0,0:0:0:0:
112,232,97414,6,0,P|112:320|248:320,1,239.999992675781,0|0,3:0|3:0,0:0:0:0:
384,192,97937,1,8,0:0:0:0:
96,72,98111,2,0,L|352:72,1,239.999992675781,0|0,0:0|3:0,0:0:0:0:
192,192,98635,1,8,0:0:0:0:
336,192,98809,1,0,3:0:0:0:
32,232,98983,6,0,L|32:352,1,119.999996337891,0|0,3:0|0:0,0:0:0:0:
384,40,99332,1,8,0:0:0:0:
240,40,99506,1,0,0:0:0:0:
384,40,99680,1,0,3:0:0:0:
240,40,99855,1,0,3:0:0:0:
96,192,100030,1,8,0:0:0:0:
432,232,100204,6,0,P|432:328|296:328,1,239.999992675781,0|0,3:0|3:0,0:0:0:0:
456,192,100728,1,8,0:0:0:0:
144,40,100902,2,0,P|56:88|144:136,1,239.999992675781,0|0,0:0|3:0,0:0:0:0:
456,48,101425,2,0,L|336:48,1,119.999996337891,8|8,0:0|0:0,0:0:0:0:
400,96,101687,1,8,0:0:0:0:
192,248,101774,6,0,L|64:248,1,119.999996337891,0|0,3:2|3:0,0:0:0:0:
440,240,102123,2,0,L|440:368,1,119.999996337891,12|0,0:0|0:0,0:0:0:0:
296,240,102472,1,0,3:0:0:0:
440,240,102646,1,0,3:0:0:0:
296,240,102821,1,8,0:0:0:0:
16,24,102995,6,0,L|256:24,1,239.999992675781,0|0,3:0|3:0,0:0:0:0:
400,24,103518,1,8,0:0:0:0:
88,240,103693,2,0,P|88:320|224:320,1,239.999992675781,0|0,0:0|3:0,0:0:0:0:
416,248,104216,2,0,L|296:248,1,119.999996337891,8|8,0:0|0:0,0:0:0:0:
232,192,104478,1,8,0:0:0:0:
432,40,104565,6,0,L|432:176,1,119.999996337891,0|0,3:0|3:0,0:0:0:0:
72,32,104914,2,0,L|72:160,1,119.999996337891,8|0,0:0|3:0,0:0:0:0:
192,192,105263,1,0,3:0:0:0:
312,192,105437,1,0,3:0:0:0:
312,192,105611,1,8,0:0:0:0:
192,192,105786,1,0,3:0:0:0:
472,32,105960,6,0,L|472:160,1,119.999996337891,0|0,3:0|3:0,0:0:0:0:
192,192,106309,1,8,0:0:0:0:
368,192,106483,1,0,3:0:0:0:
56,32,106658,2,0,L|56:160,1,119.999996337891,8|0,0:0|3:0,0:0:0:0:
344,96,107007,2,0,L|272:96,1,59.9999981689454,8|8,0:3|0:3,0:0:0:0:
104,248,107181,2,0,L|16:248,1,59.9999981689454,8|8,0:0|0:0,0:0:0:0:
352,280,107356,6,0,L|488:280,1,119.999996337891,4|0,3:2|3:0,0:0:0:0:
128,72,107704,2,0,L|248:72,2,119.999996337891,8|0|0,0:0|0:0|3:0,0:0:0:0:
272,192,108228,1,0,3:0:0:0:
80,192,108402,1,8,0:0:0:0:
376,48,108577,6,0,P|456:48|376:112,1,239.999992675781,0|0,3:0|3:0,0:0:0:0:
208,192,109100,1,8,0:0:0:0:
496,328,109274,2,0,L|224:320,1,239.999992675781,0|0,0:0|3:0,0:0:0:0:
448,264,109797,2,0,L|320:264,1,119.999996337891,8|0,0:0|3:0,0:0:0:0:
24,32,110146,6,0,B|24:152|24:152|160:152,1,239.999992675781,0|8,3:0|0:0,0:0:0:0:
272,56,110670,2,0,L|144:56,2,119.999996337891,0|0|0,0:0|3:0|3:0,0:0:0:0:
424,56,111193,1,8,0:0:0:0:
120,232,111367,6,0,B|120:352|120:352|272:352,1,239.999992675781,0|0,3:0|3:0,0:0:0:0:
408,192,111890,1,8,0:0:0:0:
96,320,112065,2,0,L|344:320,1,239.999992675781,0|0,0:0|3:0,0:0:0:0:
56,48,112588,2,0,L|56:184,1,119.999996337891,8|8,0:0|0:0,0:0:0:0:
120,112,112850,1,8,0:0:0:0:
368,48,112937,6,0,L|496:48,1,119.999996337891,0|0,3:2|3:0,0:0:0:0:
120,352,113286,2,0,L|120:232,1,119.999996337891,12|0,0:0|0:0,0:0:0:0:
296,192,113635,1,0,3:0:0:0:
472,192,113809,1,0,3:0:0:0:
296,192,113983,1,8,0:0:0:0:
16,48,114158,6,0,P|128:48|160:160,1,239.999992675781,0|0,3:0|3:0,0:0:0:0:
16,192,114681,1,8,0:0:0:0:
296,232,114856,2,0,P|384:296|280:344,1,239.999992675781,0|0,0:0|3:0,0:0:0:0:
496,224,115379,2,0,L|496:360,1,119.999996337891,8|0,0:0|3:0,0:0:0:0:
168,56,115728,6,0,L|40:56,1,119.999996337891,0|0,3:0|0:0,0:0:0:0:
448,48,116077,2,0,L|448:176,1,119.999996337891,8|0,0:0|0:0,0:0:0:0:
296,168,116425,1,0,3:0:0:0:
448,168,116600,1,0,3:0:0:0:
144,264,116774,2,0,L|0:264,1,119.999996337891,8|0,0:0|3:0,0:0:0:0:
351,47,117123,5,0,3:0:0:0:
399,47,117210,1,0,0:0:0:0:
351,103,117297,1,8,0:0:0:0:
295,103,117384,1,8,0:0:0:0:
295,103,117471,1,0,3:0:0:0:
351,103,117559,1,8,0:0:0:0:
96,48,117646,5,8,0:0:0:0:
39,58,117733,1,8,0:0:0:0:
11,109,117820,1,0,3:0:0:0:
31,163,117907,1,0,0:0:0:0:
86,182,117994,1,8,0:0:0:0:
136,152,118082,1,8,0:0:0:0:
336,280,118170,2,0,L|400:280,1,59.9999981689454,0|0,3:0|0:0,0:0:0:0:
120,272,118344,2,0,L|120:352,1,59.9999981689454,8|8,0:0|0:0,0:0:0:0:
424,192,118518,5,4,3:2:0:0:
288,192,118693,1,0,3:0:0:0:
16,344,118867,2,0,L|128:344,1,110.000003356934,8|0,0:0|0:0,0:0:0:0:
320,296,119216,2,0,L|208:296,1,110.000003356934,0|0,3:0|3:0,0:0:0:0:
496,48,119565,2,0,L|496:160,1,110.000003356934,8|0,0:0|3:0,0:0:0:0:
352,160,119914,5,0,0:0:0:0:
496,158,120088,1,0,3:0:0:0:
352,160,120263,1,8,0:0:0:0:
496,158,120437,1,0,0:0:0:0:
304,264,120611,2,0,L|192:264,1,110.000003356934,0|0,3:0|3:0,0:0:0:0:
472,40,120960,2,0,L|352:40,1,110.000003356934,8|0,0:0|3:0,0:0:0:0:
56,40,121309,6,0,L|56:160,1,110.000003356934,0|0,3:0|0:0,0:0:0:0:
336,312,121658,2,0,L|224:312,1,110.000003356934,8|0,0:0|0:0,0:0:0:0:
336,232,122007,2,0,L|456:232,1,110.000003356934,0|0,3:0|3:0,0:0:0:0:
192,232,122356,1,8,0:0:0:0:
480,40,122530,6,0,B|480:152|480:152|352:152,1,220.000006713867,0|0,3:0|3:0,0:0:0:0:
176,160,123053,1,8,0:0:0:0:
440,40,123228,2,0,B|328:40|328:40|328:152,1,220.000006713867,0|0,0:0|3:0,0:0:0:0:
496,256,123751,2,0,L|384:256,1,110.000003356934,8|8,0:0|0:0,0:0:0:0:
440,208,124013,1,8,0:0:0:0:
184,304,124100,6,0,L|64:304,1,110.000003356934,0|0,3:2|3:0,0:0:0:0:
432,40,124449,2,0,L|432:152,1,110.000003356934,12|0,0:0|0:0,0:0:0:0:
288,152,124797,1,0,3:0:0:0:
432,152,124972,1,0,3:0:0:0:
240,152,125146,1,8,0:0:0:0:
496,264,125321,6,0,L|272:264,1,220.000006713867,0|0,3:0|3:0,0:0:0:0:
408,192,125844,1,8,0:0:0:0:
224,336,126018,2,0,L|112:336,2,110.000003356934,0|0|0,0:0|3:0|3:0,0:0:0:0:
424,344,126542,2,0,L|424:224,1,110.000003356934,8|0,0:0|3:0,0:0:0:0:
32,96,126890,6,0,L|344:96,1,300.000011444092,4|8,3:2|0:0,0:0:0:0:
72,240,127414,2,0,L|184:240,2,110.000003356934,0|0|0,3:0|3:0|3:0,0:0:0:0:
264,304,127937,2,0,L|384:304,1,110.000003356934,8|0,0:0|3:0,0:0:0:0:
120,40,128286,5,0,3:0:0:0:
16,40,128460,2,0,L|16:104,1,55.0000016784668,8|8,0:0|0:0,0:0:0:0:
312,192,128635,1,8,0:0:0:0:
168,192,128809,1,8,0:0:0:0:
24,192,128983,1,8,0:3:0:0:
184,192,129158,1,8,0:3:0:0:
344,192,129332,1,8,0:0:0:0:
184,192,129507,1,0,0:0:0:0:
440,32,129681,6,0,P|496:80|432:144,1,179.999994506836,4|0,3:2|3:2,0:0:0:0:
200,288,130379,2,0,L|8:288,1,179.999994506836,0|0,3:2|3:2,0:0:0:0:
264,192,131077,5,0,3:2:0:0:
496,48,131425,2,0,L|496:168,1,89.9999972534181,0|0,3:2|0:0,0:0:0:0:
248,272,131774,2,0,L|144:272,1,89.9999972534181,0|0,3:2|0:0,0:0:0:0:
406,304,132123,2,0,L|496:304,1,89.9999972534181,0|0,3:2|0:0,0:0:0:0:
184,40,132472,6,0,B|72:40|72:40|72:112,1,179.999994506836,12|0,3:2|3:2,0:0:0:0:
344,32,132995,2,0,B|464:32|464:32|464:104,1,179.999994506836,12|0,0:0|0:0,0:0:0:0:
200,240,133518,2,0,L|104:240,1,89.9999972534181,12|0,3:2|0:0,0:0:0:0:
416,192,133867,5,0,3:2:0:0:
128,320,134042,2,0,L|238:320,2,110.000003356934,12|0|0,0:0|3:2|0:0,0:0:0:0:
416,256,134565,2,0,L|416:136,1,110.000003356934,12|0,3:2|0:0,0:0:0:0:
312,144,134914,1,0,3:2:0:0:
496,128,135088,2,0,L|448:128,1,44.999998626709,8|8,0:3|0:3,0:0:0:0:
192,64,135263,6,0,P|104:64|104:144,1,179.999994506836,0|8,3:3|3:3,0:0:0:0:
336,48,135960,2,0,L|152:48,1,179.999994506836,0|8,3:3|3:3,0:0:0:0:
400,192,136658,5,0,3:3:0:0:
152,192,137007,1,8,3:3:0:0:
424,280,137356,2,0,L|376:280,1,44.999998626709,0|0,3:3|0:0,0:0:0:0:
272,256,137530,2,0,L|216:256,1,44.999998626709
64,40,137704,2,0,B|40:112|40:112|104:112,1,134.999995880127,8|0,3:3|0:0,0:0:0:0:
392,40,138053,6,0,L|288:40,2,100,12|8|0,3:2|0:3|3:0,0:0:0:0:
72,296,138577,2,0,L|200:296,2,100,12|12|0,3:2|3:2|3:3,0:0:0:0:
352,192,139100,1,12,3:2:0:0:
184,192,139274,1,8,0:3:0:0:
432,192,139449,5,0,3:0:0:0:
264,192,139623,1,8,0:0:0:0:
496,56,139797,2,0,L|392:56,1,100,8|0,0:0|3:0,0:0:0:0:
48,72,140146,2,0,L|48:192,1,100,8|8,0:0|0:0,0:0:0:0:
112,64,140408,1,8,0:0:0:0:
328,144,140495,2,0,L|408:144,1,50,8|8,0:0|0:0,0:0:0:0:
136,248,140670,2,0,L|136:304,1,50,8|8,0:0|0:0,0:0:0:0:
456,288,140844,6,0,L|336:288,1,119.999996337891,4|0,3:2|3:0,0:0:0:0:
24,192,141193,1,8,0:0:0:0:
152,192,141367,1,0,0:0:0:0:
152,192,141542,1,0,3:0:0:0:
24,192,141716,1,0,3:0:0:0:
320,192,141890,1,8,0:0:0:0:
16,32,142065,6,0,B|16:200|16:200|96:200,1,239.999992675781,0|0,3:0|3:0,0:0:0:0:
424,192,142588,1,8,0:0:0:0:
304,192,142763,1,0,3:0:0:0:
424,192,142937,1,0,0:0:0:0:
304,192,143111,1,0,3:0:0:0:
144,64,143286,2,0,B|0:64,1,119.999996337891,8|0,0:0|0:0,0:0:0:0:
88,112,143547,1,0,0:0:0:0:
360,48,143635,6,0,L|496:48,1,119.999996337891,0|0,3:0|3:0,0:0:0:0:
160,192,143983,1,8,0:0:0:0:
376,248,144332,2,0,L|504:248,1,119.999996337891,0|0,3:0|0:0,0:0:0:0:
192,192,144681,1,8,0:0:0:0:
496,192,144856,5,0,3:0:0:0:
344,192,145030,1,0,0:0:0:0:
192,192,145204,1,0,3:0:0:0:
376,192,145379,1,8,0:0:0:0:
112,192,145553,1,0,3:0:0:0:
248,192,145728,1,0,0:0:0:0:
384,288,145902,2,0,L|256:288,1,119.999996337891,0|8,3:0|0:0,0:0:0:0:
128,192,146251,1,2,0:3:0:0:
480,32,146425,6,0,B|480:224|480:224|432:224,1,239.999992675781,4|8,3:2|0:0,0:0:0:0:
312,192,146949,1,0,0:0:0:0:
192,272,147123,1,0,3:0:0:0:
64,272,147297,1,0,3:0:0:0:
192,272,147472,1,8,0:0:0:0:
480,88,147646,6,0,L|232:88,1,239.999992675781,0|0,3:0|3:0,0:0:0:0:
496,272,148170,1,8,0:0:0:0:
360,272,148344,1,0,3:0:0:0:
360,272,148518,1,0,0:0:0:0:
496,272,148693,1,0,3:0:0:0:
128,48,148867,2,0,L|8:48,1,119.999996337891,8|0,0:0|0:0,0:0:0:0:
72,96,149129,1,0,0:0:0:0:
344,272,149216,6,0,L|464:272,1,119.999996337891,0|0,3:0|3:0,0:0:0:0:
152,192,149565,1,8,0:0:0:0:
464,64,149914,2,0,L|328:64,2,119.999996337891,0|0|8,3:0|0:0|0:0,0:0:0:0:
152,88,150437,6,0,L|24:88,1,119.999996337891,0|0,3:0|0:0,0:0:0:0:
344,192,150786,1,8,0:0:0:0:
72,192,150960,1,8,0:0:0:0:
400,216,151135,2,0,L|400:336,1,119.999996337891,8|0,0:0|3:0,0:0:0:0:
272,192,151483,1,8,3:0:0:0:
112,192,151658,1,8,0:0:0:0:
384,192,151832,1,0,3:0:0:0:
24,32,152007,6,0,B|24:152|24:152|160:152,1,239.999992675781,4|8,3:2|0:0,0:0:0:0:
336,96,152530,2,0,L|396:96,1,59.9999981689454,0|8,0:0|0:3,0:0:0:0:
456,96,152704,1,4,0:3:0:0:
160,192,152879,1,0,3:0:0:0:
16,192,153053,1,8,0:0:0:0:
336,336,153228,6,0,B|472:336|472:336|472:224,1,239.999992675781,0|0,3:0|3:0,0:0:0:0:
200,192,153751,1,8,0:0:0:0:
448,152,153925,1,0,0:0:0:0:
400,152,154012,1,8,0:3:0:0:
448,104,154099,1,4,0:3:0:0:
496,104,154186,1,0,0:0:0:0:
496,104,154273,1,0,3:0:0:0:
448,104,154361,1,0,0:0:0:0:
216,256,154449,2,0,L|80:256,1,119.999996337891,8|0,0:0|0:0,0:0:0:0:
456,344,154797,6,0,L|208:344,1,239.999992675781,0|8,3:2|0:0,0:0:0:0:
400,240,155321,2,0,L|328:240,1,59.9999981689454,0|8,0:0|0:3,0:0:0:0:
136,72,155495,2,0,L|16:72,2,119.999996337891,4|0|8,0:3|3:0|0:0,0:0:0:0:
448,32,156018,6,0,B|448:152|448:152|304:152,1,239.999992675781,0|0,3:0|3:0,0:0:0:0:
480,192,156542,1,8,0:0:0:0:
152,192,156716,1,0,0:0:0:0:
96,192,156803,1,8,0:3:0:0:
96,192,156890,1,4,0:3:0:0:
152,192,156978,1,0,0:0:0:0:
200,256,157065,2,0,L|128:256,1,59.9999981689454,0|0,3:0|0:0,0:0:0:0:
360,64,157239,2,0,L|360:136,1,59.9999981689454,8|8,0:0|0:0,0:0:0:0:
112,88,157414,2,0,L|40:88,1,59.9999981689454,0|0,3:3|3:3,0:0:0:0:
360,280,157588,6,0,L|496:280,1,119.999996337891,4|0,3:2|0:0,0:0:0:0:
200,192,157937,1,8,0:0:0:0:
40,80,158111,2,0,L|40:152,1,59.9999981689454,0|8,0:0|0:3,0:0:0:0:
336,48,158286,1,4,0:3:0:0:
184,48,158460,1,0,3:0:0:0:
336,48,158635,1,8,0:0:0:0:
40,232,158809,6,0,B|40:360|40:360|168:360,1,239.999992675781,0|0,3:0|3:0,0:0:0:0:
352,192,159332,1,8,0:0:0:0:
72,96,159507,1,0,0:0:0:0:
16,96,159594,1,8,0:3:0:0:
16,96,159681,1,4,0:3:0:0:
72,96,159768,1,0,0:0:0:0:
128,96,159855,1,0,3:0:0:0:
72,96,159943,1,0,0:0:0:0:
128,168,160030,2,0,L|200:168,1,59.9999981689454,8|8,0:0|0:3,0:0:0:0:
400,272,160204,2,0,L|400:352,1,59.9999981689454,4|0,0:3|3:0,0:0:0:0:
128,32,160379,6,0,L|416:32,1,281.250010728837,4|0,3:2|0:0,0:0:0:0:
408,80,160728,2,0,L|176:80,1,225.000008583069,4|0,3:2|0:0,0:0:0:0:
368,192,161077,1,4,3:2:0:0:
80,192,161251,1,0,3:2:0:0:
400,192,161426,2,0,L|400:320,1,119.999996337891,4|0,3:2|0:0,0:0:0:0:
16,192,161775,5,4,3:2:0:0:
416,104,170844,6,0,L|312:104,1,100,2|2,0:3|3:0,0:0:0:0:
48,280,171159,2,0,L|160:280,1,100,8|0,0:0|3:0,0:0:0:0:
456,232,171475,6,0,L|456:352,1,119.999996337891,4|0,3:2|3:0,0:0:0:0:
96,32,171823,2,0,B|96:152|96:152|224:152,1,239.999992675781,8|0,0:0|3:0,0:0:0:0:
32,192,172347,1,0,3:0:0:0:
352,192,172521,1,8,0:0:0:0:
32,192,172695,6,0,B|32:320|32:320|160:320,1,239.999992675781,0|0,3:0|3:0,0:0:0:0:
440,192,173219,1,8,0:0:0:0:
128,80,173393,2,0,L|376:80,1,239.999992675781,0|0,0:0|3:0,0:0:0:0:
80,240,173916,2,0,L|80:360,1,119.999996337891,8|0,0:0|3:0,0:0:0:0:
448,264,174265,6,0,L|320:264,1,119.999996337891,4|0,3:2|0:0,0:0:0:0:
16,112,174614,2,0,L|144:112,1,119.999996337891,8|0,0:0|0:0,0:0:0:0:
16,168,174963,2,0,L|152:168,2,119.999996337891,0|0|8,3:0|3:0|0:0,0:0:0:0:
352,32,175486,6,0,P|448:96|344:168,1,239.999992675781,0|0,3:0|3:0,0:0:0:0:
320,176,175922,1,0,3:0:0:0:
112,192,176009,1,8,0:0:0:0:
64,192,176097,1,0,0:0:0:0:
64,192,176184,1,0,3:0:0:0:
112,192,176271,1,0,3:0:0:0:
392,64,176358,6,0,L|464:64,1,59.9999981689454,8|0,0:0|0:0,0:0:0:0:
176,56,176533,2,0,L|112:56,1,59.9999981689454,0|0,3:0|3:0,0:0:0:0:
408,232,176707,2,0,L|408:304,1,59.9999981689454,8|0,0:0|0:0,0:0:0:0:
104,320,176881,2,0,L|40:320,1,59.9999981689454,0|0,3:0|0:0,0:0:0:0:
320,192,177056,5,4,3:2:0:0:
464,192,177230,1,0,3:2:0:0:
176,32,177405,2,0,P|96:96|184:160,1,239.999992675781,8|0,0:0|3:2,0:0:0:0:
24,192,177928,1,0,3:2:0:0:
320,192,178102,1,8,0:2:0:0:
16,32,178277,6,0,B|16:152|16:152|160:152,1,239.999992675781,0|0,0:0|3:2,0:0:0:0:
448,192,178800,1,8,0:2:0:0:
136,360,178975,2,0,B|136:240|136:240|264:240,1,239.999992675781,0|0,3:2|3:2,0:0:0:0:
104,192,179498,1,8,0:2:0:0:
376,192,179672,1,0,3:2:0:0:
488,40,179847,6,0,L|488:160,1,119.999996337891,0|0,3:2|3:2,0:0:0:0:
152,64,180195,2,0,L|32:64,1,119.999996337891,8|0,0:2|3:2,0:0:0:0:
200,192,180544,1,0,3:2:0:0:
368,192,180719,1,0,3:2:0:0:
80,192,180893,1,8,0:2:0:0:
400,32,181068,6,0,B|496:32|496:32|496:176,1,239.999992675781,0|0,3:2|3:2,0:0:0:0:
208,192,181591,1,8,0:2:0:0:
400,312,181765,2,0,L|280:312,2,119.999996337891,0|0|0,3:2|3:2|3:2,0:0:0:0:
72,72,182288,2,0,L|144:72,1,59.9999981689454,8|0,0:2|0:0,0:0:0:0:
344,96,182463,2,0,L|416:96,1,59.9999981689454,8|8,0:2|0:2,0:0:0:0:
80,232,182637,6,0,L|80:360,1,119.999996337891,0|0,3:2|3:0,0:0:0:0:
464,328,182986,2,0,L|328:328,1,119.999996337891,12|0,0:0|0:0,0:0:0:0:
192,192,183335,1,0,3:0:0:0:
344,192,183509,1,0,3:0:0:0:
344,192,183684,1,8,0:0:0:0:
192,192,183858,1,0,3:0:0:0:
496,64,184033,6,0,L|376:64,1,119.999996337891,0|0,0:0|3:0,0:0:0:0:
96,192,184381,1,8,0:0:0:0:
400,192,184556,2,0,P|472:224|392:328,1,239.999992675781,0|0,0:0|3:0,0:0:0:0:
224,192,185079,1,8,0:0:0:0:
400,192,185254,1,0,3:0:0:0:
64,48,185428,6,0,L|192:48,1,119.999996337891,0|0,3:0|3:0,0:0:0:0:
480,56,185777,2,0,L|336:56,1,119.999996337891,8|0,0:0|3:0,0:0:0:0:
488,128,186126,2,0,L|368:128,1,119.999996337891,0|0,3:0|3:0,0:0:0:0:
72,192,186475,1,8,0:0:0:0:
384,48,186649,2,0,L|464:48,1,59.9999981689454,0|0,3:0|3:0,0:0:0:0:
248,192,186823,5,8,0:0:0:0:
72,192,186993,1,8,0:0:0:0:
248,272,187163,1,8,0:0:0:0:
424,272,187334,1,8,0:0:0:0:
248,336,187504,1,8,0:0:0:0:
72,192,187676,1,8,0:0:0:0:
328,56,187848,1,0,3:0:0:0:
72,56,188021,1,0,3:0:0:0:
416,128,188193,6,0,P|480:184|408:256,1,200,4|0,3:2|3:0,0:0:0:0:
16,256,188890,2,0,L|120:256,2,100,8|0|0,0:0|0:0|3:0,0:0:0:0:
280,32,189413,6,0,P|344:96|272:152,1,200,4|4,3:2|3:2,0:0:0:0:
152,192,189937,1,0,0:0:0:0:
336,192,190111,1,0,3:0:0:0:
80,296,190286,1,8,0:0:0:0:
200,296,190460,1,0,3:0:0:0:
200,296,190634,1,0,3:0:0:0:
80,296,190809,1,0,0:0:0:0:
368,72,190983,6,0,P|456:72|456:168,1,200,4|4,3:2|3:2,0:0:0:0:
16,144,191681,2,0,L|232:144,1,200,8|0,0:0|3:0,0:0:0:0:
480,136,192204,6,0,P|480:224|376:224,1,200,4|4,3:2|3:2,0:0:0:0:
256,192,192727,1,0,0:0:0:0:
128,192,192902,1,0,3:0:0:0:
416,240,193076,2,0,L|416:352,1,100,8|8,0:0|0:3,0:0:0:0:
256,240,193425,1,4,3:3:0:0:
416,240,193599,1,4,3:3:0:0:
112,64,193774,6,0,B|16:64|16:64|16:176,1,200,4|4,3:2|3:2,0:0:0:0:
448,48,194472,2,0,L|232:48,1,200,8|0,0:0|3:0,0:0:0:0:
488,248,194995,6,0,L|280:248,1,200,4|4,3:2|3:2,0:0:0:0:
424,192,195518,1,0,0:0:0:0:
288,192,195693,1,0,3:0:0:0:
24,232,195867,2,0,B|24:336|24:336|128:336,1,200,8|8,0:0|0:0,0:0:0:0:
288,336,196303,1,8,0:0:0:0:
232,112,196390,2,0,L|160:112,1,50,8|8,0:0|0:0,0:0:0:0:
368,48,196565,6,0,L|468:48,3,100,0|8|4|0,3:2|0:0|3:2|0:0,0:0:0:0:
48,144,197262,2,0,L|160:144,1,100,12|0,3:2|0:0,0:0:0:0:
472,248,197611,2,0,L|368:248,1,100,4|0,3:2|0:0,0:0:0:0:
80,240,197960,5,4,3:2:0:0:
136,240,198048,1,0,0:0:0:0:
80,192,198136,1,0,3:0:0:0:
16,192,198224,1,0,3:0:0:0:
16,192,198312,1,8,0:0:0:0:
80,192,198401,1,0,0:0:0:0:
288,304,198489,2,0,L|376:304,1,50,0|0,3:0|3:0,0:0:0:0:
136,40,198665,6,0,L|80:40,1,50,8|0,0:0|0:0,0:0:0:0:
360,72,198843,2,0,L|360:128,1,50,0|0,3:0|3:0,0:0:0:0:
104,272,199022,2,0,L|40:272,1,50,8|0,0:0|0:0,0:0:0:0:
320,232,199200,2,0,L|384:232,1,50,8|8,0:0|0:0,0:0:0:0:
192,192,199379,1,4,3:2:0:0:
16,192,199550,1,0,3:0:0:0:
344,40,199721,6,0,B|344:144|344:144|240:144,1,200,8|0,0:0|3:0,0:0:0:0:
368,192,200237,1,0,3:0:0:0:
472,192,200410,1,8,0:0:0:0:
472,192,200584,1,0,3:0:0:0:
272,192,200757,5,0,0:0:0:0:
152,48,200931,1,0,3:0:0:0:
152,48,201105,1,8,0:0:0:0:
272,192,201280,1,0,0:0:0:0:
128,288,201454,2,0,L|16:288,1,100,0|0,3:0|3:0,0:0:0:0:
312,328,201803,2,0,L|424:328,1,100,8|0,0:0|3:0,0:0:0:0:
120,48,202152,6,0,P|40:48|96:112,1,200,0|8,3:0|0:0,0:0:0:0:
216,192,202675,1,0,0:0:0:0:
400,80,202850,2,0,L|288:80,2,100,0|0|8,3:0|3:0|0:0,0:0:0:0:
96,48,203373,6,0,P|96:128|200:128,1,200,0|0,3:0|3:0,0:0:0:0:
440,64,203896,2,0,L|440:176,1,100,8|0,0:0|0:0,0:0:0:0:
272,192,204245,1,0,3:0:0:0:
440,192,204419,1,0,3:0:0:0:
272,192,204594,1,8,0:0:0:0:
16,288,204768,2,0,L|72:288,1,50,8|8,0:0|0:0,0:0:0:0:
320,56,204943,6,0,L|432:56,1,100,0|0,3:2|3:0,0:0:0:0:
88,336,205291,2,0,L|200:336,2,100,12|0|0,0:0|0:0|3:0,0:0:0:0:
224,192,205815,1,0,3:0:0:0:
104,192,205989,1,8,0:0:0:0:
408,32,206163,6,0,B|408:136|408:136|296:136,1,200,0|0,3:0|3:0,0:0:0:0:
64,280,206687,2,0,L|168:280,2,100,8|0|0,0:0|0:0|3:0,0:0:0:0:
248,192,207210,1,0,3:0:0:0:
64,48,207384,2,0,L|64:160,1,100,8|0,0:0|3:0,0:0:0:0:
408,48,207733,6,0,B|504:48|504:48|504:120,1,150,4|0,3:2|0:0,0:0:0:0:
240,128,208085,2,0,L|408:128,1,150,4|0,3:2|0:0,0:0:0:0:
128,240,208438,2,0,B|40:240|40:240|40:320,1,150,4|0,3:2|0:0,0:0:0:0:
320,288,208791,2,0,L|488:288,1,150,4|0,3:2|0:0,0:0:0:0:
152,192,209144,5,4,3:2:0:0:
256,192,209321,12,0,213027,0:0:0:0:
144,240,214754,6,0,L|216:240,1,50,0|2,0:0|0:0,0:0:0:0:
144,240,214885,1,0,0:0:0:0:
88,40,214928,2,0,P|21:100|91:149,1,200,2|0,0:0|0:0,0:0:0:0:
232,192,215495,1,0,0:0:0:0:
480,192,215800,1,0,0:0:0:0:
240,192,216062,1,0,0:0:0:0:
480,192,216367,1,0,0:0:0:0:
256,192,216498,12,0,222603,0:0:0:0:
