osu file format v14

[General]
AudioFilename: audio.mp3
AudioLeadIn: 0
PreviewTime: 83896
Countdown: 0
SampleSet: Soft
StackLeniency: 0.7
Mode: 2
LetterboxInBreaks: 0
WidescreenStoryboard: 1

[Editor]
Bookmarks: 118518
DistanceSpacing: 1
BeatDivisor: 8
GridSize: 32
TimelineZoom: 2.3

[Metadata]
Title:Parade
TitleUnicode:Parade
Artist:Carpool Tunnel
ArtistUnicode:Carpool Tunnel
Creator:Dapuluous
Version:Du5t's Platter
Source:osu!
Tags:english indie rock osu! featured artist mappers guild jemzuu ajamez crowley du5t idu5t dust idust
BeatmapID:2218625
BeatmapSetID:1036382

[Difficulty]
HPDrainRate:4
CircleSize:3.5
OverallDifficulty:8
ApproachRate:8
SliderMultiplier:1.6
SliderTickRate:2

[Events]
//Background and Video events
0,0,"115.jpg",0,0
//Break Periods
2,165960,170059
//Storyboard Layer 0 (Background)
//Storyboard Layer 1 (Fail)
//Storyboard Layer 2 (Pass)
//Storyboard Layer 3 (Foreground)
//Storyboard Layer 4 (Overlay)
//Storyboard Sound Samples

[TimingPoints]
1402,340.909090909091,4,2,11,30,1,0
2765,352.941176470588,4,2,11,30,1,0
4176,348.837209302326,4,2,11,30,1,0
5571,355.029585798817,4,2,11,30,1,0
8411,352.941176470588,4,2,11,30,1,0
9822,346.820809248555,4,2,11,30,1,0
11873,348.837209302326,4,2,11,30,1,0
12570,352.941176470588,4,2,11,30,1,0
13981,347.826086956522,4,2,11,40,1,0
16763,350.877192982456,4,2,11,40,1,0
18166,346.820809248555,4,2,11,40,1,0
19553,340.909090909091,4,2,11,40,1,0
20916,352.941176470588,4,2,11,40,1,0
23739,337.078651685393,4,2,11,40,1,0
26435,348.837209302326,4,2,11,55,1,1
26435,-100,4,2,11,55,0,1
48760,-100,4,2,11,60,0,0
59923,-100,4,2,11,60,0,0
69690,346.820809248555,4,2,11,60,1,0
71077,348.837209302326,4,2,11,60,1,0
82239,-100,4,2,11,60,0,0
82937,-100,4,2,11,60,0,0
85030,-100,4,2,11,70,0,1
118518,-100,4,2,11,70,0,0
126890,-100,4,2,11,70,0,0
127239,-100,4,2,11,70,0,0
129681,-100,4,2,11,50,0,0
134042,-100,4,2,11,50,0,0
134914,-100,4,2,11,50,0,0
138053,-100,4,2,11,55,0,0
140844,-100,4,2,11,55,0,0
160379,-100,4,2,11,55,0,0
161077,-100,4,2,11,55,0,0
162995,-100,4,2,11,55,0,0
170844,315.789473684211,4,2,11,60,1,0
170844,-100,4,2,11,60,0,0
171475,348.837209302326,4,2,11,70,1,1
171475,-100,4,2,11,70,0,1
186823,340.909090909091,4,2,11,70,1,1
187504,344.827586206897,4,2,11,70,1,1
188193,348.837209302326,4,2,11,70,1,0
188193,-100,4,2,11,70,0,0
197960,352.941176470588,4,2,11,70,1,0
198665,357.142857142857,4,2,11,70,1,0
199379,342.857142857143,4,2,11,70,1,0
200064,346.820809248555,4,2,11,70,1,0
200757,348.837209302326,4,2,11,70,1,0
207733,352.941176470588,4,2,11,70,1,0
209850,-100,4,2,11,60,0,0
210556,-100,4,2,11,50,0,0
211262,-100,4,2,11,40,0,0
211968,-100,4,2,11,30,0,0
212674,-100,4,2,11,20,0,0
214580,348.837209302326,4,2,11,40,1,0
217370,-100,4,2,11,30,0,0
218766,-100,4,2,11,20,0,0
220161,-100,4,2,11,10,0,0

[Colours]
Combo1 : 185,130,140
Combo2 : 75,95,200
Combo3 : 130,140,210
Combo4 : 160,90,105

[HitObjects]
77,335,1402,6,0,B|73:55|73:55|78:355,1,560,2|0,0:0|0:0,0:0:0:0:
183,341,2765,5,2,0:0:0:0:
448,347,4176,6,0,B|449:27|449:27|448:297,1,560,2|0,0:0|0:0,0:0:0:0:
337,331,5571,5,2,0:0:0:0:
162,353,6991,6,0,P|104:341|231:46,1,560,2|0,0:0|0:0,0:0:0:0:
336,296,8411,5,2,0:0:0:0:
276,336,9822,6,0,P|347:330|238:39,1,560,2|0,0:0|0:0,0:0:0:0:
138,150,11209,5,2,0:0:0:0:
441,324,12570,6,0,P|375:317|493:38,1,560,2|0,0:0|0:0,0:0:0:0:
374,170,13981,5,2,0:0:0:0:
61,352,15372,6,0,P|133:346|16:61,1,560,2|0,0:0|0:0,0:0:0:0:
145,172,16763,6,0,L|141:343,1,160,2|0,0:0|0:0,0:0:0:0:
456,350,18166,6,0,B|456:70|456:70|456:357,1,560,2|0,0:0|0:0,0:0:0:0:
341,346,19553,5,2,0:0:0:0:
275,351,20234,2,0,P|217:335|287:221,1,240,0|0,0:0|0:0,0:0:0:0:
167,214,20916,5,2,0:0:0:0:
275,217,21268,2,0,L|281:42,1,160,0|0,0:0|0:0,0:0:0:0:
358,329,23739,6,0,P|430:296|239:46,1,560,2|0,0:0|0:0,0:0:0:0:
106,259,25424,2,0,L|105:162,1,80,0|0,0:0|0:0,0:0:0:0:
287,138,25761,2,0,L|35:117,1,240,0|0,0:0|0:0,0:0:0:0:
291,316,26435,6,0,P|342:295|282:237,1,160,4|8,3:2|0:0,0:0:0:0:
134,187,27132,2,0,L|130:103,1,80,0|0,3:0|3:0,0:0:0:0:
217,98,27481,1,8,0:0:0:0:
40,303,27655,6,0,P|16:265|90:198,1,160,0|0,3:0|3:0,0:0:0:0:
165,202,28179,1,8,0:0:0:0:
340,221,28353,2,0,L|344:135,1,80,0|0,0:0|3:0,0:0:0:0:
263,136,28702,1,0,3:0:0:0:
439,113,28876,2,0,L|443:22,1,80,8|0,0:0|3:0,0:0:0:0:
194,322,29225,6,0,P|149:311|201:237,1,160,0|8,3:0|0:0,0:0:0:0:
347,222,29923,2,0,L|350:124,1,80,0|0,3:0|0:0,0:0:0:0:
264,122,30272,2,0,L|173:116,1,80,8|0,0:0|3:0,0:0:0:0:
361,332,30621,6,0,P|404:310|344:245,1,160,0|8,0:0|0:0,0:0:0:0:
191,227,31318,2,0,L|188:140,1,80,0|0,3:0|3:0,0:0:0:0:
274,101,31667,2,0,L|176:92,1,80,8|8,0:0|0:0,0:0:0:0:
436,299,32016,6,0,P|471:274|439:207,1,120,0|0,3:2|0:0,0:0:0:0:
408,207,32365,1,8,0:0:0:0:
250,227,32714,2,0,L|248:135,1,80,0|0,3:0|3:0,0:0:0:0:
327,143,33062,1,8,0:0:0:0:
149,315,33237,6,0,P|80:298|132:235,1,160,0|0,3:0|3:0,0:0:0:0:
189,229,33760,1,8,0:0:0:0:
362,240,33935,2,0,L|457:246,2,80,0|0|0,0:0|3:0|3:0,0:0:0:0:
185,141,34458,2,0,L|93:136,1,80,8|0,0:0|3:0,0:0:0:0:
347,317,34807,6,0,L|503:253,2,160,0|8|0,3:0|0:0|3:0,0:0:0:0:
212,210,35853,2,0,L|310:215,1,80,8|0,0:0|3:0,0:0:0:0:
47,268,36202,6,0,L|40:180,1,80,0|8,3:0|0:0,0:0:0:0:
80,181,36464,1,0,0:0:0:0:
119,177,36551,1,0,3:0:0:0:
293,143,36725,2,0,L|358:147,2,40,0|0|0,0:0|0:0|3:0,0:0:0:0:
204,82,37074,1,0,3:0:0:0:
159,99,37161,1,0,0:0:0:0:
139,142,37248,1,0,3:0:0:0:
147,189,37336,1,0,0:0:0:0:
189,210,37423,1,8,0:0:0:0:
432,331,37597,6,0,P|473:301|402:227,1,160,4|8,3:2|0:0,0:0:0:0:
257,172,38295,1,0,3:0:0:0:
336,174,38469,2,0,L|341:80,1,80,0|8,3:0|0:0,0:0:0:0:
165,323,38818,6,0,P|135:290|206:218,1,160,0|0,3:0|3:0,0:0:0:0:
276,221,39341,1,8,0:0:0:0:
97,138,39516,2,0,L|15:135,2,80,0|0|0,0:0|0:0|3:0,0:0:0:0:
275,141,40039,2,0,L|371:143,1,80,8|0,0:0|3:0,0:0:0:0:
114,312,40388,6,0,P|67:299|101:231,1,120,0|0,3:0|0:0,0:0:0:0:
115,231,40737,1,8,0:0:0:0:
278,162,41086,2,0,L|187:157,1,80,0|0,3:0|0:0,0:0:0:0:
281,91,41435,2,0,L|367:87,1,80,8|0,0:0|3:0,0:0:0:0:
185,316,41783,6,0,P|138:302|196:221,1,160,0|8,0:0|0:0,0:0:0:0:
343,187,42307,2,0,L|438:191,2,80,0|0|0,0:0|0:0|3:0,0:0:0:0:
260,113,42830,2,0,L|362:107,1,80,8|8,0:0|0:0,0:0:0:0:
96,297,43179,6,0,P|57:274|93:198,1,120,0|0,3:2|0:0,0:0:0:0:
108,204,43528,1,12,0:0:0:0:
269,205,43876,2,0,L|272:120,1,80,0|0,3:0|3:0,0:0:0:0:
95,64,44225,2,0,L|92:151,1,80,8|0,0:0|3:0,0:0:0:0:
339,322,44574,6,0,L|430:317,1,80,0|0,0:0|3:0,0:0:0:0:
337,252,44923,2,0,L|252:246,1,80,8|0,0:0|0:0,0:0:0:0:
353,191,45272,2,0,L|359:107,1,80,0|0,3:0|3:0,0:0:0:0:
181,103,45621,2,0,L|173:197,1,80,8|0,0:0|3:0,0:0:0:0:
351,268,45969,2,0,L|438:273,1,80,0|0,3:0|3:0,0:0:0:0:
184,317,46318,6,0,P|141:310|201:240,1,160,8|0,0:0|3:0,0:0:0:0:
249,223,46841,1,0,3:0:0:0:
163,180,47016,2,0,L|161:93,1,80,8|0,0:0|3:0,0:0:0:0:
340,56,47365,6,0,L|246:54,1,80,0|8,3:0|0:0,0:0:0:0:
220,52,47626,1,8,0:0:0:0:
260,54,47714,2,0,L|349:57,1,80,8|8,0:0|0:0,0:0:0:0:
164,247,48062,2,0,L|157:157,1,80,8|8,0:0|0:3,0:0:0:0:
336,151,48411,2,0,L|386:157,2,40,8|0|8,0:0|3:0|0:0,0:0:0:0:
91,317,48760,6,0,P|47:298|101:226,1,160,0|8,3:0|0:0,0:0:0:0:
254,139,49458,1,0,3:0:0:0:
174,139,49632,1,0,3:0:0:0:
93,137,49807,1,8,0:0:0:0:
272,317,49981,6,0,P|317:307|276:224,1,160,0|0,3:0|3:0,0:0:0:0:
209,225,50504,2,0,L|202:134,1,80,8|0,0:0|3:0,0:0:0:0:
291,121,50853,2,0,L|371:127,1,80,0|0,0:0|3:0,0:0:0:0:
276,49,51202,2,0,L|184:53,1,80,8|0,0:0|3:0,0:0:0:0:
373,306,51551,6,0,L|189:291,1,160,0|8,3:0|0:0,0:0:0:0:
375,191,52248,2,0,L|289:183,2,80,0|0|8,3:0|3:0|0:0,0:0:0:0:
196,241,52772,6,0,L|24:229,1,160,0|0,3:0|3:0,0:0:0:0:
117,180,53295,1,8,0:0:0:0:
293,189,53469,2,0,P|329:151|265:88,1,160,0|0,3:0|3:0,0:0:0:0:
187,99,53993,2,0,L|181:186,1,80,8|4,0:0|3:0,0:0:0:0:
419,310,54341,6,0,P|449:277|373:204,1,160,0|8,3:0|0:0,0:0:0:0:
221,149,55039,1,0,3:0:0:0:
301,150,55214,2,0,L|308:62,1,80,0|8,3:0|0:0,0:0:0:0:
133,256,55562,6,0,L|299:248,1,160,0|0,3:0|3:0,0:0:0:0:
211,203,56086,2,0,L|209:115,1,80,8|0,0:0|3:0,0:0:0:0:
299,121,56435,2,0,L|307:24,1,80,0|0,0:0|3:0,0:0:0:0:
213,40,56783,2,0,L|303:34,1,80,8|0,0:0|3:0,0:0:0:0:
111,283,57132,6,0,P|62:273|118:208,1,160,0|8,3:0|0:0,0:0:0:0:
256,167,57830,1,0,3:0:0:0:
176,165,58004,2,0,L|171:79,1,80,0|8,3:0|0:0,0:0:0:0:
421,315,58353,6,0,P|464:301|407:231,1,160,0|0,3:0|3:0,0:0:0:0:
382,228,58789,1,0,3:0:0:0:
342,230,58876,1,8,0:0:0:0:
425,154,59051,1,8,0:0:0:0:
251,157,59225,1,8,0:0:0:0:
167,153,59400,1,0,3:3:0:0:
124,175,59487,1,0,3:3:0:0:
110,220,59574,1,8,0:0:0:0:
128,264,59661,1,8,0:0:0:0:
172,282,59748,1,0,3:3:0:0:
416,313,59923,6,0,P|458:291|398:216,1,160,4|8,3:2|0:0,0:0:0:0:
157,123,60621,2,0,L|340:113,1,160,0|8,0:0|0:0,0:0:0:0:
139,298,61144,6,0,P|98:277|155:201,1,160,0|0,3:0|3:0,0:0:0:0:
222,200,61667,1,8,0:0:0:0:
65,115,62016,2,0,L|177:110,1,80,0|2,0:0|0:3,0:0:0:0:
329,94,62365,2,0,L|333:183,1,80,8|0,0:0|3:0,0:0:0:0:
163,274,62714,6,0,P|243:272|331:270,1,160,0|8,3:0|0:0,0:0:0:0:
66,261,63411,2,0,P|23:236|88:162,1,160,0|8,0:0|0:0,0:0:0:0:
244,157,63935,6,0,P|294:137|233:74,1,160,0|0,3:0|3:0,0:0:0:0:
168,72,64458,1,8,0:0:0:0:
248,30,64632,2,0,L|298:31,2,40,0|0|0,0:0|0:0|0:0,0:0:0:0:
166,27,64981,1,2,0:3:0:0:
343,207,65155,6,0,L|426:209,2,80,8|0|0,0:0|3:0|3:2,0:0:0:0:
179,199,65853,2,0,L|176:113,1,80,8|0,0:0|0:0,0:0:0:0:
352,62,66202,2,0,L|163:50,1,160,0|8,0:0|0:0,0:0:0:0:
433,292,66725,6,0,P|482:281|429:217,1,160,0|0,3:0|3:0,0:0:0:0:
359,210,67248,1,8,0:0:0:0:
182,150,67423,2,0,L|349:140,1,160,0|2,0:0|0:3,0:0:0:0:
421,131,67946,1,8,0:0:0:0:
344,71,68121,1,0,3:0:0:0:
166,248,68295,6,0,L|77:251,2,80,0|0|8,3:0|3:0|0:0,0:0:0:0:
246,242,68818,1,0,0:0:0:0:
67,189,68993,2,0,L|64:89,1,80,0|0,0:0|3:0,0:0:0:0:
144,108,69341,1,8,0:0:0:0:
322,98,69516,1,0,3:0:0:0:
402,99,69690,1,0,3:0:0:0:
159,306,69863,6,0,L|68:304,2,80,0|8|0,3:0|0:0|3:0,0:0:0:0:
256,257,70383,2,0,L|262:203,1,40,0|0,3:0|0:0,0:0:0:0:
216,212,70557,2,0,L|211:161,1,40,8|8,0:0|0:0,0:0:0:0:
264,136,70730,1,8,0:0:0:0:
224,131,70817,1,8,0:0:0:0:
184,125,70903,1,8,0:0:0:0:
423,323,71077,6,0,P|471:302|429:202,1,160,4|8,3:2|0:0,0:0:0:0:
198,156,71774,2,0,L|385:149,1,160,0|8,0:0|0:0,0:0:0:0:
178,277,72297,6,0,L|0:286,1,160,0|0,3:0|3:0,0:0:0:0:
95,263,72821,1,8,0:0:0:0:
249,190,73170,2,0,L|310:192,2,40,0|0|2,0:0|0:0|0:3,0:0:0:0:
75,178,73518,2,0,L|71:71,1,80,8|0,0:0|3:0,0:0:0:0:
320,81,73867,6,0,P|371:88|319:157,1,160,0|8,3:0|0:0,0:0:0:0:
80,283,74565,2,0,P|37:268|96:195,1,160,0|8,0:0|0:0,0:0:0:0:
263,201,75088,6,0,P|303:151|215:109,1,160,0|0,3:0|3:0,0:0:0:0:
163,103,75611,1,8,0:0:0:0:
252,38,75786,1,0,0:0:0:0:
212,34,75873,1,0,0:0:0:0:
172,29,75960,1,0,0:0:0:0:
259,113,76135,1,2,0:3:0:0:
84,195,76309,2,0,L|25:192,2,40,8|8|8,0:0|0:0|0:0,0:0:0:0:
328,315,76658,6,0,P|372:298|310:231,1,160,0|8,3:2|0:0,0:0:0:0:
69,220,77356,2,0,P|23:199|83:134,1,160,0|8,0:0|0:0,0:0:0:0:
151,128,77879,1,0,0:0:0:0:
328,82,78053,6,0,L|144:68,1,160,0|8,0:0|0:0,0:0:0:0:
429,278,78751,2,0,P|475:267|416:204,1,160,0|8,0:0|0:0,0:0:0:0:
353,198,79274,2,0,L|442:192,1,80,0|0,3:0|3:0,0:0:0:0:
254,119,79623,6,0,L|159:122,2,80,0|8|0,3:0|0:0|0:0,0:0:0:0:
339,132,80146,2,0,L|349:217,1,80,2|0,0:3|3:3,0:0:0:0:
261,214,80495,2,0,L|252:304,1,80,8|0,0:0|3:3,0:0:0:0:
430,199,80844,6,0,P|479:178|411:117,1,160,0|8,0:0|0:0,0:0:0:0:
262,89,81542,2,0,L|254:188,1,80,0|0,3:3|3:3,0:0:0:0:
338,246,81890,2,0,L|345:153,1,80,8|0,0:0|3:3,0:0:0:0:
100,313,82239,6,0,P|52:305|56:225,1,120,4|0,3:2|0:0,0:0:0:0:
91,229,82588,2,0,L|223:221,1,120,4|0,3:2|0:0,0:0:0:0:
157,136,82937,2,0,L|68:142,1,80,4|0,3:2|3:2,0:0:0:0:
255,51,83286,2,0,L|164:44,1,80,4|0,3:2|0:0,0:0:0:0:
416,268,83635,5,4,3:2:0:0:
277,277,83983,2,0,L|251:190,1,80,0|0,0:0|0:0,0:0:0:0:
428,187,84332,2,0,P|475:173|401:62,1,240,0|0,0:0|0:0,0:0:0:0:
137,278,85030,6,0,L|49:275,1,80,4|0,3:2|3:0,0:0:0:0:
235,239,85379,2,0,P|275:217|221:142,1,160,8|0,0:0|3:0,0:0:0:0:
147,141,85902,1,0,3:0:0:0:
229,68,86077,1,8,0:0:0:0:
405,279,86251,6,0,L|234:266,1,160,0|0,3:0|3:0,0:0:0:0:
165,256,86774,1,8,0:0:0:0:
342,195,86949,2,0,P|392:180|341:106,1,160,0|0,0:0|3:0,0:0:0:0:
180,104,87472,2,0,L|177:189,1,80,8|0,0:0|3:0,0:0:0:0:
422,318,87821,6,0,P|419:267|317:224,1,160,0|8,3:0|0:0,0:0:0:0:
250,222,88344,1,0,0:0:0:0:
331,161,88518,2,0,L|335:73,1,80,0|0,3:0|3:0,0:0:0:0:
254,41,88867,2,0,L|338:33,1,80,8|0,0:0|3:0,0:0:0:0:
155,270,89216,6,0,P|112:257|172:189,1,160,0|8,0:0|0:0,0:0:0:0:
406,99,89914,2,0,L|218:91,1,160,0|8,0:0|0:0,0:0:0:0:
329,59,90437,1,8,0:0:0:0:
153,180,90611,2,0,L|148:277,1,80,0|0,3:2|3:0,0:0:0:0:
394,233,90960,6,0,P|441:222|379:159,1,160,12|0,0:0|3:0,0:0:0:0:
322,147,91483,1,0,3:0:0:0:
241,145,91658,1,8,0:0:0:0:
417,300,91832,6,0,L|238:286,1,160,0|0,3:0|3:0,0:0:0:0:
176,285,92356,1,8,0:0:0:0:
353,210,92530,2,0,L|175:197,1,160,0|0,0:0|3:0,0:0:0:0:
371,123,93053,2,0,L|456:129,1,80,8|0,0:0|3:0,0:0:0:0:
206,274,93402,6,0,L|97:266,1,80,0|0,3:0|0:0,0:0:0:0:
222,217,93751,2,0,L|227:126,1,80,8|0,0:0|0:0,0:0:0:0:
50,79,94100,2,0,L|155:83,1,80,0|0,3:0|3:0,0:0:0:0:
33,136,94449,2,0,L|27:225,1,80,8|0,0:0|3:0,0:0:0:0:
204,221,94797,6,0,L|298:225,1,80,0|8,3:0|0:0,0:0:0:0:
243,222,95059,1,0,0:0:0:0:
204,221,95146,1,0,3:0:0:0:
125,212,95321,1,8,0:0:0:0:
85,210,95408,1,0,0:0:0:0:
45,206,95495,1,0,3:0:0:0:
219,143,95670,1,8,0:0:0:0:
250,178,95757,1,8,0:0:0:0:
257,229,95844,1,0,3:0:0:0:
231,274,95931,1,0,0:0:0:0:
181,290,96018,1,8,0:0:0:0:
424,312,96193,6,0,P|460:284|396:213,1,160,4|8,3:2|0:0,0:0:0:0:
324,214,96716,1,0,0:0:0:0:
149,162,96890,2,0,L|61:157,2,80,0|0|8,3:0|3:0|0:0,0:0:0:0:
326,293,97414,6,0,L|153:287,1,160,0|0,3:0|3:0,0:0:0:0:
248,233,97937,1,8,0:0:0:0:
72,212,98111,2,0,L|70:124,1,80,0|0,0:0|0:0,0:0:0:0:
150,130,98460,1,0,3:0:0:0:
328,115,98635,2,0,L|330:212,1,80,8|0,0:0|3:0,0:0:0:0:
88,319,98983,6,0,P|43:302|109:242,1,160,0|8,3:0|0:0,0:0:0:0:
342,238,99681,2,0,P|379:216|317:152,1,160,0|8,3:0|0:0,0:0:0:0:
242,156,100204,1,0,3:0:0:0:
421,80,100379,6,0,L|427:168,1,80,0|0,0:0|3:0,0:0:0:0:
248,237,100728,2,0,L|154:242,1,80,8|0,0:0|0:0,0:0:0:0:
264,175,101077,2,0,L|270:85,1,80,0|0,0:0|3:0,0:0:0:0:
189,88,101425,1,8,0:0:0:0:
284,29,101600,1,8,0:0:0:0:
107,272,101774,6,0,L|101:177,1,80,0|0,3:2|3:0,0:0:0:0:
344,257,102123,2,0,P|385:250|328:185,1,160,12|0,0:0|3:0,0:0:0:0:
268,175,102646,1,0,3:0:0:0:
349,107,102821,1,8,0:0:0:0:
172,272,102995,6,0,P|128:255|186:190,1,160,0|0,3:0|3:0,0:0:0:0:
352,188,103518,2,0,L|355:97,1,80,8|0,0:0|0:0,0:0:0:0:
176,54,103867,2,0,L|277:59,1,80,0|0,0:0|3:0,0:0:0:0:
336,61,104216,2,0,L|430:67,1,80,8|8,0:0|0:0,0:0:0:0:
237,237,104565,2,0,L|141:232,1,80,0|0,3:0|3:0,0:0:0:0:
403,328,104914,2,0,L|486:331,1,80,8|0,0:0|3:0,0:0:0:0:
306,258,105263,1,0,3:0:0:0:
226,259,105437,2,0,L|229:171,1,80,0|8,3:0|0:0,0:0:0:0:
414,157,105786,6,0,L|249:150,1,160,0|0,3:0|3:0,0:0:0:0:
437,98,106309,2,0,L|449:12,1,80,8|0,0:0|3:0,0:0:0:0:
273,285,106658,1,8,0:0:0:0:
225,264,106745,1,0,0:0:0:0:
203,216,106832,1,0,3:0:0:0:
203,163,106920,1,0,0:0:0:0:
232,120,107007,1,8,0:3:0:0:
278,97,107094,1,8,0:3:0:0:
329,90,107181,1,8,0:0:0:0:
93,294,107356,6,0,L|9:289,1,80,4|0,3:2|3:0,0:0:0:0:
191,252,107704,2,0,L|195:169,1,80,8|0,0:0|0:0,0:0:0:0:
107,112,108053,2,0,L|192:117,2,80,0|0|8,3:0|3:0|0:0,0:0:0:0:
286,267,108577,2,0,L|119:260,1,160,0|0,3:0|3:0,0:0:0:0:
212,199,109100,1,8,0:0:0:0:
32,174,109274,6,0,L|30:81,1,80,0|0,0:0|0:0,0:0:0:0:
115,88,109623,1,0,3:0:0:0:
291,63,109797,2,0,L|382:61,1,80,8|0,0:0|3:0,0:0:0:0:
130,293,110146,6,0,P|93:270|153:201,1,160,0|8,3:0|0:0,0:0:0:0:
400,139,110844,2,0,L|309:136,2,80,0|0|8,3:0|3:0|0:0,0:0:0:0:
223,253,111367,6,0,L|415:261,1,160,0|0,3:0|3:0,0:0:0:0:
463,260,111890,2,0,L|466:170,1,80,8|0,0:0|0:0,0:0:0:0:
288,156,112239,2,0,L|205:152,1,80,0|0,0:0|3:0,0:0:0:0:
308,85,112588,2,0,L|398:89,1,80,8|8,0:0|0:0,0:0:0:0:
210,38,112937,2,0,L|123:35,1,80,0|0,3:2|3:0,0:0:0:0:
374,300,113286,6,0,P|423:287|363:230,1,160,12|0,0:0|3:0,0:0:0:0:
296,220,113809,1,0,3:0:0:0:
472,176,113983,2,0,L|477:85,1,80,8|0,0:0|3:0,0:0:0:0:
380,47,114332,2,0,L|469:50,1,80,0|0,0:0|3:0,0:0:0:0:
283,299,114681,5,8,0:0:0:0:
203,261,114856,1,0,0:0:0:0:
206,173,115030,1,0,0:0:0:0:
287,139,115204,1,0,3:0:0:0:
111,108,115379,2,0,L|107:205,1,80,8|0,0:0|3:0,0:0:0:0:
347,281,115728,6,0,L|167:271,1,160,0|8,3:0|0:0,0:0:0:0:
441,234,116425,2,0,P|493:223|444:143,1,160,0|8,3:0|0:0,0:0:0:0:
387,138,116949,1,0,3:0:0:0:
213,157,117123,6,0,L|161:155,2,40,0|0|8,3:0|0:0|0:0,0:0:0:0:
293,156,117472,1,0,3:0:0:0:
117,78,117646,2,0,L|58:75,2,40,8|8|0,0:0|0:0|3:0,0:0:0:0:
295,313,117995,1,8,0:0:0:0:
322,268,118082,1,8,0:0:0:0:
321,215,118170,1,0,3:0:0:0:
290,172,118257,1,0,0:0:0:0:
240,157,118344,1,8,0:0:0:0:
482,234,118518,6,0,P|503:199|416:132,1,160,4|8,3:2|0:0,0:0:0:0:
352,128,119042,1,0,0:0:0:0:
266,64,119216,2,0,L|346:67,2,80,0|0|8,3:0|3:0|0:0,0:0:0:0:
445,271,119739,6,0,L|266:261,1,160,0|0,3:0|3:0,0:0:0:0:
205,252,120263,1,8,0:0:0:0:
381,193,120437,2,0,L|384:107,1,80,0|0,0:0|3:0,0:0:0:0:
303,108,120786,1,0,3:0:0:0:
479,121,120960,2,0,L|484:31,1,80,8|0,0:0|3:0,0:0:0:0:
234,292,121309,6,0,P|188:279|226:199,1,160,0|8,3:0|0:0,0:0:0:0:
301,194,121832,1,0,0:0:0:0:
125,199,122007,1,0,3:0:0:0:
110,120,122181,1,0,3:0:0:0:
200,80,122356,1,8,0:0:0:0:
111,55,122530,1,0,3:0:0:0:
289,298,122704,6,0,P|330:291|292:211,1,160,0|8,0:0|0:0,0:0:0:0:
217,211,123228,1,0,0:0:0:0:
44,131,123402,2,0,L|152:126,1,80,0|0,0:0|3:0,0:0:0:0:
38,54,123751,2,0,L|128:51,1,80,8|8,0:0|0:0,0:0:0:0:
295,49,124100,2,0,L|402:45,1,80,0|0,3:2|3:0,0:0:0:0:
136,308,124449,6,0,P|92:293|144:228,1,160,12|0,0:0|3:0,0:0:0:0:
220,224,124972,1,0,3:0:0:0:
135,154,125146,1,8,0:0:0:0:
311,152,125321,2,0,L|404:151,1,80,0|0,3:0|0:0,0:0:0:0:
298,79,125670,2,0,L|211:73,1,80,0|8,3:0|0:0,0:0:0:0:
395,228,126018,2,0,L|401:309,1,80,0|0,0:0|3:0,0:0:0:0:
311,239,126367,2,0,L|304:148,1,80,0|8,3:0|0:0,0:0:0:0:
395,149,126716,1,0,3:0:0:0:
150,270,126890,6,0,L|52:269,1,80,4|0,3:2|0:0,0:0:0:0:
245,208,127239,2,0,L|328:207,1,80,8|0,0:0|3:0,0:0:0:0:
232,130,127588,2,0,L|401:125,1,160,0|8,3:0|0:0,0:0:0:0:
472,124,128111,1,0,3:0:0:0:
225,264,128286,6,0,L|126:256,1,80,0|8,3:0|0:0,0:0:0:0:
185,254,128547,1,8,0:0:0:0:
225,249,128635,1,8,0:0:0:0:
399,250,128809,2,0,L|404:157,1,80,8|8,0:0|0:3,0:0:0:0:
323,167,129158,1,8,0:3:0:0:
495,98,129332,2,0,L|408:96,1,80,8|0,0:0|0:0,0:0:0:0:
163,258,129681,6,0,L|155:78,1,160,4|0,3:2|3:2,0:0:0:0:
320,68,130379,2,0,L|232:63,1,80,0|0,3:2|0:0,0:0:0:0:
159,61,130728,1,0,3:2:0:0:
245,175,130902,6,0,L|411:182,2,160,0|0|0,0:0|0:0|0:0,0:0:0:0:
71,211,131774,2,0,L|66:305,1,80,0|0,3:2|0:0,0:0:0:0:
243,209,132123,2,0,L|358:216,1,80,0|0,3:2|0:0,0:0:0:0:
75,162,132472,6,0,P|37:139|101:66,1,160,12|0,3:2|3:2,0:0:0:0:
264,284,132995,1,12,0:0:0:0:
183,281,133170,1,0,0:0:0:0:
103,275,133344,1,0,0:0:0:0:
281,203,133518,2,0,L|288:107,1,80,12|0,3:2|0:0,0:0:0:0:
206,121,133867,1,0,3:2:0:0:
382,278,134042,6,0,L|468:282,2,80,12|0|0,0:0|3:2|0:0,0:0:0:0:
204,290,134565,2,0,L|197:194,1,80,12|0,3:2|0:0,0:0:0:0:
287,162,134914,2,0,L|175:153,1,80,0|8,3:2|0:3,0:0:0:0:
453,262,135263,6,0,P|494:236|441:159,1,160,0|8,3:3|3:3,0:0:0:0:
272,95,135960,2,0,L|355:100,2,80,0|0|8,3:3|0:0|3:3,0:0:0:0:
186,206,136483,6,0,L|16:197,1,160,0|0,0:0|0:0,0:0:0:0:
106,195,137007,1,8,3:3:0:0:
185,195,137181,1,0,0:0:0:0:
361,139,137356,2,0,L|269:134,1,80,0|0,3:3|0:0,0:0:0:0:
383,189,137704,2,0,L|390:281,1,80,8|0,3:3|0:0,0:0:0:0:
138,232,138053,6,0,L|133:145,1,80,12|8,3:2|0:3,0:0:0:0:
173,144,138315,1,0,0:0:0:0:
212,140,138402,1,0,3:0:0:0:
390,59,138577,2,0,L|397:163,1,80,12|12,3:2|3:2,0:0:0:0:
315,142,138925,1,0,3:3:0:0:
403,210,139100,1,12,3:2:0:0:
225,248,139274,6,0,L|165:245,2,40,8|0|0,0:3|0:0|3:0,0:0:0:0:
401,148,139623,2,0,L|304:142,2,80,8|8|0,0:0|0:0|3:0,0:0:0:0:
225,181,140146,1,8,0:0:0:0:
129,198,140321,1,8,0:0:0:0:
86,227,140408,1,8,0:0:0:0:
75,277,140495,1,8,0:0:0:0:
96,324,140582,1,8,0:0:0:0:
147,332,140670,1,8,0:0:0:0:
389,288,140844,6,0,L|473:284,1,80,4|0,3:2|3:0,0:0:0:0:
370,212,141193,2,0,L|464:205,1,80,8|0,0:0|0:0,0:0:0:0:
271,152,141542,2,0,L|185:159,2,80,0|0|8,3:0|3:0|0:0,0:0:0:0:
449,79,142065,6,0,L|290:68,1,160,0|0,3:0|3:0,0:0:0:0:
111,188,142588,2,0,L|104:281,1,80,8|0,0:0|3:0,0:0:0:0:
203,290,142937,2,0,L|305:284,1,80,0|0,0:0|3:0,0:0:0:0:
182,353,143286,2,0,L|82:342,1,80,8|0,0:0|0:0,0:0:0:0:
280,218,143635,6,0,P|332:209|281:145,1,160,0|8,3:0|0:0,0:0:0:0:
124,77,144332,2,0,L|223:81,2,80,0|0|8,3:0|0:0|0:0,0:0:0:0:
307,269,144856,6,0,L|312:186,1,80,0|0,3:0|0:0,0:0:0:0:
221,160,145204,1,0,3:0:0:0:
313,124,145379,1,8,0:0:0:0:
136,277,145553,2,0,P|88:253|145:192,1,160,0|0,3:0|3:0,0:0:0:0:
224,121,146077,2,0,L|135:114,1,80,8|2,0:0|0:3,0:0:0:0:
385,310,146425,6,0,P|440:294|379:222,1,160,4|8,3:2|0:0,0:0:0:0:
229,201,146949,2,0,L|141:197,1,80,0|0,0:0|3:0,0:0:0:0:
246,126,147297,2,0,L|331:128,1,80,0|8,3:0|0:0,0:0:0:0:
147,283,147646,6,0,L|314:293,1,160,0|0,3:0|3:0,0:0:0:0:
128,193,148170,2,0,L|42:189,1,80,8|0,0:0|3:0,0:0:0:0:
142,127,148518,2,0,L|243:130,1,80,0|0,0:0|3:0,0:0:0:0:
46,52,148867,2,0,L|44:101,1,40,8|0,0:0|0:0,0:0:0:0:
84,96,149042,1,0,0:0:0:0:
325,281,149216,6,0,P|347:242|262:193,1,160,0|8,3:0|0:0,0:0:0:0:
441,101,149914,2,0,L|355:95,2,80,0|0|8,3:0|0:0|0:0,0:0:0:0:
262,249,150437,6,0,L|175:240,1,80,0|0,3:0|0:0,0:0:0:0:
359,188,150786,2,0,L|366:98,1,80,8|8,0:0|0:0,0:0:0:0:
188,67,151135,2,0,L|180:167,1,80,8|0,0:0|3:0,0:0:0:0:
271,205,151483,1,8,3:0:0:0:
191,212,151658,1,8,0:0:0:0:
111,220,151832,1,0,3:0:0:0:
355,301,152007,6,0,L|438:303,1,80,4|0,3:2|0:0,0:0:0:0:
349,233,152356,2,0,L|261:231,1,80,8|0,0:0|0:0,0:0:0:0:
308,223,152617,1,8,0:3:0:0:
347,215,152704,1,4,0:3:0:0:
260,161,152879,1,0,3:0:0:0:
436,165,153053,2,0,L|438:78,1,80,8|0,0:0|3:0,0:0:0:0:
357,81,153402,1,0,0:0:0:0:
179,257,153577,2,0,L|79:253,1,80,0|8,3:0|0:0,0:0:0:0:
339,208,153925,6,0,L|391:212,2,40,0|8|4,0:0|0:3|0:3,0:0:0:0:
259,200,154274,1,0,3:0:0:0:
432,123,154449,2,0,L|489:127,2,40,8|0|0,0:0|0:0|0:0,0:0:0:0:
187,298,154797,6,0,P|141:292|188:220,1,160,0|8,3:2|0:0,0:0:0:0:
334,128,155495,1,4,0:3:0:0:
253,121,155670,1,0,3:0:0:0:
173,113,155844,1,8,0:0:0:0:
413,300,156018,6,0,P|458:293|401:235,1,160,0|0,3:0|3:0,0:0:0:0:
239,238,156542,1,8,0:0:0:0:
305,192,156716,1,0,0:0:0:0:
303,112,156890,1,4,0:3:0:0:
282,78,156978,1,0,0:0:0:0:
246,61,157065,1,0,3:0:0:0:
68,121,157239,1,8,0:0:0:0:
113,117,157327,1,8,0:0:0:0:
157,113,157414,1,0,3:3:0:0:
403,308,157588,6,0,P|424:274|331:213,1,160,4|8,3:2|0:0,0:0:0:0:
188,135,158286,1,4,0:3:0:0:
267,134,158460,1,0,3:0:0:0:
347,130,158635,1,8,0:0:0:0:
171,301,158809,6,0,P|126:283|185:216,1,160,0|0,3:0|3:0,0:0:0:0:
251,207,159332,1,8,0:0:0:0:
73,169,159507,5,0,0:0:0:0:
33,196,159594,1,8,0:3:0:0:
19,242,159681,1,4,0:3:0:0:
37,286,159768,1,0,0:0:0:0:
80,308,159856,1,0,3:0:0:0:
127,302,159943,1,0,0:0:0:0:
156,264,160030,1,8,0:0:0:0:
151,216,160117,1,8,0:3:0:0:
116,183,160204,1,4,0:3:0:0:
367,255,160379,6,0,P|433:243|458:161,1,160,4|4,3:2|3:2,0:0:0:0:
36,176,161077,2,0,P|7:134|84:73,1,160,4|4,3:2|3:2,0:0:0:0:
496,84,161774,1,4,3:2:0:0:
256,192,161949,12,0,162995,0:0:0:0:
325,289,170844,6,0,L|327:205,1,80,2|2,0:3|3:0,0:0:0:0:
150,198,171159,2,0,L|54:195,1,80,8|0,0:0|3:0,0:0:0:0:
290,109,171475,6,0,L|383:112,1,80,4|0,3:2|3:0,0:0:0:0:
194,312,171823,2,0,P|149:287|213:231,1,160,8|0,0:0|3:0,0:0:0:0:
284,237,172347,1,0,3:0:0:0:
204,160,172521,1,8,0:0:0:0:
378,169,172695,6,0,P|422:152|368:86,1,160,0|0,3:0|3:0,0:0:0:0:
292,88,173219,1,8,0:0:0:0:
115,219,173393,2,0,L|21:216,2,80,0|0|0,0:0|0:0|3:0,0:0:0:0:
292,226,173916,2,0,L|396:228,1,80,8|0,0:0|3:0,0:0:0:0:
124,140,174265,6,0,P|67:115|107:65,1,120,4|0,3:2|0:0,0:0:0:0:
122,64,174614,1,8,0:0:0:0:
380,237,174963,2,0,L|470:232,1,80,0|0,3:0|3:0,0:0:0:0:
371,165,175312,2,0,L|258:157,1,80,8|0,0:0|3:0,0:0:0:0:
469,107,175661,6,0,L|473:55,1,40,0|0,0:0|0:0,0:0:0:0:
432,62,175835,1,0,3:0:0:0:
331,227,176009,1,8,0:0:0:0:
371,225,176097,1,0,0:0:0:0:
410,223,176184,1,0,3:0:0:0:
317,154,176358,1,8,0:0:0:0:
277,152,176445,1,0,0:0:0:0:
236,147,176533,1,0,3:0:0:0:
415,92,176707,2,0,L|462:91,2,40,8|0|0,0:0|0:0|3:0,0:0:0:0:
172,251,177056,6,0,L|342:243,1,160,4|8,3:2|0:0,0:0:0:0:
78,126,177754,2,0,L|170:132,2,80,0|0|8,3:2|3:2|0:2,0:0:0:0:
258,253,178277,6,0,P|312:237|257:182,1,160,0|0,0:0|3:2,0:0:0:0:
182,180,178800,1,8,0:2:0:0:
361,97,178975,2,0,L|188:88,1,160,0|0,3:2|3:2,0:0:0:0:
379,218,179498,2,0,L|468:211,1,80,8|0,0:2|3:2,0:0:0:0:
210,305,179847,6,0,P|162:288|214:222,1,160,0|8,3:2|0:2,0:0:0:0:
465,154,180544,2,0,P|501:124|439:62,1,160,0|8,3:2|0:2,0:0:0:0:
178,292,181242,5,0,0:0:0:0:
264,278,181416,1,0,3:2:0:0:
311,203,181591,1,8,0:2:0:0:
308,115,181765,1,0,3:2:0:0:
251,47,181940,1,0,3:2:0:0:
164,30,182114,1,0,3:2:0:0:
250,73,182288,2,0,L|146:84,1,80,8|8,0:2|0:2,0:0:0:0:
345,218,182637,2,0,L|437:220,1,80,0|0,3:2|3:0,0:0:0:0:
178,324,182986,6,0,P|126:314|187:247,1,160,12|0,0:0|3:0,0:0:0:0:
237,233,183509,1,0,3:0:0:0:
317,228,183684,1,8,0:0:0:0:
138,124,183858,6,0,L|327:107,1,160,0|0,3:0|3:0,0:0:0:0:
377,101,184381,1,8,0:0:0:0:
201,246,184556,2,0,L|111:240,2,80,0|0|0,0:0|0:0|3:0,0:0:0:0:
381,267,185079,2,0,L|386:167,1,80,8|0,0:0|3:0,0:0:0:0:
206,153,185428,2,0,L|107:147,1,80,0|0,3:0|3:0,0:0:0:0:
371,43,185777,5,8,0:0:0:0:
295,87,185951,1,0,3:0:0:0:
293,167,186126,1,0,3:0:0:0:
363,204,186300,1,0,3:0:0:0:
451,232,186475,2,0,L|461:137,1,80,8|0,0:0|3:0,0:0:0:0:
208,251,186823,6,0,L|119:244,1,80,8|8,0:0|0:0,0:0:0:0:
305,192,187163,2,0,L|395:188,1,80,8|8,0:0|0:0,0:0:0:0:
141,112,187504,2,0,L|40:104,3,80,8|8|0|0,0:0|0:0|3:0|3:0,0:0:0:0:
305,294,188193,6,0,L|126:280,1,160,4|0,3:2|3:0,0:0:0:0:
399,187,188890,2,0,L|493:182,2,80,8|0|0,0:0|0:0|3:0,0:0:0:0:
222,144,189413,6,0,L|216:239,1,80,4|0,3:2|0:0,0:0:0:0:
317,139,189762,2,0,L|325:53,1,80,4|0,3:2|0:0,0:0:0:0:
217,54,190111,1,0,3:0:0:0:
392,273,190286,2,0,L|479:269,1,80,8|0,0:0|3:0,0:0:0:0:
381,194,190634,2,0,L|467:190,1,80,0|0,3:0|0:0,0:0:0:0:
214,278,190983,6,0,P|156:267|216:206,1,160,4|4,3:2|3:2,0:0:0:0:
353,128,191681,2,0,L|182:117,1,160,8|0,0:0|3:0,0:0:0:0:
281,74,192204,1,4,3:2:0:0:
102,280,192379,6,0,P|57:273|111:202,1,160,0|0,0:0|0:0,0:0:0:0:
266,124,193076,2,0,L|182:121,1,80,8|8,0:0|0:3,0:0:0:0:
95,67,193425,2,0,L|193:58,1,80,4|4,3:3|3:3,0:0:0:0:
419,287,193774,6,0,P|459:263|395:192,1,160,4|4,3:2|3:2,0:0:0:0:
158,138,194472,1,8,0:0:0:0:
237,134,194646,1,0,0:0:0:0:
316,130,194820,1,0,3:0:0:0:
137,278,194995,6,0,L|124:378,1,80,4|0,3:2|0:0,0:0:0:0:
225,274,195344,2,0,L|236:186,1,80,4|0,3:2|0:0,0:0:0:0:
142,183,195693,1,0,3:0:0:0:
241,123,195867,2,0,L|151:116,1,80,8|0,0:0|0:0,0:0:0:0:
336,96,196216,2,0,L|381:93,2,40,8|8|8,0:0|0:0|0:0,0:0:0:0:
96,288,196565,6,0,L|2:285,2,80,0|8|4,3:2|0:0|3:2,0:0:0:0:
351,236,197262,2,0,L|361:138,1,80,12|0,3:2|0:0,0:0:0:0:
181,161,197611,2,0,L|176:76,1,80,4|0,3:2|0:0,0:0:0:0:
353,54,197960,5,4,3:2:0:0:
313,53,198048,1,0,0:0:0:0:
273,50,198136,1,0,3:0:0:0:
366,140,198312,1,8,0:0:0:0:
406,137,198401,1,0,0:0:0:0:
445,134,198489,1,0,3:0:0:0:
267,276,198665,5,8,0:0:0:0:
217,260,198754,1,0,0:0:0:0:
194,213,198843,1,0,3:0:0:0:
203,162,198932,1,0,3:0:0:0:
234,119,199022,1,8,0:0:0:0:
281,97,199111,1,0,0:0:0:0:
332,96,199200,1,8,0:0:0:0:
76,284,199379,6,0,P|34:263|107:200,1,160,4|8,3:2|0:0,0:0:0:0:
159,194,199893,1,0,0:0:0:0:
75,132,200064,2,0,L|69:44,1,80,0|0,3:0|3:0,0:0:0:0:
161,28,200410,2,0,L|48:20,1,80,8|0,0:0|3:0,0:0:0:0:
257,265,200757,6,0,L|92:271,1,160,0|8,0:0|0:0,0:0:0:0:
178,223,201280,1,0,0:0:0:0:
270,215,201454,2,0,L|276:126,1,80,0|0,3:0|3:0,0:0:0:0:
100,128,201803,2,0,L|89:39,1,80,8|0,0:0|3:0,0:0:0:0:
334,308,202152,6,0,P|383:290|334:225,1,160,0|8,3:0|0:0,0:0:0:0:
75,164,202850,2,0,P|36:139|112:84,1,160,0|8,3:0|0:0,0:0:0:0:
351,191,203547,6,0,L|245:182,1,80,0|0,0:0|3:0,0:0:0:0:
370,144,203896,2,0,L|377:58,1,80,8|0,0:0|0:0,0:0:0:0:
276,101,204245,2,0,L|269:10,1,80,0|0,3:0|3:0,0:0:0:0:
367,226,204594,2,0,L|459:215,1,80,8|8,0:0|0:0,0:0:0:0:
271,301,204943,2,0,L|181:290,1,80,0|0,3:2|3:0,0:0:0:0:
436,143,205291,6,0,P|478:127|418:66,1,160,12|0,0:0|3:0,0:0:0:0:
347,65,205815,1,0,3:0:0:0:
166,236,205989,2,0,L|349:235,1,160,8|0,0:0|0:0,0:0:0:0:
145,158,206512,6,0,L|50:152,1,80,0|8,3:0|0:0,0:0:0:0:
158,87,206861,2,0,L|253:83,1,80,0|0,0:0|3:0,0:0:0:0:
52,292,207210,2,0,L|45:207,1,80,0|8,3:0|0:0,0:0:0:0:
124,201,207559,1,0,3:0:0:0:
299,253,207733,2,0,L|388:252,1,80,4|0,3:2|0:0,0:0:0:0:
196,145,208085,2,0,L|90:138,1,80,4|0,3:2|0:0,0:0:0:0:
296,72,208438,2,0,L|305:167,1,80,4|0,3:2|0:0,0:0:0:0:
128,258,208791,2,0,L|121:162,1,80,4|0,3:2|0:0,0:0:0:0:
380,156,209144,1,4,3:2:0:0:
256,192,209321,12,0,213027,0:0:0:0:
160,196,214928,6,0,L|338:187,1,160,2|0,0:0|0:0,0:0:0:0:
222,153,215495,1,0,0:0:0:0:
362,108,215800,1,0,0:0:0:0:
246,53,216062,1,0,0:0:0:0:
445,94,216367,1,0,0:0:0:0:
256,192,216498,12,0,222603,0:0:0:0:
