osu file format v14

[General]
AudioFilename: audio.mp3
AudioLeadIn: 0
PreviewTime: 83896
Countdown: 0
SampleSet: Soft
StackLeniency: 0.7
Mode: 2
LetterboxInBreaks: 0
WidescreenStoryboard: 1

[Editor]
Bookmarks: 26435,59923,96193,129681,160379,188193
DistanceSpacing: 1.3
BeatDivisor: 4
GridSize: 32
TimelineZoom: 2.3

[Metadata]
Title:Parade
TitleUnicode:Parade
Artist:Carpool Tunnel
ArtistUnicode:Carpool Tunnel
Creator:Dapuluous
Version:Collab Rain
Source:osu!
Tags:english indie rock osu! featured artist mappers guild jemzuu ajamez crowley du5t idu5t dust idust
BeatmapID:2218624
BeatmapSetID:1036382

[Difficulty]
HPDrainRate:6
CircleSize:4
OverallDifficulty:9
ApproachRate:9
SliderMultiplier:1.8
SliderTickRate:2

[Events]
//Background and Video events
0,0,"115.jpg",0,0
//Break Periods
2,165960,170059
//Storyboard Layer 0 (Background)
//Storyboard Layer 1 (Fail)
//Storyboard Layer 2 (Pass)
//Storyboard Layer 3 (Foreground)
//Storyboard Layer 4 (Overlay)
//Storyboard Sound Samples

[TimingPoints]
1402,340.909090909091,4,2,11,30,1,0
1402,-133.333333333333,4,2,11,30,0,0
2765,352.941176470588,4,2,11,30,1,0
4176,348.837209302326,4,2,11,30,1,0
4176,-181.818181818181,4,2,11,30,0,0
5571,355.029585798817,4,2,11,30,1,0
6991,-133.333333333333,4,2,11,30,0,0
8411,352.941176470588,4,2,11,30,1,0
9822,346.820809248555,4,2,11,30,1,0
9822,-133.333333333333,4,2,11,30,0,0
11873,348.837209302326,4,2,11,30,1,0
12570,352.941176470588,4,2,11,30,1,0
12570,-133.333333333333,4,2,11,30,0,0
13981,347.826086956522,4,2,11,40,1,0
15372,-133.333333333333,4,2,11,40,0,0
16763,350.877192982456,4,2,11,40,1,0
16763,-153.846153846153,4,2,11,40,0,0
18166,346.820809248555,4,2,11,40,1,0
18166,-133.333333333333,4,2,11,40,0,0
19553,340.909090909091,4,2,11,40,1,0
20916,352.941176470588,4,2,11,40,1,0
20916,-200,4,2,11,40,0,0
23739,337.078651685393,4,2,11,40,1,0
23739,-399.999999999997,4,2,11,40,0,0
25761,-133.333333333333,4,2,11,40,0,0
26435,348.837209302326,4,2,11,55,1,1
26435,-90.9090909090909,4,2,11,55,0,1
48760,-100,4,2,11,60,0,0
59923,-100,4,2,11,60,0,0
69690,346.820809248555,4,2,11,60,1,0
71077,348.837209302326,4,2,11,60,1,0
82239,-66.6666666666667,4,2,11,60,0,0
82937,-83.3333333333333,4,2,11,60,0,0
85030,-90.9090909090909,4,2,11,70,0,1
118518,-90.9090909090909,4,2,11,70,0,1
127239,-90.9090909090909,4,2,11,70,0,1
129681,-111.111111111111,4,2,11,50,0,0
134042,-90.9090909090908,4,2,11,50,0,0
134914,-111.111111111111,4,2,11,50,0,0
138053,-100,4,2,11,55,0,0
140844,-90.9090909090909,4,2,11,55,0,0
160379,-83.3333333333333,4,2,11,55,0,0
161077,-83.3333333333333,4,2,11,55,0,0
170844,315.789473684211,4,2,11,60,1,0
170844,-100,4,2,11,60,0,0
171475,348.837209302326,4,2,11,70,1,1
171475,-86.9565217391304,4,2,11,70,0,1
186823,340.909090909091,4,2,11,70,1,1
187504,344.827586206897,4,2,11,70,1,1
188193,348.837209302326,4,2,11,70,1,0
188193,-100,4,2,11,70,0,0
197960,352.941176470588,4,2,11,70,1,0
198665,357.142857142857,4,2,11,70,1,0
199379,342.857142857143,4,2,11,70,1,0
200064,346.820809248555,4,2,11,70,1,0
200757,348.837209302326,4,2,11,70,1,0
207733,352.941176470588,4,2,11,70,1,0
209850,-100,4,2,11,60,0,0
210556,-100,4,2,11,50,0,0
211262,-100,4,2,11,40,0,0
211968,-100,4,2,11,30,0,0
212674,-100,4,2,11,20,0,0
214580,348.837209302326,4,2,11,40,1,0
217370,-100,4,2,11,30,0,0
218766,-100,4,2,11,20,0,0
220161,-100,4,2,11,10,0,0

[Colours]
Combo1 : 255,164,255
Combo2 : 128,128,255
Combo3 : 255,102,179
Combo4 : 255,255,102

[HitObjects]
76,76,1402,6,0,P|192:108|30:356,1,540.000020599366,2|2,0:0|0:0,0:0:0:0:
452,190,4176,2,0,L|48:189,1,396.000012084961,2|2,0:0|0:0,0:0:0:0:
468,26,6991,6,0,P|470:190|163:353,1,540.000020599366,2|2,0:0|0:0,0:0:0:0:
466,326,9822,2,0,P|272:292|447:127,1,540.000020599366,2|2,0:0|0:0,0:0:0:0:
28,82,12570,6,0,P|212:77|361:367,1,540,2|2,0:0|0:0,0:0:0:0:
35,355,15372,2,0,P|186:293|24:49,1,540,2|2,0:0|0:0,0:0:0:0:
451,336,18166,6,0,P|451:242|100:29,1,540.000020599366,2|2,0:0|0:0,0:0:0:0:
380,34,20916,2,0,B|402:16|479:35|522:82|503:149|451:191|392:114|350:121|310:141|284:197|329:250|389:266|447:230|511:222|515:276|500:342|408:356|308:327|310:297,1,607.5,2|0,0:0|0:0,0:0:0:0:
18,7,23739,6,0,L|43:226,1,213.75,2|0,0:0|0:0,0:0:0:0:
257,215,25761,2,0,L|32:232,1,202.500007724762,0|0,0:0|0:0,0:0:0:0:
346,354,26435,6,0,L|453:344,1,99.0000030212403,4|0,3:2|3:0,0:0:0:0:
199,285,26783,2,0,P|146:257|240:194,1,198.000006042481,8|0,0:0|3:0,0:0:0:0:
335,97,27307,2,0,L|215:84,1,99.0000030212403,0|8,3:0|0:0,0:0:0:0:
69,138,27655,2,0,L|46:341,1,198.000006042481,0|0,3:0|3:0,0:0:0:0:
299,370,28179,1,8,0:0:0:0:
161,347,28353,2,0,L|149:234,1,99.0000030212403,0|0,0:0|3:0,0:0:0:0:
284,203,28702,1,0,3:0:0:0:
120,124,28876,2,0,L|219:104,1,99.0000030212403,8|0,0:0|3:0,0:0:0:0:
481,55,29225,6,0,L|261:19,2,198.000006042481,0|8|0,3:0|0:0|3:0,0:0:0:0:
362,126,30097,1,0,3:0:0:0:
482,187,30272,1,8,0:0:0:0:
225,251,30446,1,0,3:0:0:0:
107,331,30621,6,0,L|245:354,1,99.0000030212403,0|0,0:0|3:0,0:0:0:0:
376,289,30969,2,0,P|399:232|284:157,1,198.000006042481,8|0,0:0|3:0,0:0:0:0:
179,152,31493,2,0,L|164:24,1,99.0000030212403,0|8,3:0|0:0,0:0:0:0:
304,21,31841,2,0,L|373:30,1,49.5000015106202,8|8,0:0|0:0,0:0:0:0:
173,254,32016,2,0,L|42:242,1,99.0000030212403,0|0,3:2|3:0,0:0:0:0:
323,351,32365,6,0,P|277:279|160:257,1,198.000006042481,8|0,0:0|3:0,0:0:0:0:
301,224,32888,2,0,L|312:119,1,99.0000030212403,0|8,3:0|0:0,0:0:0:0:
144,78,33237,2,0,L|351:47,1,198.000006042481,0|0,3:0|3:0,0:0:0:0:
321,164,33760,1,8,0:0:0:0:
74,220,33935,2,0,L|98:333,1,99.0000030212403,0|0,0:0|3:0,0:0:0:0:
234,357,34283,1,0,3:0:0:0:
62,323,34458,2,0,L|186:294,1,99.0000030212403,8|0,0:0|3:0,0:0:0:0:
427,313,34807,6,0,L|456:211,1,99.0000030212403,0|0,3:0|0:0,0:0:0:0:
301,188,35155,2,0,L|279:76,1,99.0000030212403,8|0,0:0|0:0,0:0:0:0:
447,36,35504,2,0,L|301:16,1,99.0000030212403,0|0,3:0|3:0,0:0:0:0:
94,144,35853,1,8,0:0:0:0:
228,186,36028,1,0,3:0:0:0:
92,248,36202,5,0,3:0:0:0:
46,259,36289,1,0,0:0:0:0:
32,304,36376,1,8,0:0:0:0:
65,339,36463,1,0,0:0:0:0:
251,358,36551,2,0,L|310:349,1,49.5000015106202,0|0,3:0|0:0,0:0:0:0:
235,318,36725,2,0,L|175:311,1,49.5000015106202,0|0,0:0|0:0,0:0:0:0:
243,282,36900,2,0,L|304:269,1,49.5000015106202,0|0,3:0|0:0,0:0:0:0:
461,234,37074,5,0,3:0:0:0:
490,196,37161,1,0,0:0:0:0:
479,150,37248,1,0,3:0:0:0:
435,130,37335,1,0,0:0:0:0:
267,89,37423,2,0,L|188:73,1,49.5000015106202,8|0,0:0|0:0,0:0:0:0:
413,38,37597,6,0,P|461:67|365:134,1,198.000006042481,4|8,3:2|0:0,0:0:0:0:
134,260,38295,2,0,L|26:264,2,99.0000030212403,0|0|8,3:0|3:0|0:0,0:0:0:0:
303,180,38818,2,0,L|85:157,1,198.000006042481,0|0,3:0|3:0,0:0:0:0:
241,102,39341,1,8,0:0:0:0:
79,100,39516,2,0,P|34:166|138:215,1,198.000006042481,0|0,0:0|3:0,0:0:0:0:
249,268,40039,1,8,0:0:0:0:
114,335,40214,1,0,3:0:0:0:
399,313,40388,6,0,L|510:300,1,99.0000030212403,0|0,3:0|0:0,0:0:0:0:
335,211,40737,2,0,L|324:92,1,99.0000030212403,8|0,0:0|0:0,0:0:0:0:
489,51,41086,2,0,L|374:35,2,99.0000030212403,0|0|8,3:0|0:0|0:0,0:0:0:0:
234,161,41609,1,0,3:0:0:0:
367,197,41783,6,0,L|352:311,1,99.0000030212403,0|0,0:0|3:0,0:0:0:0:
190,347,42132,2,0,L|317:358,1,99.0000030212403,8|0,0:0|0:0,0:0:0:0:
136,256,42481,2,0,L|6:263,1,99.0000030212403,0|0,0:0|3:0,0:0:0:0:
191,171,42830,1,8,0:0:0:0:
25,142,43004,2,0,L|102:129,1,49.5000015106202,8|8,0:0|0:0,0:0:0:0:
258,58,43179,6,0,L|368:46,1,99.0000030212403,0|0,3:2|3:0,0:0:0:0:
90,132,43528,2,0,P|125:212|261:220,1,198.000006042481,12|0,0:0|3:0,0:0:0:0:
99,330,44051,2,0,L|227:341,1,99.0000030212403,0|8,3:0|0:0,0:0:0:0:
370,132,44400,2,0,L|148:162,1,198.000006042481,0|0,3:0|3:0,0:0:0:0:
442,323,44923,2,0,L|480:218,1,99.0000030212403,8|0,0:0|0:0,0:0:0:0:
319,193,45272,2,0,L|286:89,1,99.0000030212403,0|0,3:0|3:0,0:0:0:0:
128,67,45621,2,0,L|153:174,1,99.0000030212403,8|0,0:0|3:0,0:0:0:0:
397,289,45969,2,0,L|497:276,1,99.0000030212403,0|0,3:0|3:0,0:0:0:0:
220,361,46318,5,8,0:0:0:0:
313,340,46492,1,0,3:0:0:0:
353,253,46666,1,0,3:0:0:0:
308,169,46841,1,0,3:0:0:0:
177,107,47016,2,0,L|60:118,1,99.0000030212403,8|0,0:0|3:0,0:0:0:0:
194,46,47365,1,0,3:0:0:0:
334,59,47539,2,0,L|346:112,1,49.5000015106202,8|8,0:0|0:0,0:0:0:0:
150,230,47714,6,0,L|35:241,3,99.0000030212403,8|8|8|8,0:0|0:0|0:0|0:3,0:0:0:0:
220,318,48411,2,0,L|283:329,1,49.5000015106202,8|0,0:0|3:0,0:0:0:0:
214,337,48586,2,0,L|153:344,1,49.5000015106202,8|8,0:0|0:0,0:0:0:0:
103,346,48760,2,0,L|205:332,1,90,0|0,3:0|3:0,0:0:0:0:
438,194,49109,6,0,L|245:160,1,180,8|0,0:0|3:0,0:0:0:0:
363,92,49632,1,0,3:0:0:0:
481,81,49807,1,8,0:0:0:0:
238,50,49981,2,0,L|126:38,2,90,0|0|0,3:0|0:0|3:0,0:0:0:0:
86,133,50504,2,0,L|183:140,1,90,8|0,0:0|3:0,0:0:0:0:
321,168,50853,5,0,0:0:0:0:
239,198,51027,1,0,3:0:0:0:
212,280,51201,1,8,0:0:0:0:
259,353,51376,1,0,3:0:0:0:
404,366,51551,2,0,L|417:272,1,90,0|0,3:0|0:0,0:0:0:0:
143,199,51900,6,0,L|336:165,1,180,8|0,0:0|3:0,0:0:0:0:
212,91,52423,1,0,3:0:0:0:
79,76,52597,1,8,0:0:0:0:
247,17,52772,2,0,L|237:225,1,180,0|0,3:0|3:0,0:0:0:0:
95,222,53295,1,8,0:0:0:0:
264,300,53469,2,0,L|375:308,2,90,0|0|0,3:0|0:0|3:0,0:0:0:0:
98,361,53993,2,0,L|197:344,1,90,8|4,0:0|3:0,0:0:0:0:
468,226,54341,6,0,L|360:211,1,90,0|0,3:0|3:0,0:0:0:0:
231,202,54690,2,0,P|206:145|299:91,1,180,8|0,0:0|3:0,0:0:0:0:
433,107,55214,2,0,L|453:-2,1,90,0|8,3:0|0:0,0:0:0:0:
185,123,55562,6,0,P|212:175|336:197,1,180,0|0,3:0|3:0,0:0:0:0:
191,263,56086,2,0,L|66:278,1,90,8|0,0:0|3:0,0:0:0:0:
255,346,56435,2,0,L|372:358,1,90,0|0,0:0|3:0,0:0:0:0:
192,266,56783,2,0,L|314:254,1,90,8|0,0:0|3:0,0:0:0:0:
110,165,57132,2,0,L|3:162,1,90,0|0,3:0|0:0,0:0:0:0:
309,25,57481,6,0,P|282:77|158:99,1,180,8|0,0:0|3:0,0:0:0:0:
143,136,57917,1,0,0:0:0:0:
172,164,58004,1,0,3:0:0:0:
319,209,58179,1,8,0:0:0:0:
50,309,58353,6,0,L|66:202,1,90,0|0,3:0|0:0,0:0:0:0:
234,311,58702,2,0,L|293:315,1,45,0|0,3:0|3:0,0:0:0:0:
232,342,58876,2,0,L|139:351,1,90,8|8,0:0|0:0,0:0:0:0:
328,244,59225,5,8,0:0:0:0:
206,210,59400,1,0,3:3:0:0:
382,150,59574,1,8,0:0:0:0:
337,141,59661,1,8,0:0:0:0:
293,133,59748,1,0,3:3:0:0:
249,125,59835,1,0,3:3:0:0:
428,102,59923,6,0,L|420:222,1,90,4|0,3:2|3:0,0:0:0:0:
284,248,60272,2,0,L|177:265,1,90,8|0,0:0|0:0,0:0:0:0:
339,343,60621,2,0,L|447:325,2,90,0|0|8,0:0|3:0|0:0,0:0:0:0:
169,318,61144,6,0,L|339:219,2,180,0|0|0,3:0|3:0|0:0,0:0:0:0:
272,355,62016,2,0,L|395:344,1,90,0|2,0:0|0:3,0:0:0:0:
115,254,62365,2,0,L|1:243,1,90,8|0,0:0|3:0,0:0:0:0:
267,209,62714,6,0,P|339:188|385:64,1,180,0|8,3:0|0:0,0:0:0:0:
88,76,63411,2,0,L|194:77,1,90,0|0,0:0|3:0,0:0:0:0:
331,73,63760,1,8,0:0:0:0:
164,244,63935,6,0,P|101:218|167:122,1,180,0|0,3:0|3:0,0:0:0:0:
248,112,64458,1,8,0:0:0:0:
408,104,64632,2,0,L|408:166,1,45,0|0,0:0|0:0,0:0:0:0:
321,192,64807,2,0,L|321:254,1,45,0|0,0:0|0:0,0:0:0:0:
409,278,64981,1,2,0:3:0:0:
171,350,65155,2,0,L|65:347,1,90,8|0,0:0|3:0,0:0:0:0:
257,280,65504,5,0,3:2:0:0:
324,223,65678,1,0,3:0:0:0:
329,136,65852,1,8,0:0:0:0:
269,72,66027,1,0,0:0:0:0:
181,72,66202,2,0,L|68:95,1,90,0|0,0:0|0:0,0:0:0:0:
268,136,66551,1,8,0:0:0:0:
18,217,66725,6,0,L|216:215,2,180,0|0|0,3:0|3:0|0:0,0:0:0:0:
158,204,67597,1,0,0:0:0:0:
267,200,67772,1,2,0:3:0:0:
112,128,67946,2,0,L|115:256,1,90,8|0,0:0|3:0,0:0:0:0:
416,336,68295,6,0,L|423:144,1,180,0|8,3:0|0:0,0:0:0:0:
114,158,68993,2,0,L|245:163,2,90,0|0|8,0:0|3:0|0:0,0:0:0:0:
301,58,69516,2,0,L|295:166,1,90,0|0,3:0|3:0,0:0:0:0:
174,244,69863,2,0,L|65:258,1,90,0|8,3:0|0:0,0:0:0:0:
174,244,70210,1,0,3:0:0:0:
327,257,70383,5,0,3:0:0:0:
395,223,70469,1,0,0:0:0:0:
423,151,70556,1,8,0:0:0:0:
393,80,70643,1,8,0:0:0:0:
323,48,70730,2,0,L|240:53,1,45,8|8,0:0|0:0,0:0:0:0:
449,141,70903,2,0,L|532:145,1,45,8|8,0:0|0:0,0:0:0:0:
245,334,71077,6,0,P|188:305|254:228,1,180,4|8,3:2|0:0,0:0:0:0:
494,202,71774,2,0,L|299:223,1,180,0|8,0:0|0:0,0:0:0:0:
131,244,72297,6,0,P|197:219|234:102,2,180,0|0|0,3:0|3:0|0:0,0:0:0:0:
292,252,73170,1,0,0:0:0:0:
298,207,73257,1,0,0:0:0:0:
304,162,73344,1,2,0:3:0:0:
141,104,73518,2,0,L|157:205,1,90,8|0,0:0|3:0,0:0:0:0:
426,264,73867,6,0,L|245:266,1,180,0|8,3:0|0:0,0:0:0:0:
478,177,74565,2,0,L|472:64,1,90,0|0,0:0|3:0,0:0:0:0:
355,69,74914,1,8,0:0:0:0:
177,77,75088,6,0,L|366:74,2,180,0|0|0,3:0|3:0|0:0,0:0:0:0:
345,125,75960,2,0,L|348:183,1,45,0|0,0:0|0:0,0:0:0:0:
265,212,76135,2,0,L|194:221,1,45,2|0,0:3|0:0,0:0:0:0:
413,317,76309,2,0,L|461:318,1,45,8|8,0:0|0:0,0:0:0:0:
413,317,76483,2,0,L|345:314,1,45,8|8,0:0|0:0,0:0:0:0:
163,351,76658,6,0,L|179:244,1,90,0|0,3:2|3:0,0:0:0:0:
323,240,77007,2,0,L|307:133,1,90,8|0,0:0|0:0,0:0:0:0:
124,119,77356,2,0,L|221:119,2,90,0|0|8,0:0|3:0|0:0,0:0:0:0:
414,209,78053,2,0,L|204:219,1,180,0|8,0:0|0:0,0:0:0:0:
106,228,78577,1,0,0:0:0:0:
285,333,78751,6,0,P|319:286|244:188,1,180,0|8,0:0|0:0,0:0:0:0:
17,178,79274,2,0,L|225:189,1,180,0|0,3:0|3:0,0:0:0:0:
84,176,79797,2,0,L|72:71,1,90,8|0,0:0|0:0,0:0:0:0:
213,68,80146,2,0,L|330:78,2,90,2|0|8,0:3|3:3|0:0,0:0:0:0:
373,107,80670,6,0,L|181:133,2,180,0|0|0,3:3|3:3|0:0,0:0:0:0:
239,193,81542,2,0,L|133:193,1,90,0|0,3:3|3:3,0:0:0:0:
455,117,81890,2,0,L|332:120,1,90,8|0,0:0|3:3,0:0:0:0:
88,135,82239,5,4,3:2:0:0:
348,117,82588,1,4,3:2:0:0:
88,135,82937,1,4,3:2:0:0:
215,126,83111,1,0,3:2:0:0:
348,117,83286,1,4,3:2:0:0:
26,37,83635,1,4,3:2:0:0:
434,309,85030,6,0,L|439:199,1,99.0000030212403,4|0,3:2|3:0,0:0:0:0:
174,157,85379,2,0,L|390:164,1,198.000006042481,8|0,0:0|3:0,0:0:0:0:
254,140,85902,2,0,L|121:148,1,99.0000030212403,0|8,3:0|0:0,0:0:0:0:
313,57,86251,6,0,P|391:46|453:-59,2,198.000006042481,0|0|0,3:0|3:0|0:0,0:0:0:0:
446,63,87123,2,0,L|440:180,1,99.0000030212403,0|0,0:0|3:0,0:0:0:0:
255,246,87472,2,0,L|129:258,1,99.0000030212403,8|0,0:0|3:0,0:0:0:0:
452,369,87821,6,0,L|460:158,1,198.000006042481,0|8,3:0|0:0,0:0:0:0:
188,145,88518,1,0,3:0:0:0:
313,126,88693,1,0,3:0:0:0:
188,145,88867,1,8,0:0:0:0:
363,44,89042,6,0,P|417:76|363:190,1,198.000006042481,0|0,3:0|3:0,0:0:0:0:
219,223,89565,2,0,L|358:239,1,99.0000030212403,8|0,0:0|0:0,0:0:0:0:
150,332,89914,2,0,L|282:355,2,99.0000030212403,0|0|8,0:0|3:0|0:0,0:0:0:0:
303,286,90437,2,0,L|366:286,1,49.5000015106202,8|8,0:0|0:0,0:0:0:0:
160,251,90611,6,0,L|135:128,1,99.0000030212403,0|0,3:2|3:0,0:0:0:0:
381,64,90960,2,0,L|165:96,1,198.000006042481,12|0,0:0|3:0,0:0:0:0:
336,100,91483,2,0,L|324:208,1,99.0000030212403,0|8,3:0|0:0,0:0:0:0:
151,248,91832,6,0,L|353:244,1,198.000006042481,0|0,3:0|3:0,0:0:0:0:
235,231,92356,1,8,0:0:0:0:
61,226,92530,2,0,P|117:149|233:118,1,198.000006042481,0|0,0:0|3:0,0:0:0:0:
488,102,93053,2,0,L|349:110,1,99.0000030212403,8|0,0:0|3:0,0:0:0:0:
155,357,93402,6,0,L|163:215,1,99.0000030212403,0|0,3:0|0:0,0:0:0:0:
324,200,93751,2,0,L|205:215,1,99.0000030212403,8|0,0:0|0:0,0:0:0:0:
400,71,94100,2,0,P|461:102|392:193,1,198.000006042481,0|8,3:0|0:0,0:0:0:0:
293,206,94623,1,0,3:0:0:0:
62,357,94797,6,0,L|68:231,1,99.0000030212403,0|8,3:0|0:0,0:0:0:0:
126,247,95059,1,0,0:0:0:0:
191,238,95146,2,0,L|313:225,1,99.0000030212403,0|8,3:0|0:0,0:0:0:0:
108,141,95495,2,0,L|-5:129,1,99.0000030212403,0|8,3:0|0:0,0:0:0:0:
291,329,95844,2,0,L|366:329,1,49.5000015106202,0|0,3:0|0:0,0:0:0:0:
340,329,96018,2,0,L|263:333,1,49.5000015106202,8|0,0:0|0:0,0:0:0:0:
86,235,96193,6,0,P|41:189|128:126,1,198.000006042481,4|8,3:2|0:0,0:0:0:0:
392,339,96890,2,0,L|286:348,2,99.0000030212403,0|0|8,3:0|3:0|0:0,0:0:0:0:
222,280,97414,2,0,P|248:171|342:140,1,198.000006042481,0|0,3:0|3:0,0:0:0:0:
449,144,97937,1,8,0:0:0:0:
293,54,98111,2,0,L|172:67,2,99.0000030212403,0|0|0,0:0|0:0|3:0,0:0:0:0:
466,267,98635,2,0,L|345:253,1,99.0000030212403,8|0,0:0|3:0,0:0:0:0:
114,359,98983,6,0,L|233:335,1,99.0000030212403,0|0,3:0|0:0,0:0:0:0:
46,277,99332,2,0,L|32:172,1,99.0000030212403,8|0,0:0|0:0,0:0:0:0:
196,167,99681,2,0,L|212:54,1,99.0000030212403,0|0,3:0|3:0,0:0:0:0:
379,233,100030,2,0,L|275:247,1,99.0000030212403,8|0,0:0|3:0,0:0:0:0:
23,46,100379,6,0,L|234:16,1,198.000006042481,0|8,0:0|0:0,0:0:0:0:
126,37,100902,1,0,0:0:0:0:
91,125,101076,1,0,0:0:0:0:
148,201,101251,1,0,3:0:0:0:
242,195,101425,1,8,0:0:0:0:
99,296,101600,2,0,L|41:292,1,49.5000015106202,8|8,0:0|0:0,0:0:0:0:
235,361,101774,2,0,L|349:350,1,99.0000030212403,0|0,3:2|3:0,0:0:0:0:
78,361,102123,6,0,P|22:325|111:264,1,198.000006042481,12|0,0:0|3:0,0:0:0:0:
237,177,102646,2,0,L|100:168,1,99.0000030212403,0|8,3:0|0:0,0:0:0:0:
310,91,102995,2,0,L|333:294,1,198.000006042481,0|0,3:0|3:0,0:0:0:0:
188,308,103518,1,8,0:0:0:0:
446,358,103693,6,0,L|460:257,1,99.0000030212403,0|0,0:0|0:0,0:0:0:0:
321,188,104042,1,0,3:0:0:0:
458,162,104216,1,8,0:0:0:0:
209,109,104390,2,0,L|125:102,1,49.5000015106202,8|8,0:0|0:0,0:0:0:0:
214,86,104565,2,0,L|332:75,1,99.0000030212403,0|0,3:0|3:0,0:0:0:0:
38,100,104914,6,0,L|57:203,1,99.0000030212403,8|0,0:0|3:0,0:0:0:0:
225,222,105263,2,0,L|248:338,1,99.0000030212403,0|0,3:0|3:0,0:0:0:0:
412,129,105611,2,0,L|435:229,1,99.0000030212403,8|0,0:0|3:0,0:0:0:0:
264,335,105960,2,0,L|146:329,1,99.0000030212403,0|0,3:0|3:0,0:0:0:0:
428,347,106309,5,8,0:0:0:0:
282,253,106483,2,0,L|229:244,1,49.5000015106202,0|0,3:0|0:0,0:0:0:0:
287,231,106658,2,0,L|403:212,1,99.0000030212403,8|0,0:0|3:0,0:0:0:0:
219,156,107007,2,0,L|161:142,1,49.5000015106202,8|8,0:3|0:3,0:0:0:0:
221,131,107181,2,0,L|289:119,1,49.5000015106202,8|8,0:0|0:0,0:0:0:0:
58,66,107356,6,0,P|21:112|132:165,1,198.000006042481,4|8,3:2|0:0,0:0:0:0:
270,208,107879,1,0,0:0:0:0:
129,295,108053,2,0,L|26:302,2,99.0000030212403,0|0|8,3:0|3:0|0:0,0:0:0:0:
300,354,108577,2,0,L|284:236,1,99.0000030212403,0|0,3:0|0:0,0:0:0:0:
130,196,108925,1,0,3:0:0:0:
366,175,109100,5,8,0:0:0:0:
222,100,109274,2,0,L|327:81,1,99.0000030212403,0|0,0:0|0:0,0:0:0:0:
445,54,109623,1,0,3:0:0:0:
270,24,109797,2,0,L|145:34,1,99.0000030212403,8|0,0:0|3:0,0:0:0:0:
445,252,110146,6,0,L|215:216,2,198.000006042481,0|8|0,3:0|0:0|3:0,0:0:0:0:
335,313,111018,1,0,3:0:0:0:
208,338,111193,1,8,0:0:0:0:
467,357,111367,1,0,3:0:0:0:
317,229,111542,6,0,L|297:110,1,99.0000030212403,0|0,0:0|3:0,0:0:0:0:
465,102,111890,2,0,L|486:-15,1,99.0000030212403,8|0,0:0|0:0,0:0:0:0:
310,26,112239,1,0,0:0:0:0:
245,93,112413,1,0,3:0:0:0:
287,176,112587,1,8,0:0:0:0:
379,164,112763,2,0,L|318:162,1,49.5000015106202,8|8,0:0|0:0,0:0:0:0:
142,254,112937,2,0,L|20:260,1,99.0000030212403,0|0,3:2|3:0,0:0:0:0:
315,359,113286,6,0,P|359:319|279:237,1,198.000006042481,12|0,0:0|3:0,0:0:0:0:
401,207,113809,1,0,3:0:0:0:
146,163,113983,1,8,0:0:0:0:
277,81,114158,2,0,L|168:68,1,99.0000030212403,0|0,3:0|0:0,0:0:0:0:
37,64,114507,1,0,3:0:0:0:
292,251,114681,5,8,0:0:0:0:
150,333,114856,2,0,L|271:344,1,99.0000030212403,0|0,0:0|0:0,0:0:0:0:
102,248,115204,1,0,3:0:0:0:
294,159,115379,2,0,L|399:142,1,99.0000030212403,8|0,0:0|3:0,0:0:0:0:
110,37,115728,6,0,L|319:62,2,198.000006042481,0|8|0,3:0|0:0|3:0,0:0:0:0:
9,83,116600,1,0,3:0:0:0:
277,234,116774,2,0,L|170:251,1,99.0000030212403,8|0,0:0|3:0,0:0:0:0:
48,321,117123,1,0,3:0:0:0:
26,278,117210,1,0,0:0:0:0:
44,233,117297,1,8,0:0:0:0:
89,218,117384,1,8,0:0:0:0:
276,334,117472,6,0,L|334:333,1,49.5000015106202,0|8,3:0|0:0,0:0:0:0:
261,300,117646,2,0,L|254:244,1,49.5000015106202,8|8,0:0|0:0,0:0:0:0:
329,247,117821,2,0,L|344:186,1,49.5000015106202,0|0,3:0|0:0,0:0:0:0:
160,144,117995,2,0,L|102:130,1,49.5000015106202,8|8,0:0|0:0,0:0:0:0:
166,120,118170,2,0,L|222:96,1,49.5000015106202,0|0,3:0|0:0,0:0:0:0:
394,66,118344,2,0,L|451:74,1,49.5000015106202,8|8,0:0|0:0,0:0:0:0:
243,24,118518,6,0,P|195:54|291:100,1,198.000006042481,4|8,3:2|0:0,0:0:0:0:
366,131,119041,1,0,0:0:0:0:
410,215,119215,1,0,3:0:0:0:
363,297,119390,1,0,3:0:0:0:
268,303,119564,1,8,0:0:0:0:
19,193,119739,6,0,L|221:160,1,198.000006042481,0|0,3:0|3:0,0:0:0:0:
79,123,120263,1,8,0:0:0:0:
237,75,120437,2,0,L|262:296,1,198.000006042481,0|0,0:0|3:0,0:0:0:0:
85,338,120960,2,0,L|203:348,1,99.0000030212403,8|0,0:0|3:0,0:0:0:0:
449,167,121309,6,0,L|337:185,1,99.0000030212403,0|0,3:0|0:0,0:0:0:0:
192,184,121658,2,0,P|173:128|281:60,1,198.000006042481,8|0,0:0|3:0,0:0:0:0:
403,60,122181,1,0,3:0:0:0:
252,18,122356,2,0,L|120:17,1,99.0000030212403,8|0,0:0|3:0,0:0:0:0:
413,158,122704,5,0,0:0:0:0:
319,174,122878,1,0,3:0:0:0:
281,262,123052,1,8,0:0:0:0:
333,341,123227,1,0,0:0:0:0:
428,342,123401,5,0,0:0:0:0:
286,306,123577,1,0,3:0:0:0:
424,246,123751,1,8,0:0:0:0:
268,200,123925,2,0,L|191:193,1,49.5000015106202,8|8,0:0|0:0,0:0:0:0:
396,100,124100,2,0,L|514:92,1,99.0000030212403,0|0,3:2|3:0,0:0:0:0:
220,66,124449,6,0,P|254:126|378:156,1,198.000006042481,12|0,0:0|3:0,0:0:0:0:
238,246,124972,2,0,L|350:262,1,99.0000030212403,0|8,3:0|0:0,0:0:0:0:
164,371,125321,2,0,L|147:267,1,99.0000030212403,0|0,3:0|0:0,0:0:0:0:
320,226,125670,2,0,L|344:122,1,99.0000030212403,0|8,3:0|0:0,0:0:0:0:
183,72,126018,2,0,L|63:87,2,99.0000030212403,0|0|0,0:0|3:0|3:0,0:0:0:0:
364,17,126542,2,0,L|254:5,1,99.0000030212403,8|0,0:0|3:0,0:0:0:0:
15,140,126890,6,0,L|36:251,1,99.0000030212403,4|0,3:2|0:0,0:0:0:0:
302,305,127239,1,8,0:0:0:0:
178,290,127414,1,0,3:0:0:0:
327,218,127588,1,0,3:0:0:0:
184,182,127763,1,0,3:0:0:0:
449,131,127937,2,0,L|481:253,1,99.0000030212403,8|0,0:0|3:0,0:0:0:0:
329,300,128286,1,0,3:0:0:0:
478,363,128460,2,0,L|423:369,1,49.5000015106202,8|8,0:0|0:0,0:0:0:0:
227,358,128635,6,0,L|114:340,1,99.0000030212403,8|8,0:0|0:0,0:0:0:0:
303,259,128983,1,8,0:3:0:0:
153,220,129158,1,8,0:3:0:0:
329,155,129332,2,0,L|441:138,1,99.0000030212403,8|0,0:0|0:0,0:0:0:0:
167,288,129681,5,4,3:2:0:0:
408,337,130030,1,0,3:2:0:0:
173,180,130379,1,0,3:2:0:0:
313,214,130553,1,0,0:0:0:0:
52,76,130902,5,0,0:0:0:0:
299,49,131251,1,0,0:0:0:0:
34,8,131600,1,0,0:0:0:0:
191,104,131774,2,0,L|108:115,1,80.9999975280763,0|0,3:2|0:0,0:0:0:0:
272,186,132123,2,0,L|159:206,1,80.9999975280763,0|0,3:2|0:0,0:0:0:0:
475,283,132472,5,12,3:2:0:0:
214,350,132821,2,0,L|221:244,1,80.9999975280763,0|12,3:2|0:0,0:0:0:0:
367,239,133170,1,0,0:0:0:0:
128,231,133344,2,0,L|139:128,1,80.9999975280763,0|12,0:0|3:2,0:0:0:0:
274,113,133693,6,0,L|377:94,1,80.9999975280763,0|0,0:0|3:2,0:0:0:0:
234,217,134042,2,0,L|117:209,1,99.0000030212403,12|0,0:0|3:2,0:0:0:0:
275,135,134390,1,0,0:0:0:0:
420,126,134565,2,0,L|416:250,1,99.0000030212403,12|0,3:2|0:0,0:0:0:0:
267,300,134914,2,0,L|149:318,1,80.9999975280763,0|8,3:2|0:3,0:0:0:0:
239,300,135175,1,8,0:3:0:0:
449,290,135263,6,0,P|493:258|432:184,1,161.999995056153,0|8,3:3|3:3,0:0:0:0:
210,195,135960,2,0,L|108:211,2,80.9999975280763,0|0|8,3:3|0:0|3:3,0:0:0:0:
77,92,136483,6,0,L|68:270,1,161.999995056153,0|0,0:0|0:0,0:0:0:0:
337,278,137181,1,0,0:0:0:0:
202,297,137356,1,0,3:3:0:0:
234,259,137443,1,0,0:0:0:0:
287,243,137530,1,0,0:0:0:0:
436,258,137704,2,0,L|454:150,1,80.9999975280763,8|0,3:3|0:0,0:0:0:0:
158,114,138053,6,0,L|274:103,1,90,12|8,3:2|0:3,0:0:0:0:
328,37,138315,1,0,0:0:0:0:
265,32,138402,1,0,3:0:0:0:
25,168,138577,1,12,3:2:0:0:
156,237,138751,2,0,L|251:228,2,90,12|0|12,3:2|3:3|3:2,0:0:0:0:
299,276,139274,2,0,L|355:275,1,45,8|0,0:3|0:0,0:0:0:0:
410,244,139449,6,0,L|395:357,1,90,0|8,3:0|0:0,0:0:0:0:
226,369,139797,2,0,L|116:358,1,90,8|0,0:0|3:0,0:0:0:0:
371,288,140146,2,0,L|388:184,1,90,8|8,0:0|0:0,0:0:0:0:
326,195,140408,1,8,0:0:0:0:
270,188,140495,2,0,L|202:179,1,45,8|8,0:0|0:0,0:0:0:0:
400,103,140670,2,0,L|462:92,1,45,8|8,0:0|0:0,0:0:0:0:
225,182,140844,6,0,P|195:243|235:329,1,148.50000453186,4|0,3:2|0:0,0:0:0:0:
281,322,141193,2,0,L|418:321,1,99.0000030212403,8|0,0:0|0:0,0:0:0:0:
216,164,141542,2,0,L|86:170,2,99.0000030212403,0|0|8,3:0|3:0|0:0,0:0:0:0:
378,131,142065,6,0,P|451:157|395:268,1,198.000006042481,0|0,3:0|3:0,0:0:0:0:
269,328,142588,2,0,L|163:341,1,99.0000030212403,8|0,0:0|3:0,0:0:0:0:
311,344,142937,2,0,L|335:199,1,99.0000030212403,0|0,0:0|3:0,0:0:0:0:
152,226,143286,2,0,L|279:221,1,99.0000030212403,8|0,0:0|0:0,0:0:0:0:
501,82,143635,6,0,L|487:318,1,198.000006042481,0|8,3:0|0:0,0:0:0:0:
183,356,144332,2,0,L|196:231,1,99.0000030212403,0|0,3:0|0:0,0:0:0:0:
310,218,144681,1,8,0:0:0:0:
32,209,144856,5,0,3:0:0:0:
220,154,145204,2,0,L|111:155,1,99.0000030212403,0|8,3:0|0:0,0:0:0:0:
254,57,145553,2,0,P|316:93|247:213,1,198.000006042481,0|0,3:0|3:0,0:0:0:0:
107,224,146077,2,0,L|103:345,1,99.0000030212403,8|2,0:0|0:3,0:0:0:0:
351,362,146425,6,0,P|408:326|352:262,1,148.50000453186,4|0,3:2|0:0,0:0:0:0:
290,256,146774,2,0,L|406:259,1,99.0000030212403,8|0,0:0|0:0,0:0:0:0:
257,157,147123,2,0,L|385:157,2,99.0000030212403,0|0|8,3:0|3:0|0:0,0:0:0:0:
96,158,147646,6,0,P|119:246|228:295,1,198.000006042481,0|0,3:0|3:0,0:0:0:0:
64,368,148170,2,0,L|68:242,1,99.0000030212403,8|0,0:0|3:0,0:0:0:0:
201,234,148518,2,0,L|316:220,1,99.0000030212403,0|0,0:0|3:0,0:0:0:0:
155,138,148867,2,0,L|83:131,2,49.5000015106202,8|0|0,0:0|0:0|0:0,0:0:0:0:
392,113,149216,6,0,L|378:349,1,198.000006042481,0|8,3:0|0:0,0:0:0:0:
79,364,149914,2,0,L|95:231,1,99.0000030212403,0|0,3:0|0:0,0:0:0:0:
208,231,150263,1,8,0:0:0:0:
493,162,150437,6,0,L|273:179,1,198.000006042481,0|8,3:0|0:0,0:0:0:0:
414,137,150960,1,8,0:0:0:0:
147,76,151135,1,8,0:0:0:0:
299,57,151309,1,0,3:0:0:0:
175,159,151483,1,8,3:0:0:0:
296,241,151658,1,8,0:0:0:0:
439,266,151832,1,0,3:0:0:0:
121,367,152007,6,0,L|130:182,1,148.50000453186,4|0,3:2|0:0,0:0:0:0:
203,189,152356,1,8,0:0:0:0:
386,173,152617,1,8,0:3:0:0:
210,117,152704,2,0,L|72:119,2,99.0000030212403,4|0|8,0:3|3:0|0:0,0:0:0:0:
82,40,153228,6,0,P|26:80|79:202,1,198.000006042481,0|0,3:0|3:0,0:0:0:0:
173,221,153751,1,8,0:0:0:0:
413,231,153925,2,0,L|480:227,1,49.5000015106202,0|8,0:0|0:3,0:0:0:0:
361,167,154100,2,0,L|258:168,1,99.0000030212403,4|0,0:3|0:0,0:0:0:0:
315,158,154361,1,0,0:0:0:0:
493,79,154449,2,0,L|488:213,1,99.0000030212403,8|0,0:0|0:0,0:0:0:0:
225,355,154797,6,0,P|163:326|237:222,1,198.000006042481,0|8,3:2|0:0,0:0:0:0:
405,217,155408,1,8,0:3:0:0:
222,216,155495,2,0,L|87:218,1,99.0000030212403,4|0,0:3|3:0,0:0:0:0:
296,127,155844,1,8,0:0:0:0:
456,128,156018,6,0,L|474:-71,1,198.000006042481,0|0,3:0|3:0,0:0:0:0:
337,203,156542,1,8,0:0:0:0:
47,330,156716,2,0,L|53:266,1,49.5000015106202,0|8,0:0|0:3,0:0:0:0:
130,261,156890,2,0,L|219:257,2,49.5000015106202,4|0|0,0:3|0:0|3:0,0:0:0:0:
280,135,157239,2,0,L|272:197,1,49.5000015106202,8|8,0:0|0:0,0:0:0:0:
197,229,157414,2,0,L|139:238,1,49.5000015106202,0|0,3:3|3:3,0:0:0:0:
376,357,157588,6,0,L|383:162,1,148.50000453186,4|0,3:2|0:0,0:0:0:0:
306,202,157937,1,8,0:0:0:0:
95,189,158199,1,8,0:3:0:0:
269,252,158286,2,0,L|381:224,1,99.0000030212403,4|0,0:3|3:0,0:0:0:0:
477,193,158635,1,8,0:0:0:0:
293,153,158809,6,0,L|82:155,1,198.000006042481,0|0,3:0|3:0,0:0:0:0:
194,200,159332,1,8,0:0:0:0:
356,189,159507,1,0,0:0:0:0:
348,154,159594,1,8,0:3:0:0:
181,88,159681,2,0,L|122:89,2,49.5000015106202,4|0|0,0:3|0:0|3:0,0:0:0:0:
332,309,160030,2,0,L|391:310,2,49.5000015106202,8|8|4,0:0|0:3|0:3,0:0:0:0:
272,309,160292,1,0,3:0:0:0:
55,338,160379,6,0,L|37:226,1,107.999996704102,4|0,3:2|0:0,0:0:0:0:
412,159,160728,2,0,L|440:32,1,107.999996704102,4|0,3:2|0:0,0:0:0:0:
181,132,161077,2,0,L|73:92,1,107.999996704102,4|0,3:2|3:2,0:0:0:0:
343,325,161425,2,0,L|461:298,1,107.999996704102,4|0,3:2|0:0,0:0:0:0:
130,240,161774,5,4,3:2:0:0:
42,278,170844,6,0,L|165:258,1,90,2|2,0:3|3:0,0:0:0:0:
277,153,171159,2,0,L|163:139,1,90,8|0,0:0|3:0,0:0:0:0:
451,85,171475,6,0,L|469:204,1,103.500001974106,4|0,3:2|3:0,0:0:0:0:
201,246,171823,2,0,P|232:316|375:336,1,207.000003948212,8|0,0:0|3:0,0:0:0:0:
481,306,172347,1,0,3:0:0:0:
218,152,172521,1,8,0:0:0:0:
355,135,172695,6,0,L|365:24,1,103.500001974106,0|0,3:0|0:0,0:0:0:0:
207,26,173044,2,0,L|332:4,1,103.500001974106,0|8,3:0|0:0,0:0:0:0:
63,116,173393,2,0,P|26:177|126:228,1,207.000003948212,0|0,0:0|3:0,0:0:0:0:
266,290,173916,1,8,0:0:0:0:
124,338,174091,1,0,3:0:0:0:
389,353,174265,6,0,L|501:360,1,103.500001974106,4|0,3:2|0:0,0:0:0:0:
241,112,174614,2,0,L|100:120,1,103.500001974106,8|0,0:0|0:0,0:0:0:0:
319,217,174963,2,0,L|450:228,1,103.500001974106,0|0,3:0|3:0,0:0:0:0:
255,142,175312,1,8,0:0:0:0:
433,132,175486,1,0,3:0:0:0:
177,90,175661,5,0,0:0:0:0:
145,127,175748,1,0,0:0:0:0:
160,174,175835,1,0,3:0:0:0:
208,187,175922,1,0,3:0:0:0:
32,240,176009,2,0,L|25:312,1,51.7500009870529,8|0,0:0|0:0,0:0:0:0:
211,342,176184,6,0,L|282:344,1,51.7500009870529,0|0,3:0|3:0,0:0:0:0:
207,305,176358,2,0,L|146:308,1,51.7500009870529,8|0,0:0|0:0,0:0:0:0:
340,268,176533,1,0,3:0:0:0:
388,255,176620,1,0,3:0:0:0:
412,211,176707,1,8,0:0:0:0:
396,163,176794,1,0,0:0:0:0:
210,109,176881,2,0,L|143:102,1,51.7500009870529,0|0,3:0|0:0,0:0:0:0:
379,46,177056,6,0,P|442:57|427:185,1,207.000003948212,4|8,3:2|0:0,0:0:0:0:
326,214,177579,1,0,0:0:0:0:
201,264,177754,2,0,L|229:378,1,103.500001974106,0|0,3:2|3:2,0:0:0:0:
368,377,178102,1,8,0:2:0:0:
106,310,178277,6,0,P|78:261|192:181,1,207.000003948212,0|0,0:0|3:2,0:0:0:0:
44,144,178800,1,8,0:2:0:0:
296,97,178975,2,0,L|412:82,2,103.500001974106,0|0|0,3:2|0:0|3:2,0:0:0:0:
118,42,179498,2,0,L|248:20,1,103.500001974106,8|0,0:2|3:2,0:0:0:0:
490,289,179847,6,0,L|375:276,1,103.500001974106,0|0,3:2|3:2,0:0:0:0:
210,207,180195,2,0,L|441:173,1,207.000003948212,8|0,0:2|3:2,0:0:0:0:
289,148,180719,1,0,3:2:0:0:
432,98,180893,1,8,0:2:0:0:
270,63,181068,1,0,3:2:0:0:
18,233,181242,6,0,L|134:213,1,103.500001974106,0|0,0:0|3:2,0:0:0:0:
280,321,181591,2,0,P|303:268|195:203,1,207.000003948212,8|0,0:2|3:2,0:0:0:0:
81,288,182114,1,0,3:2:0:0:
216,169,182288,1,8,0:2:0:0:
375,115,182463,2,0,L|312:108,1,51.7500009870529,8|8,0:2|0:2,0:0:0:0:
147,73,182637,6,0,L|36:61,1,103.500001974106,0|0,3:2|3:0,0:0:0:0:
305,211,182986,2,0,P|284:267|138:296,1,207.000003948212,12|0,0:0|3:0,0:0:0:0:
35,271,183509,1,0,3:0:0:0:
303,355,183684,2,0,L|317:248,1,103.500001974106,8|0,0:0|3:0,0:0:0:0:
485,220,184033,6,0,L|465:107,1,103.500001974106,0|0,0:0|3:0,0:0:0:0:
192,115,184381,1,8,0:0:0:0:
343,47,184556,2,0,L|230:29,1,103.500001974106,0|0,0:0|0:0,0:0:0:0:
107,44,184905,2,0,L|45:57,2,51.7500009870529,0|0|8,3:0|0:0|0:0,0:0:0:0:
364,208,185254,1,0,3:0:0:0:
224,279,185428,2,0,L|354:308,1,103.500001974106,0|0,3:0|3:0,0:0:0:0:
35,346,185777,6,0,L|25:221,1,103.500001974106,8|0,0:0|3:0,0:0:0:0:
179,164,186126,1,0,3:0:0:0:
41,132,186300,1,0,3:0:0:0:
297,95,186475,1,8,0:0:0:0:
159,48,186649,2,0,L|245:33,1,51.7500009870529,0|0,3:0|3:0,0:0:0:0:
411,69,186823,5,8,0:0:0:0:
483,155,186993,1,8,0:0:0:0:
332,178,187163,1,8,0:0:0:0:
446,247,187334,1,8,0:0:0:0:
249,275,187504,1,8,0:0:0:0:
412,338,187676,1,8,0:0:0:0:
129,320,187848,1,0,3:0:0:0:
393,382,188021,1,0,3:0:0:0:
98,346,188193,6,0,L|110:146,1,180,4|0,3:2|3:0,0:0:0:0:
398,124,188890,2,0,L|294:140,2,90,8|0|0,0:0|0:0|3:0,0:0:0:0:
244,61,189413,2,0,P|199:94|256:206,1,180,4|4,3:2|3:2,0:0:0:0:
337,210,189937,1,0,0:0:0:0:
488,235,190111,2,0,L|301:250,1,180,0|0,3:0|3:0,0:0:0:0:
66,364,190634,2,0,L|87:255,1,90,0|0,3:0|0:0,0:0:0:0:
337,251,190983,6,0,L|146:263,1,180,4|4,3:2|3:2,0:0:0:0:
439,88,191681,2,0,L|432:187,1,90,8|0,0:0|0:0,0:0:0:0:
334,211,192030,1,0,3:0:0:0:
63,371,192204,6,0,L|52:257,1,90,4|0,3:2|0:0,0:0:0:0:
199,228,192553,2,0,L|88:222,1,90,4|0,3:2|0:0,0:0:0:0:
239,134,192902,1,0,3:0:0:0:
479,73,193076,2,0,L|381:75,1,90,8|8,0:0|0:3,0:0:0:0:
247,211,193425,2,0,L|372:210,1,90,4|4,3:3|3:3,0:0:0:0:
63,351,193774,6,0,L|62:148,1,180,4|4,3:2|3:2,0:0:0:0:
361,118,194472,2,0,L|260:127,1,90,8|0,0:0|0:0,0:0:0:0:
134,145,194821,1,0,3:0:0:0:
386,308,194995,6,0,L|191:249,2,180,4|4|0,3:2|3:2|3:0,0:0:0:0:
231,371,195867,2,0,L|105:335,1,90,8|0,0:0|0:0,0:0:0:0:
276,252,196216,2,0,L|206:247,1,45,8|8,0:0|0:0,0:0:0:0:
231,248,196390,2,0,L|296:239,1,45,8|8,0:0|0:0,0:0:0:0:
491,68,196565,6,0,L|502:186,1,90,0|8,3:2|0:0,0:0:0:0:
356,200,196913,2,0,L|341:328,1,90,4|0,3:2|0:0,0:0:0:0:
175,366,197262,2,0,L|164:255,1,90,12|0,3:2|0:0,0:0:0:0:
417,247,197611,2,0,L|433:123,1,90,4|0,3:2|0:0,0:0:0:0:
153,148,197960,5,4,3:2:0:0:
47,129,198136,2,0,L|111:129,1,45,0|0,3:0|3:0,0:0:0:0:
168,131,198312,1,8,0:0:0:0:
346,181,198489,2,0,L|268:181,1,45,0|0,3:0|3:0,0:0:0:0:
144,196,198665,1,8,0:0:0:0:
288,282,198843,2,0,L|349:282,1,45,0|0,3:0|3:0,0:0:0:0:
333,282,199022,2,0,L|263:282,1,45,8|0,0:0|0:0,0:0:0:0:
128,348,199200,2,0,L|193:347,1,45,8|8,0:0|0:0,0:0:0:0:
382,43,199379,6,0,L|371:157,1,90,4|0,3:2|3:0,0:0:0:0:
110,230,199721,2,0,L|308:236,1,180,8|0,0:0|3:0,0:0:0:0:
182,343,200237,2,0,L|305:346,1,90,0|8,3:0|0:0,0:0:0:0:
19,141,200584,6,0,L|146:146,2,90,0|0|0,3:0|0:0|3:0,0:0:0:0:
199,57,201105,2,0,L|191:168,1,90,8|0,0:0|0:0,0:0:0:0:
65,220,201454,2,0,L|75:331,1,90,0|0,3:0|3:0,0:0:0:0:
314,326,201803,2,0,L|200:326,1,90,8|0,0:0|3:0,0:0:0:0:
479,65,202152,6,0,P|476:155|383:205,1,180,0|8,3:0|0:0,0:0:0:0:
300,222,202675,1,0,0:0:0:0:
36,351,202850,2,0,L|53:231,1,90,0|0,3:0|3:0,0:0:0:0:
181,239,203198,1,8,0:0:0:0:
418,115,203373,6,0,L|202:131,1,180,0|0,3:0|3:0,0:0:0:0:
353,140,203896,2,0,L|347:255,1,90,8|0,0:0|0:0,0:0:0:0:
187,271,204245,2,0,L|199:380,1,90,0|0,3:0|3:0,0:0:0:0:
368,359,204594,2,0,L|381:251,1,90,8|8,0:0|0:0,0:0:0:0:
314,262,204855,1,8,0:0:0:0:
128,259,204943,6,0,L|124:152,1,90,0|0,3:2|3:0,0:0:0:0:
373,76,205291,2,0,P|429:121|361:210,1,180,12|0,0:0|3:0,0:0:0:0:
319,224,205727,1,0,0:0:0:0:
245,225,205815,1,0,3:0:0:0:
391,333,205989,2,0,L|449:334,2,45,8|0|0,0:0|0:0|3:0,0:0:0:0:
231,289,206338,1,0,0:0:0:0:
282,268,206425,1,0,0:0:0:0:
338,259,206512,1,0,3:0:0:0:
104,275,206687,6,0,L|83:162,1,90,8|0,0:0|0:0,0:0:0:0:
255,175,207036,2,0,L|268:73,1,90,0|0,3:0|3:0,0:0:0:0:
86,57,207384,1,8,0:0:0:0:
75,99,207471,1,0,0:0:0:0:
96,137,207558,1,0,3:0:0:0:
138,149,207645,1,0,0:0:0:0:
390,337,207733,6,0,P|477:282|437:198,1,180,4|4,3:2|3:2,0:0:0:0:
175,150,208438,2,0,L|386:150,1,180,4|4,3:2|3:2,0:0:0:0:
19,71,209144,1,4,3:2:0:0:
256,192,209321,12,0,213027,0:0:0:0:
205,248,214754,6,0,L|132:249,1,45,0|2,0:0|0:0,0:0:0:0:
192,224,214885,1,2,0:0:0:0:
230,216,214928,1,2,0:0:0:0:
256,192,215103,12,0,222603,0:0:0:0:
