osu file format v14

[General]
AudioFilename: audio.mp3
AudioLeadIn: 0
PreviewTime: 54785
Countdown: 0
SampleSet: Soft
StackLeniency: 0.7
Mode: 0
LetterboxInBreaks: 0
WidescreenStoryboard: 1

[Editor]
DistanceSpacing: 1
BeatDivisor: 4
GridSize: 4
TimelineZoom: 2.1

[Metadata]
Title:Impressions
TitleUnicode:Impressions
Artist:Carpool Tunnel
ArtistUnicode:Carpool Tunnel
Creator:Hinsvar
Version:Normal
Source:
Tags:Indie Rock English Featured Artist FA Mappers' Guild MPG
BeatmapID:2201380
BeatmapSetID:1052846

[Difficulty]
HPDrainRate:4
CircleSize:3.5
OverallDifficulty:4.5
ApproachRate:5
SliderMultiplier:1.04
SliderTickRate:1

[Events]
//Background and Video events
0,0,"impressions.jpg",0,0
//Break Periods
2,88894,94254
2,136218,138198
2,142978,155099
//Storyboard Layer 0 (Background)
//Storyboard Layer 1 (Fail)
//Storyboard Layer 2 (Pass)
//Storyboard Layer 3 (Foreground)
//Storyboard Layer 4 (Overlay)
//Storyboard Sound Samples

[TimingPoints]
807,422.535211267606,4,2,1,70,1,0
14328,-100,4,2,2,60,0,0
39680,-100,4,2,1,60,0,0
41370,-100,4,2,1,70,0,0
53835,-100,4,2,1,60,0,0
54891,-100,4,2,1,80,0,1
68412,-100,4,2,2,40,0,0
70102,-100,4,2,2,50,0,0
71792,-100,4,2,2,60,0,0
88694,-100,4,2,2,40,0,0
95243,-100,4,2,2,50,0,0
102215,-100,4,2,1,70,0,0
114680,-100,4,2,1,60,0,0
115736,-100,4,2,1,80,0,1
129257,-100,4,2,2,60,0,0
136018,-100,4,2,2,30,0,0
141088,-117.647058823529,4,2,2,40,0,0
156299,-100,4,2,2,50,0,0
166440,-100,4,2,2,40,0,0
166863,-100,4,2,2,50,0,0
168130,-100,4,2,2,60,0,0
169821,-100,4,2,1,70,0,0
183342,-100,4,2,1,80,0,1
196863,-100,4,2,1,70,0,0
207004,-100,4,2,1,60,0,0
207849,-100,4,2,1,65,0,0
208694,-100,4,2,1,70,0,0
209328,-100,4,2,1,75,0,0
210173,-100,4,2,1,80,0,0
210807,-100,4,2,1,70,0,0
211229,-100,4,2,1,60,0,0
211652,-100,4,2,1,50,0,0
212074,-100,4,2,1,40,0,0
212919,-100,4,2,1,30,0,0
214609,-100,4,2,1,20,0,0
215877,-100,4,2,1,10,0,0
217145,-100,4,2,1,5,0,0

[Colours]
Combo1 : 89,247,200
Combo2 : 4,155,106
Combo3 : 41,203,243
Combo4 : 231,188,137

[HitObjects]
68,147,7567,6,0,P|113:168|148:216,1,104,4|8,3:2|0:0,0:0:0:0:
132,264,8201,1,2,0:0:0:0:
132,264,8412,2,0,L|71:277,2,52,2|0|8,3:2|0:0|0:0,0:0:0:0:
161,307,9046,2,0,P|209:328|272:337,1,104,2|2,3:2|0:0,0:0:0:0:
328,258,9891,1,2,0:0:0:0:
328,258,10102,2,0,L|383:251,2,52,2|0|8,3:2|0:0|0:0,0:0:0:0:
252,186,10947,6,0,P|243:136|264:88,1,104,2|8,3:2|0:0,0:0:0:0:
304,56,11581,1,2,0:0:0:0:
304,56,11792,2,0,P|352:84|412:88,1,104,2|8,3:2|0:0,0:0:0:0:
448,72,12426,1,0,0:0:0:0:
448,72,12637,2,0,L|471:128,1,52,2|2,3:2|0:0,0:0:0:0:
407,204,13271,1,2,0:0:0:0:
407,204,13483,2,0,L|348:212,2,52,0|2|10,3:0|0:0|0:0,0:0:0:0:
451,297,14328,6,0,P|409:331|351:351,1,104,2|8,3:2|0:0,0:0:0:0:
196,261,15384,2,0,L|207:209,2,52,2|8|2,0:0|0:0|0:0,0:0:0:0:
155,294,16018,1,0,3:0:0:0:
85,216,16440,1,8,0:0:0:0:
137,36,17074,2,0,P|187:19|238:19,1,104,2|2,0:0|0:0,0:0:0:0:
277,52,17708,5,0,0:0:0:0:
377,26,18130,1,8,0:0:0:0:
491,174,18764,2,0,L|476:230,1,52,2|8,0:0|0:0,0:0:0:0:
487,275,19187,2,0,P|432:283|394:311,1,104,2|0,0:0|3:0,0:0:0:0:
371,358,19821,1,8,0:0:0:0:
371,358,20032,2,0,L|261:334,1,104,2|0,0:0|0:0,0:0:0:0:
189,268,20877,6,0,B|240:232|240:232|218:134,1,156,2|8,0:0|0:0,0:0:0:0:
48,63,22145,2,0,B|38:37|38:37|37:7,2,52,2|8|2,0:0|0:0|0:0,0:0:0:0:
18,105,22778,2,0,P|14:155|43:205,1,104,0|8,3:0|0:0,0:0:0:0:
82,229,23412,1,0,0:0:0:0:
176,271,23835,2,0,P|172:302|165:326,1,52,2|8,0:0|0:0,0:0:0:0:
195,364,24257,6,0,B|285:374|285:374|320:314,1,156,2|8,0:0|0:0,0:0:0:0:
428,165,25525,2,0,L|481:180,2,52,2|8|2,0:0|0:0|0:0,0:0:0:0:
377,178,26159,2,0,P|360:135|372:80,1,104,0|8,3:0|0:0,0:0:0:0:
391,31,26792,1,0,0:0:0:0:
288,14,27215,2,0,P|261:17|236:27,1,52,2|8,0:0|0:0,0:0:0:0:
186,23,27637,6,0,P|224:89|232:174,1,156,2|8,0:0|0:0,0:0:0:0:
156,238,28694,1,0,0:0:0:0:
156,238,28905,2,0,P|158:264|167:290,1,52,2|8,0:0|0:0,0:0:0:0:
189,334,29328,2,0,B|236:304|236:304|344:334,1,156,2|8,0:0|0:0,0:0:0:0:
380,352,30173,1,0,0:0:0:0:
445,270,30595,2,0,L|434:219,1,52,2|8,0:0|0:0,0:0:0:0:
449,169,31018,6,0,B|407:159|407:159|396:90,1,104,2|0,0:0|0:0,0:0:0:0:
386,47,31652,1,8,0:0:0:0:
208,14,32285,1,2,0:0:0:0:
208,14,32497,2,0,L|150:29,1,52,8|2,0:0|0:0,0:0:0:0:
122,67,32919,2,0,P|133:115|101:157,1,104,0|8,3:0|0:0,0:0:0:0:
53,174,33553,1,2,0:0:0:0:
109,261,33976,2,0,P|115:285|116:318,1,52,2|8,0:0|0:0,0:0:0:0:
90,357,34398,6,0,B|186:316|186:316|234:339,1,156,2|8,0:0|0:0,0:0:0:0:
369,210,35666,2,0,L|310:217,1,52,2|8,0:0|0:0,0:0:0:0:
272,190,36088,2,0,P|320:142|296:57,1,156,2|8,0:0|0:0,0:0:0:0:
257,34,36933,1,0,0:0:0:0:
167,86,37356,2,0,L|175:147,1,52,2|8,0:0|0:0,0:0:0:0:
187,187,37778,6,0,B|92:142|92:142|43:173,1,156,2|8,0:0|0:0,0:0:0:0:
160,319,39046,2,0,L|216:308,2,52,2|0|2,3:2|0:0|0:0,0:0:0:0:
131,362,39680,1,8,0:0:0:0:
131,362,41370,6,0,B|100:339|100:339|111:273,1,104,2|8,3:2|0:0,0:0:0:0:
122,223,42004,1,2,0:0:0:0:
122,223,42215,2,0,L|62:232,2,52,0|0|10,3:0|0:0|0:0,0:0:0:0:
191,145,43060,2,0,P|243:154|305:172,1,104,2|8,3:2|0:0,0:0:0:0:
336,139,43694,2,0,L|328:82,1,52,2|0,0:0|3:0,0:0:0:0:
354,42,44116,2,0,L|411:34,1,52,2|8,0:0|0:0,0:0:0:0:
450,60,44539,1,0,0:0:0:0:
478,103,44750,5,2,3:2:0:0:
438,199,45173,2,0,P|440:226|447:254,2,52,8|2|0,0:0|0:0|3:0,0:0:0:0:
392,183,45807,1,0,0:0:0:0:
392,183,46018,1,8,0:0:0:0:
318,262,46440,2,0,P|265:257|213:232,1,104,0|8,3:0|0:0,0:0:0:0:
193,191,47074,1,2,0:0:0:0:
193,191,47285,2,0,P|203:165|212:135,2,52,0|2|8,3:0|0:0|0:0,0:0:0:0:
91,215,48130,6,0,P|73:175|66:105,1,104,2|8,3:2|0:0,0:0:0:0:
87,68,48764,1,2,0:0:0:0:
87,68,48976,2,0,P|61:60|32:49,2,52,0|2|8,3:0|0:0|0:0,0:0:0:0:
183,30,49821,2,0,P|234:20|287:16,1,104,0|8,3:0|0:0,0:0:0:0:
321,53,50454,2,0,P|354:60|379:68,1,52,2|2,0:0|3:2,0:0:0:0:
402,107,50877,2,0,P|391:139|385:164,1,52,0|8,0:0|0:0,0:0:0:0:
402,206,51299,1,0,0:0:0:0:
428,252,51511,5,2,3:2:0:0:
389,348,51933,2,0,L|337:360,1,52,8|2,0:0|0:0,0:0:0:0:
299,333,52356,1,2,3:2:0:0:
299,333,52567,2,0,L|315:274,2,52,0|2|0,0:0|0:0|0:0,0:0:0:0:
250,353,53201,1,8,0:0:0:0:
94,261,53835,1,2,0:0:0:0:
94,261,54046,2,0,L|36:249,2,52,2|0|10,0:0|0:0|0:0,0:0:0:0:
163,338,54891,6,0,B|234:350|234:350|260:315,1,104,4|8,3:2|0:0,0:0:0:0:
260,276,55525,1,0,0:0:0:0:
260,276,55736,2,0,P|264:225|291:167,1,104,2|8,3:2|0:0,0:0:0:0:
327,147,56370,2,0,L|381:162,1,52,2|0,0:0|3:0,0:0:0:0:
420,133,56792,1,2,0:0:0:0:
484,214,57215,2,0,P|499:265|502:317,1,104,2|0,0:0|0:0,0:0:0:0:
408,361,58060,1,0,0:0:0:0:
408,361,58271,6,0,P|368:330|311:324,1,104,2|8,3:2|0:0,0:0:0:0:
272,351,58905,1,2,0:0:0:0:
272,351,59116,2,0,P|242:309|259:255,1,104,2|8,3:2|0:0,0:0:0:0:
285,219,59750,1,2,0:0:0:0:
222,135,60173,1,2,0:0:0:0:
131,185,60595,1,2,0:0:0:0:
131,185,60807,2,0,L|70:176,1,52,0|2,3:0|0:0,0:0:0:0:
41,212,61229,2,0,L|32:273,1,52,8|2,0:0|0:0,0:0:0:0:
55,310,61652,6,0,P|102:289|171:281,1,104,2|8,3:2|0:0,0:0:0:0:
248,322,62497,2,0,L|260:375,2,52,2|0|8,3:2|0:0|0:0,0:0:0:0:
278,280,63130,1,2,0:0:0:0:
282,228,63342,2,0,P|242:192|191:175,1,104,0|8,3:0|0:0,0:0:0:0:
146,193,63976,1,2,0:0:0:0:
70,121,64398,1,0,0:0:0:0:
131,37,64821,1,2,0:0:0:0:
131,37,65032,6,0,P|177:40|233:14,1,104,2|8,3:2|0:0,0:0:0:0:
279,31,65666,2,0,L|289:85,1,52,2|2,0:0|3:2,0:0:0:0:
297,133,66088,1,0,0:0:0:0:
364,212,66511,2,0,B|394:225|418:206|410:201|433:185|468:195,2,104,2|2|2,0:0|0:0|0:0,0:0:0:0:
285,280,67778,1,2,0:0:0:0:
285,280,67990,2,0,L|292:342,1,52,8|2,0:0|0:0,0:0:0:0:
328,367,68412,5,6,0:0:0:0:
328,367,70102,2,0,P|285:344|225:335,1,104,8|8,0:0|0:0,0:0:0:0:
181,352,70736,1,0,0:0:0:0:
181,352,70947,2,0,P|192:299|199:246,1,104,8|8,0:0|0:0,0:0:0:0:
98,277,71792,6,0,P|70:228|88:178,1,104,2|8,0:0|0:0,0:0:0:0:
200,39,72849,2,0,L|253:49,1,52,2|8,0:0|0:0,0:0:0:0:
286,92,73271,1,2,0:0:0:0:
286,92,73483,2,0,P|238:109|196:152,1,104,0|8,3:0|0:0,0:0:0:0:
350,257,74539,2,0,L|360:310,1,52,2|8,0:0|0:0,0:0:0:0:
406,345,74961,1,2,0:0:0:0:
406,345,75173,6,0,P|424:295|473:264,1,104,0|8,3:0|0:0,0:0:0:0:
419,84,76229,1,2,0:0:0:0:
419,84,76440,2,0,L|364:71,1,52,8|2,0:0|0:0,0:0:0:0:
333,111,76863,2,0,P|280:121|230:144,1,104,0|8,3:0|0:0,0:0:0:0:
200,180,77497,1,0,0:0:0:0:
134,260,77919,2,0,L|124:322,2,52,2|8|2,0:0|0:0|0:0,0:0:0:0:
88,235,78553,6,0,P|58:200|65:142,1,104,0|8,0:0|0:0,0:0:0:0:
205,23,79609,1,2,0:0:0:0:
205,23,79821,2,0,L|217:92,1,52,8|0,0:0|0:0,0:0:0:0:
255,104,80243,1,2,3:2:0:0:
223,203,80666,1,2,3:2:0:0:
191,302,81088,2,0,B|251:338|251:338|294:327,1,104,2|8,3:2|0:0,0:0:0:0:
384,354,81933,6,0,P|387:306|403:252,1,104,2|8,3:3|0:0,0:0:0:0:
431,208,82567,1,0,0:0:0:0:
380,114,82990,2,0,L|327:94,1,52,2|8,0:0|0:0,0:0:0:0:
315,49,83412,1,2,0:0:0:0:
315,49,83623,2,0,P|274:67|211:80,1,104,0|8,3:0|0:0,0:0:0:0:
166,62,84257,1,0,0:0:0:0:
97,140,84680,2,0,L|87:194,1,52,2|8,0:0|0:0,0:0:0:0:
120,238,85102,1,2,0:0:0:0:
120,238,85314,6,0,P|160:213|227:218,1,104,0|8,3:0|0:0,0:0:0:0:
373,314,86370,2,0,L|313:326,1,52,2|8,0:0|0:0,0:0:0:0:
276,348,86792,1,2,0:0:0:0:
276,348,87004,2,0,P|292:299|302:242,1,104,0|8,3:0|0:0,0:0:0:0:
249,157,87849,2,0,L|240:98,1,52,8|0,0:0|3:0,0:0:0:0:
194,82,88271,2,0,L|154:40,1,52,0|0,3:0|3:0,0:0:0:0:
106,48,88694,5,4,3:2:0:0:
356,160,95454,6,0,P|409:108|392:32,2,156,2|2|2,3:2|3:2|3:2,0:0:0:0:
254,134,97145,2,0,P|207:115|151:115,1,104,2|2,3:2|0:0,0:0:0:0:
129,160,97778,2,0,P|161:236|176:310,1,156,0|0,3:0|0:0,0:0:0:0:
264,362,98835,5,2,3:2:0:0:
364,336,99257,1,0,0:0:0:0:
446,272,99680,2,0,P|458:220|460:162,1,104,0|2,0:0|0:0,0:0:0:0:
400,85,100525,1,2,3:2:0:0:
400,85,102215,6,0,P|361:114|289:123,1,104,2|8,3:2|0:0,0:0:0:0:
276,92,102849,1,2,0:0:0:0:
276,92,103060,2,0,L|283:25,2,52,0|0|10,3:0|0:0|0:0,0:0:0:0:
174,116,103905,2,0,P|147:159|165:216,1,104,2|8,3:2|0:0,0:0:0:0:
187,251,104539,2,0,L|247:264,1,52,2|0,0:0|3:0,0:0:0:0:
257,309,104961,2,0,L|317:296,1,52,0|10,0:0|0:0,0:0:0:0:
402,337,105595,6,0,P|411:290|419:227,1,104,2|10,3:2|0:0,0:0:0:0:
416,188,106229,1,0,0:0:0:0:
416,188,106440,2,0,L|472:196,2,52,0|2|10,3:0|0:0|0:0,0:0:0:0:
365,96,107285,1,0,3:0:0:0:
279,156,107708,2,0,L|220:165,1,52,8|2,0:0|0:0,0:0:0:0:
190,127,108130,2,0,L|206:72,2,52,2|0|8,3:2|0:0|0:0,0:0:0:0:
88,150,108976,6,0,P|74:202|50:246,1,104,2|8,3:2|0:0,0:0:0:0:
60,299,109609,1,2,0:0:0:0:
60,299,109821,2,0,L|74:358,2,52,2|0|10,3:2|0:0|0:0,0:0:0:0:
152,252,110666,1,2,3:2:0:0:
152,252,110877,2,0,P|198:232|266:230,1,104,0|2,0:0|0:0,0:0:0:0:
297,203,111511,2,0,L|313:148,2,52,2|0|8,3:2|0:0|0:0,0:0:0:0:
350,292,112356,6,0,P|391:300|452:269,1,104,2|8,3:2|0:0,0:0:0:0:
428,233,112990,1,2,0:0:0:0:
428,233,113201,2,0,L|400:185,1,52,2|0,3:2|0:0,0:0:0:0:
364,152,113623,2,0,L|374:98,1,52,2|0,3:2|0:0,0:0:0:0:
399,55,114046,1,8,0:0:0:0:
222,114,114680,1,2,0:0:0:0:
222,114,114891,2,0,L|168:97,2,52,2|0|10,0:0|0:0|0:0,0:0:0:0:
299,185,115736,6,0,P|338:151|405:152,1,104,4|8,3:2|0:0,0:0:0:0:
420,196,116370,1,2,0:0:0:0:
420,196,116581,2,0,L|484:185,2,52,2|0|8,3:2|0:0|0:0,0:0:0:0:
341,264,117426,2,0,P|330:289|327:322,1,52,0|2,3:0|0:0,0:0:0:0:
287,345,117849,1,8,0:0:0:0:
287,345,118060,2,0,P|240:317|171:322,1,104,2|0,0:0|0:0,0:0:0:0:
104,255,118905,1,2,0:0:0:0:
104,255,119116,6,0,P|89:203|130:168,1,104,2|8,3:2|0:0,0:0:0:0:
110,123,119750,1,2,0:0:0:0:
110,123,119961,2,0,P|173:163|266:170,1,156,2|2,3:2|0:0,0:0:0:0:
328,100,121018,1,2,0:0:0:0:
411,38,121440,1,2,0:0:0:0:
411,38,121652,2,0,P|435:28|470:27,2,52,2|0|10,3:2|0:0|0:0,0:0:0:0:
328,100,122497,6,0,P|272:91|236:63,1,104,2|8,3:2|0:0,0:0:0:0:
196,26,123130,1,2,0:0:0:0:
196,26,123342,2,0,L|128:36,2,52,2|0|8,3:2|0:0|0:0,0:0:0:0:
168,126,124187,2,0,P|152:180|144:245,1,104,0|8,3:0|0:0,0:0:0:0:
166,274,124821,2,0,P|214:247|274:250,1,104,2|0,0:0|0:0,0:0:0:0:
335,320,125666,1,2,0:0:0:0:
335,320,125877,6,0,B|398:359|398:359|451:348,1,104,0|8,3:0|0:0,0:0:0:0:
470,323,126511,2,0,L|480:263,1,52,2|0,0:0|3:0,0:0:0:0:
460,220,126933,1,0,0:0:0:0:
377,155,127356,1,2,0:0:0:0:
295,219,127778,2,0,P|274:230|243:237,1,52,2|0,0:0|0:0,0:0:0:0:
203,207,128201,2,0,P|213:158|215:96,1,104,2|10,0:0|0:0,0:0:0:0:
186,60,128835,1,10,0:0:0:0:
84,37,129257,6,0,P|61:110|54:194,1,156,2|2,3:2|0:0,0:0:0:0:
82,232,130102,2,0,P|133:216|197:211,1,104,0|8,0:0|0:0,0:0:0:0:
231,230,130736,1,2,0:0:0:0:
285,329,131159,2,0,P|311:338|344:342,1,52,2|8,0:0|0:0,0:0:0:0:
381,319,131581,1,2,0:0:0:0:
440,233,132004,1,2,0:0:0:0:
405,135,132426,1,2,0:0:0:0:
405,135,132637,6,0,P|334:95|309:27,1,156,2|2,3:2|0:0,0:0:0:0:
256,30,133483,2,0,P|242:83|189:106,1,104,0|8,0:0|0:0,0:0:0:0:
150,117,134116,1,2,0:0:0:0:
203,206,134539,2,0,L|194:266,1,52,2|8,0:0|0:0,0:0:0:0:
233,292,134961,2,0,P|281:288|325:333,1,104,2|2,0:0|0:0,0:0:0:0:
344,369,135595,1,8,0:0:0:0:
444,341,136018,5,2,3:2:0:0:
469,241,139398,5,2,3:2:0:0:
411,327,139821,2,0,P|370:271|380:186,1,156,0|0,0:0|3:0,0:0:0:0:
412,148,140666,1,0,0:0:0:0:
365,73,141088,6,0,B|294:16|184:86|217:102|107:172|38:132,1,353.600006744385,12|2,0:0|0:0,0:0:0:0:
62,318,156299,6,0,P|39:275|57:217,1,104,2|0,3:2|3:0,0:0:0:0:
125,149,157145,1,8,0:0:0:0:
274,261,157778,2,0,B|331:219|331:219|367:235,1,104,0|0,3:0|3:0,0:0:0:0:
402,264,158412,1,2,0:0:0:0:
483,199,158835,2,0,P|479:149|463:95,1,104,8|0,0:0|3:0,0:0:0:0:
386,27,159680,5,8,0:0:0:0:
299,83,160102,1,0,3:0:0:0:
199,50,160525,2,0,P|120:36|38:30,1,156,8|0,0:0|3:0,0:0:0:0:
92,131,161581,1,8,0:0:0:0:
92,131,161792,2,0,P|91:184|71:240,1,104,2|8,0:0|0:0,0:0:0:0:
130,320,162637,1,2,0:0:0:0:
213,257,163060,6,0,B|265:247|265:247|317:279,1,104,10|8,0:0|0:0,0:0:0:0:
378,197,163905,1,8,0:0:0:0:
488,348,164539,2,0,P|438:366|382:372,1,104,8|8,0:0|0:0,0:0:0:0:
351,334,165173,1,2,3:2:0:0:
248,349,165595,2,0,P|242:299|266:240,1,104,8|0,0:0|3:0,0:0:0:0:
341,185,166440,5,12,0:0:0:0:
323,82,166863,1,2,0:0:0:0:
230,35,167285,2,0,P|179:29|132:55,1,104,2|2,0:0|0:0,0:0:0:0:
81,142,168130,2,0,L|29:130,2,52,10|8|10,0:0|0:0|0:0,0:0:0:0:
149,221,168976,2,0,L|201:209,2,52,10|0|10,0:0|0:0|0:0,0:0:0:0:
119,263,169609,1,0,0:0:0:0:
119,263,169821,6,0,P|125:319|166:349,1,104,2|8,3:2|0:0,0:0:0:0:
215,342,170454,1,2,0:0:0:0:
215,342,170666,2,0,L|225:287,2,52,0|0|10,3:0|0:0|0:0,0:0:0:0:
314,371,171511,2,0,P|367:362|427:343,1,104,2|8,3:2|0:0,0:0:0:0:
451,310,172145,2,0,L|441:252,1,52,2|2,0:0|3:2,0:0:0:0:
433,211,172567,1,0,0:0:0:0:
433,211,172778,1,10,0:0:0:0:
472,114,173201,6,0,P|459:66|410:32,1,104,2|8,3:2|0:0,0:0:0:0:
370,57,173835,1,2,0:0:0:0:
370,57,174046,2,0,P|315:59|266:37,1,104,0|10,3:0|0:0,0:0:0:0:
171,9,174891,2,0,L|114:24,1,52,2|0,3:2|0:0,0:0:0:0:
79,53,175314,2,0,L|67:113,1,52,8|2,0:0|0:0,0:0:0:0:
102,143,175736,2,0,P|131:188|113:238,1,104,2|8,3:2|0:0,0:0:0:0:
181,315,176581,6,0,P|230:302|285:298,1,104,2|8,3:2|0:0,0:0:0:0:
327,269,177215,1,2,0:0:0:0:
327,269,177426,2,0,L|338:207,2,52,2|0|8,3:2|0:0|0:0,0:0:0:0:
238,213,178271,2,0,P|218:168|218:109,1,104,2|8,3:2|0:0,0:0:0:0:
244,69,178905,1,2,0:0:0:0:
244,69,179116,2,0,P|294:77|360:52,1,104,2|10,3:2|0:0,0:0:0:0:
390,38,179750,1,0,0:0:0:0:
432,68,179961,6,0,P|429:123|410:177,1,104,2|8,3:2|0:0,0:0:0:0:
451,214,180595,1,2,0:0:0:0:
451,214,180807,2,0,P|437:237|419:261,1,52,0|2,3:0|0:0,0:0:0:0:
381,289,181229,2,0,B|359:272|359:272|333:267,1,52,0|0,3:0|0:0,0:0:0:0:
283,277,181652,1,2,3:2:0:0:
132,316,182285,1,2,3:2:0:0:
132,316,182497,2,0,P|121:290|116:261,2,52,0|0|10,3:2|3:0|0:0,0:0:0:0:
230,348,183342,6,0,P|254:307|253:240,1,104,4|8,3:2|0:0,0:0:0:0:
228,212,183976,1,2,0:0:0:0:
228,212,184187,2,0,P|177:229|118:229,1,104,2|8,3:2|0:0,0:0:0:0:
86,197,184821,2,0,L|80:141,1,52,2|0,0:0|3:0,0:0:0:0:
76,93,185243,1,2,0:0:0:0:
141,11,185666,2,0,B|199:3,1,52,2|0,0:0|0:0,0:0:0:0:
227,41,186088,2,0,P|265:65|321:47,1,104
364,24,186722,6,0,B|393:55|393:55|380:129,1,104,2|8,3:2|0:0,0:0:0:0:
422,155,187356,1,2,0:0:0:0:
422,155,187567,2,0,B|393:186|393:186|406:260,1,104,2|8,3:2|0:0,0:0:0:0:
417,296,188201,1,2,0:0:0:0:
338,364,188623,1,2,0:0:0:0:
246,313,189046,1,2,0:0:0:0:
246,313,189257,2,0,L|187:319,2,52,0|2|8,3:0|0:0|0:0,0:0:0:0:
284,216,190102,6,0,P|267:169|217:134,1,104,2|8,3:2|0:0,0:0:0:0:
218,85,190736,1,2,0:0:0:0:
218,85,190947,2,0,P|176:112|122:123,1,104,0|8,3:0|0:0,0:0:0:0:
84,157,191581,2,0,L|74:212,1,52
111,310,192215,1,8,0:0:0:0:
111,310,192426,2,0,P|161:306|217:355,1,104,2|0,0:0|0:0,0:0:0:0:
314,359,193271,1,0,0:0:0:0:
314,359,193483,6,0,P|339:312|336:249,1,104,2|8,3:2|0:0,0:0:0:0:
314,223,194116,1,0,0:0:0:0:
314,223,194328,2,0,L|249:205,2,52,2|0|0,3:2|0:0|0:0,0:0:0:0:
351,186,194961,5,2,0:0:0:0:
315,91,195384,1,2,0:0:0:0:
225,31,195807,1,2,0:0:0:0:
228,36,196018,2,0,L|160:60,1,52,0|0,3:0|3:0,0:0:0:0:
139,88,196440,2,0,P|133:115|125:138,1,52,10|2,0:0|3:2,0:0:0:0:
92,177,196863,6,0,P|131:208|154:260,1,104,2|8,3:2|0:0,0:0:0:0:
146,310,197497,1,2,0:0:0:0:
146,310,197708,2,0,P|186:275|235:281,1,104,2|8,3:2|0:0,0:0:0:0:
276,308,198342,1,2,0:0:0:0:
385,324,198764,1,2,0:0:0:0:
385,324,198976,2,0,P|398:299|402:269,1,52,8|2,0:0|0:0,0:0:0:0:
428,231,199398,2,0,P|419:204|401:180,1,52,0|0,3:0|0:0,0:0:0:0:
366,150,199821,1,10,0:0:0:0:
348,47,200243,6,0,P|299:70|234:82,1,104,2|10,3:2|0:0,0:0:0:0:
211,46,200877,1,0,0:0:0:0:
211,46,201088,2,0,P|164:14|117:19,1,104,2|8,3:2|0:0,0:0:0:0:
73,43,201722,1,2,0:0:0:0:
24,134,202145,1,2,0:0:0:0:
24,134,202356,2,0,L|76:147,1,52,8|2,0:0|0:0,0:0:0:0:
109,185,202778,2,0,L|161:172,2,52,0|2|8,3:0|0:0|0:0,0:0:0:0:
84,286,203623,6,0,B|94:313|94:313|178:338,1,104,0|10,3:0|0:0,0:0:0:0:
210,306,204257,1,0,0:0:0:0:
210,306,204468,2,0,P|221:264|257:216,1,104,2|8,3:2|0:0,0:0:0:0:
305,196,205102,1,2,0:0:0:0:
388,257,205525,2,0,L|403:319,2,52,2|8|2,0:0|0:0|0:0,0:0:0:0:
427,223,206159,2,0,P|438:197|440:161,1,52,0|2,3:0|0:0,0:0:0:0:
422,124,206581,1,8,0:0:0:0:
343,56,207004,6,0,P|291:60|234:71,1,104,0|0,3:0|3:0,0:0:0:0:
196,55,207637,1,2,3:2:0:0:
196,55,207849,2,0,L|187:-5,2,52,0|0|2,3:0|3:0|3:2,0:0:0:0:
107,110,208694,2,0,L|61:86,2,52,2|0|2,3:2|3:0|3:2,0:0:0:0:
132,155,209328,1,2,3:2:0:0:
93,251,209750,2,0,L|80:311,1,52,2|0,3:2|3:0,0:0:0:0:
108,346,210173,5,10,0:0:0:0:
256,192,210384,12,0,217145,3:0:0:0:
