osu file format v14

[General]
AudioFilename: audio.mp3
AudioLeadIn: 0
PreviewTime: 54785
Countdown: 0
SampleSet: Soft
StackLeniency: 0.7
Mode: 0
LetterboxInBreaks: 0
WidescreenStoryboard: 0

[Editor]
DistanceSpacing: 1
BeatDivisor: 4
GridSize: 4
TimelineZoom: 1.3

[Metadata]
Title:Impressions
TitleUnicode:Impressions
Artist:Carpool Tunnel
ArtistUnicode:Carpool Tunnel
Creator:Hinsvar
Version:Insane
Source:
Tags:Indie Rock English Featured Artist FA Mappers' Guild MPG
BeatmapID:2200216
BeatmapSetID:1052846

[Difficulty]
HPDrainRate:6
CircleSize:4.5
OverallDifficulty:7.5
ApproachRate:8.5
SliderMultiplier:1.6
SliderTickRate:1

[Events]
//Background and Video events
0,0,"impressions.jpg",0,0
//Break Periods
2,88894,94568
2,142978,155624
//Storyboard Layer 0 (Background)
//Storyboard Layer 1 (Fail)
//Storyboard Layer 2 (Pass)
//Storyboard Layer 3 (Foreground)
//Storyboard Layer 4 (Overlay)
//Storyboard Sound Samples

[TimingPoints]
807,422.535211267606,4,2,1,70,1,0
7567,-111.111111111111,4,2,1,70,0,0
14328,-125,4,2,2,60,0,0
39680,-125,4,2,1,60,0,0
41370,-111.111111111111,4,2,1,70,0,0
48025,-111.111111111111,4,2,1,5,0,0
48130,-111.111111111111,4,2,1,70,0,0
53835,-125,4,2,1,60,0,0
54891,-100,4,2,1,80,0,1
68307,-100,4,2,1,50,0,1
68412,-125,4,2,2,40,0,0
70102,-125,4,2,2,50,0,0
71792,-125,4,2,2,60,0,0
73588,-125,4,2,2,5,0,0
73694,-125,4,2,2,60,0,0
73799,-125,4,2,2,5,0,0
73905,-125,4,2,2,60,0,0
75278,-125,4,2,2,5,0,0
75384,-125,4,2,2,60,0,0
75490,-125,4,2,2,5,0,0
75595,-125,4,2,2,60,0,0
76968,-125,4,2,2,5,0,0
77074,-125,4,2,2,60,0,0
77180,-125,4,2,2,5,0,0
77285,-125,4,2,2,60,0,0
78659,-125,4,2,2,5,0,0
78764,-125,4,2,2,60,0,0
78870,-125,4,2,2,5,0,0
78976,-125,4,2,2,60,0,0
80243,-100,4,2,2,60,0,0
80560,-100,4,2,2,5,0,0
80666,-100,4,2,2,60,0,0
80983,-100,4,2,2,5,0,0
81088,-100,4,2,2,60,0,0
81933,-125,4,2,2,60,0,0
83729,-125,4,2,2,5,0,0
83835,-125,4,2,2,60,0,0
83940,-125,4,2,2,5,0,0
84046,-125,4,2,2,60,0,0
85419,-125,4,2,2,5,0,0
85525,-125,4,2,2,60,0,0
85630,-125,4,2,2,5,0,0
85736,-125,4,2,2,60,0,0
87109,-125,4,2,2,5,0,0
87215,-125,4,2,2,60,0,0
87321,-125,4,2,2,5,0,0
87426,-125,4,2,2,60,0,0
88694,-142.857142857143,4,2,2,40,0,0
95243,-142.857142857143,4,2,2,50,0,0
102215,-111.111111111111,4,2,1,70,0,0
108870,-111.111111111111,4,2,1,5,0,0
108976,-111.111111111111,4,2,1,70,0,0
114680,-125,4,2,1,60,0,0
115736,-100,4,2,1,80,0,1
129257,-125,4,2,2,60,0,0
135701,-125,4,2,2,5,0,0
135807,-125,4,2,2,60,0,0
135912,-125,4,2,2,5,0,0
136018,-200,4,2,2,30,0,0
141088,-333.333333333333,4,2,2,40,0,0
156299,-142.857142857143,4,2,2,50,0,0
158729,-142.857142857143,4,2,2,5,0,0
158835,-142.857142857143,4,2,2,50,0,0
160419,-142.857142857143,4,2,2,5,0,0
160525,-142.857142857143,4,2,2,50,0,0
166440,-125,4,2,2,40,0,0
166757,-125,4,2,2,5,0,0
166863,-125,4,2,2,50,0,0
167180,-125,4,2,2,5,0,0
167285,-125,4,2,2,50,0,0
168130,-125,4,2,2,60,0,0
169821,-111.111111111111,4,2,1,70,0,0
183342,-100,4,2,1,80,0,1
196863,-111.111111111111,4,2,1,70,0,0
200137,-111.111111111111,4,2,1,5,0,0
200243,-111.111111111111,4,2,1,70,0,0
202039,-111.111111111111,4,2,1,5,0,0
202145,-111.111111111111,4,2,1,70,0,0
207004,-111.111111111111,4,2,1,60,0,0
207849,-111.111111111111,4,2,1,65,0,0
208694,-111.111111111111,4,2,1,70,0,0
209328,-111.111111111111,4,2,1,75,0,0
210173,-111.111111111111,4,2,1,80,0,0
210807,-111.111111111111,4,2,1,70,0,0
211229,-111.111111111111,4,2,1,60,0,0
211652,-111.111111111111,4,2,1,50,0,0
212074,-111.111111111111,4,2,1,40,0,0
212919,-111.111111111111,4,2,1,30,0,0
214609,-111.111111111111,4,2,1,20,0,0
215877,-111.111111111111,4,2,1,10,0,0
217145,-111.111111111111,4,2,1,5,0,0

[Colours]
Combo1 : 89,247,200
Combo2 : 4,155,106
Combo3 : 41,203,243
Combo4 : 231,188,137

[HitObjects]
364,323,7567,6,0,P|393:272|404:182,1,143.999995605469,4|8,3:2|0:0,0:0:0:0:
351,120,8201,1,2,0:0:0:0:
206,221,8412,2,0,P|243:217|279:201,1,71.9999978027344,2|0,3:2|0:0,0:0:0:0:
247,72,8835,1,8,0:0:0:0:
287,187,9046,6,0,B|249:195|219:171|228:163|190:132|150:146,1,143.999995605469,2|2,3:2|0:0,0:0:0:0:
96,209,9680,1,8,0:0:0:0:
41,55,9891,1,2,0:0:0:0:
196,93,10102,2,0,P|166:116|130:121,1,71.9999978027344,2|0,3:2|0:0,0:0:0:0:
23,201,10525,2,0,P|59:212|84:238,1,71.9999978027344,8|0,0:0|0:0,0:0:0:0:
210,351,10947,6,0,P|196:274|195:194,1,143.999995605469,2|8,3:2|0:0,0:0:0:0:
95,329,11581,1,2,0:0:0:0:
273,235,11792,1,2,3:2:0:0:
138,159,12004,1,0,0:0:0:0:
248,34,12215,2,0,B|256:56|256:56|240:102,1,71.9999978027344,8|0,0:0|0:0,0:0:0:0:
166,57,12637,5,2,3:2:0:0:
324,140,12849,2,0,B|293:77|293:77|321:-3,1,143.999995605469,2|2,0:0|0:0,0:0:0:0:
506,42,13483,2,0,L|460:29,1,35.9999989013672,0|0,3:0|0:0,0:0:0:0:
403,10,13694,1,2,0:0:0:0:
439,151,13905,2,8,B|476:157|476:157|507:138,1,71.9999978027344,10|0,0:0|0:0,0:0:0:0:
391,229,14328,6,0,P|336:212|349:149,1,128,2|8,3:2|0:0,0:0:0:0:
364,129,15384,1,2,0:0:0:0:
306,69,15595,2,0,P|276:52|243:43,1,64,8|2,0:0|0:0,0:0:0:0:
337,4,16018,6,0,P|303:47|210:44,1,128,0|8,3:0|0:0,0:0:0:0:
214,34,17074,2,0,P|182:40|154:54,1,64,2|8,0:0|0:0,0:0:0:0:
271,172,17497,6,0,B|295:140|295:140|212:112,1,128,2|0,0:0|0:0,0:0:0:0:
63,134,18130,1,8,0:0:0:0:
83,104,18764,2,0,P|95:74|98:41,1,64,2|8,0:0|0:0,0:0:0:0:
173,4,19187,5,2,0:0:0:0:
312,51,19398,1,0,3:0:0:0:
231,69,19609,1,0,3:0:0:0:
384,1,19821,1,8,0:0:0:0:
346,118,20032,2,0,B|325:143|287:141|290:135|253:131|227:155,1,128,2|0,0:0|0:0,0:0:0:0:
201,227,20666,1,8,0:0:0:0:
310,322,20877,6,0,P|302:252|349:206,1,128,2|0,0:0|0:0,0:0:0:0:
414,241,21511,1,8,0:0:0:0:
441,256,22145,2,0,P|475:255|494:234,1,64,2|8,0:0|0:0,0:0:0:0:
466,340,22567,1,2,0:0:0:0:
373,191,22778,6,0,P|432:169|489:199,1,128,0|8,3:0|0:0,0:0:0:0:
392,281,23412,1,0,0:0:0:0:
392,281,23835,2,0,P|383:311|376:348,1,64,2|8,0:0|0:0,0:0:0:0:
274,271,24257,6,0,P|319:307|336:376,1,128,2|0,0:0|0:0,0:0:0:0:
171,332,24891,1,8,0:0:0:0:
168,319,25314,1,0,0:0:0:0:
245,369,25525,2,0,P|253:336|257:299,1,64,2|8,0:0|0:0,0:0:0:0:
217,226,25947,1,2,0:0:0:0:
88,354,26159,6,0,B|75:324|75:324|84:291,1,64,0|0,3:0|0:0,0:0:0:0:
233,351,26581,1,8,0:0:0:0:
292,297,26792,2,0,L|164:313,1,128,0|2,0:0|0:0,0:0:0:0:
246,167,27426,1,8,0:0:0:0:
266,191,27532,1,0,3:0:0:0:
258,221,27637,1,2,0:0:0:0:
355,351,27849,6,0,B|334:304|334:304|357:228,1,128,2|8,3:3|0:0,0:0:0:0:
436,249,28483,1,0,0:0:0:0:
373,152,28694,1,0,0:0:0:0:
467,43,28905,2,0,P|438:30|401:26,1,64,2|8,0:0|0:0,0:0:0:0:
244,124,29328,6,0,P|302:136|379:122,1,128,2|0,0:0|0:0,0:0:0:0:
330,214,29961,1,8,0:0:0:0:
218,151,30173,2,0,P|232:209|232:278,1,128,0|2,0:0|0:0,0:0:0:0:
159,357,30807,1,8,0:0:0:0:
38,297,31018,6,0,P|101:287|124:228,1,128,2|0,0:0|0:0,0:0:0:0:
56,146,31652,1,8,0:0:0:0:
56,146,32285,2,0,P|46:176|40:212,1,64,2|8,0:0|0:0,0:0:0:0:
22,69,32708,1,2,0:0:0:0:
169,213,32919,5,0,3:0:0:0:
286,141,33130,1,0,3:0:0:0:
111,30,33342,1,8,0:0:0:0:
241,198,33553,2,0,P|245:136|261:70,1,128,2|2,0:0|0:0,0:0:0:0:
333,0,34187,1,8,0:0:0:0:
443,73,34398,6,0,P|374:83|376:138,1,128,2|0,0:0|0:0,0:0:0:0:
427,232,35032,2,0,L|500:223,1,64,8|0,0:0|0:0,0:0:0:0:
497,201,35666,2,0,L|433:208,1,64,2|8,0:0|0:0,0:0:0:0:
389,308,36088,1,2,0:0:0:0:
291,162,36299,5,0,3:0:0:0:
303,192,36511,1,0,3:0:0:0:
442,241,36722,1,8,0:0:0:0:
336,363,36933,2,0,P|349:306|285:285,1,128,0|2,0:0|0:0,0:0:0:0:
207,344,37567,1,8,0:0:0:0:
94,258,37778,6,0,B|126:280|126:280|214:246,1,128,2|0,0:0|0:0,0:0:0:0:
118,167,38412,1,8,0:0:0:0:
97,86,38623,1,0,3:0:0:0:
153,24,38835,1,0,3:0:0:0:
327,71,39046,2,0,P|304:83|263:92,1,64,2|0,3:2|0:0,0:0:0:0:
272,6,39468,1,2,0:0:0:0:
332,189,39680,5,8,0:0:0:0:
332,189,41370,6,0,B|314:236|314:236|417:218,1,143.999995605469,2|8,3:2|0:0,0:0:0:0:
512,280,42004,1,2,0:0:0:0:
449,131,42215,2,0,P|433:162|424:206,1,71.9999978027344,0|0,3:0|0:0,0:0:0:0:
392,322,42637,2,0,P|385:291|346:261,1,71.9999978027344,10|0,0:0|0:0,0:0:0:0:
189,309,43060,6,0,P|164:245|162:169,1,143.999995605469,2|8,3:2|0:0,0:0:0:0:
216,17,43694,1,2,0:0:0:0:
86,104,43905,2,0,P|124:100|158:89,1,71.9999978027344,0|2,3:0|0:0,0:0:0:0:
292,45,44328,2,0,P|330:49|364:60,1,71.9999978027344,8|0,0:0|0:0,0:0:0:0:
428,226,44750,6,0,P|398:173|467:130,1,143.999995605469,2|8,3:2|0:0,0:0:0:0:
316,160,45384,1,2,0:0:0:0:
260,287,45595,2,0,P|298:281|326:254,1,71.9999978027344,0|0,3:0|0:0,0:0:0:0:
224,136,46018,1,8,0:0:0:0:
178,324,46229,1,0,0:0:0:0:
48,251,46440,6,0,P|86:246|120:264,1,71.9999978027344,0|0,3:0|0:0,0:0:0:0:
156,365,46863,1,8,0:0:0:0:
186,218,47074,1,2,0:0:0:0:
71,333,47285,1,0,3:0:0:0:
260,283,47497,1,2,0:0:0:0:
87,144,47708,2,0,P|128:162|165:117,1,107.999996704102,8|0,0:0|0:0,0:0:0:0:
173,84,48130,6,0,P|189:156|226:220,1,143.999995605469,2|8,3:2|0:0,0:0:0:0:
298,117,48764,1,2,0:0:0:0:
211,241,48976,2,0,P|186:211|172:176,1,71.9999978027344,0|2,3:0|0:0,0:0:0:0:
327,284,49398,2,0,P|300:308|268:324,1,71.9999978027344,8|0,0:0|0:0,0:0:0:0:
505,374,49821,6,0,P|506:337|493:304,1,71.9999978027344,0|0,3:0|0:0,0:0:0:0:
331,365,50243,1,8,0:0:0:0:
431,353,50454,1,2,0:0:0:0:
291,221,50666,1,2,3:2:0:0:
308,344,50877,1,0,0:0:0:0:
402,165,51088,1,8,0:0:0:0:
319,316,51299,1,0,0:0:0:0:
303,306,51405,1,0,0:0:0:0:
284,301,51511,6,0,B|258:286|209:310|218:318|175:341|147:328,1,143.999995605469,2|8,3:2|0:0,0:0:0:0:
216,156,52145,1,2,0:0:0:0:
50,231,52356,1,2,3:2:0:0:
207,277,52567,1,0,0:0:0:0:
88,327,52778,1,2,0:0:0:0:
97,345,52990,1,2,0:0:0:0:
174,123,53201,5,8,0:0:0:0:
193,133,53835,1,2,0:0:0:0:
212,140,54046,2,0,L|276:125,1,64,2|0,0:0|0:0,0:0:0:0:
415,219,54468,1,10,0:0:0:0:
335,191,54680,1,0,0:0:0:0:
389,350,54891,6,0,B|340:325|309:284|309:284|301:312|260:342,1,160,4|8,3:2|0:0,0:0:0:0:
166,367,55525,1,0,0:0:0:0:
36,280,55736,2,0,B|91:272|91:272|116:298,1,80,2|0,3:2|0:0,0:0:0:0:
192,343,56159,2,0,P|206:307|214:261,1,80,8|2,0:0|0:0,0:0:0:0:
338,132,56581,6,0,P|314:165|277:183,1,80,0|2,3:0|0:0,0:0:0:0:
254,85,57004,1,8,0:0:0:0:
134,183,57215,2,0,P|209:168|272:217,1,160,2|0,0:0|0:0,0:0:0:0:
384,267,57849,2,0,P|367:232|370:182,1,80,10|0,0:0|0:0,0:0:0:0:
467,303,58271,6,0,B|424:313|424:313|351:290|351:290|309:299,1,160,2|8,3:2|0:0,0:0:0:0:
469,384,58905,1,2,0:0:0:0:
375,381,59116,2,0,B|371:354|371:354|401:255|401:255|395:227,1,160,2|8,3:2|0:0,0:0:0:0:
327,44,59750,6,0,P|305:78|295:120,1,80,2|0,0:0|3:0,0:0:0:0:
134,106,60173,2,0,P|142:145|165:182,1,80,2|8,0:0|0:0,0:0:0:0:
281,297,60595,1,2,0:0:0:0:
182,199,60807,6,0,P|193:159|230:140,1,80,0|2,3:0|0:0,0:0:0:0:
70,53,61229,2,0,P|101:26|142:25,1,80,8|2,0:0|0:0,0:0:0:0:
87,241,61652,5,2,3:2:0:0:
65,159,61863,1,0,0:0:0:0:
194,294,62074,1,8,0:0:0:0:
306,164,62285,1,2,0:0:0:0:
137,38,62497,2,0,P|155:73|160:112,1,80,2|0,3:2|0:0,0:0:0:0:
256,215,62919,2,0,P|287:191|325:179,1,80,8|2,0:0|0:0,0:0:0:0:
203,331,63342,6,0,P|231:361|283:363,1,80,0|2,3:0|0:0,0:0:0:0:
182,202,63764,1,8,0:0:0:0:
73,355,63976,2,0,P|128:291|95:227,1,160,2|0,0:0|0:0,0:0:0:0:
247,277,64609,1,8,0:0:0:0:
163,299,64821,1,2,0:0:0:0:
321,193,65032,6,0,B|337:136|337:136|236:159,1,160,2|8,3:2|0:0,0:0:0:0:
370,57,65666,1,2,0:0:0:0:
179,29,65877,1,2,3:2:0:0:
311,1,66088,2,0,P|330:34|331:75,1,80,0|8,0:0|0:0,0:0:0:0:
176,178,66511,6,0,B|133:187|101:155|108:149|62:119|30:136,2,160,2|2|2,0:0|0:0|0:0,0:0:0:0:
51,285,67567,2,0,P|37:254|52:204,1,80,0|2,3:0|0:0,0:0:0:0:
216,50,67990,1,8,0:0:0:0:
62,113,68201,2,0,P|82:116|102:127,1,40,2|0,0:0|0:0,0:0:0:0:
186,183,68412,5,6,0:0:0:0:
216,152,69468,1,0,0:0:0:0:
229,245,69680,2,0,L|253:277,2,32,8|0|0,0:0|0:0|0:0,0:0:0:0:
145,216,70102,5,8,0:0:0:0:
145,216,70208,1,0,0:0:0:0:
145,216,70314,1,0,0:0:0:0:
115,307,70525,2,0,L|161:298,3,32,8|0|0|0,0:0|0:0|0:0|0:0,0:0:0:0:
176,313,70947,1,8,0:0:0:0:
264,260,71159,2,0,L|259:305,1,32
279,325,71370,1,8,0:0:0:0:
279,325,71476,1,0,0:0:0:0:
370,366,71687,1,0,0:0:0:0:
370,366,71792,6,0,B|384:313|384:313|368:232,1,128,2|8,0:0|0:0,0:0:0:0:
392,221,72637,1,0,0:0:0:0:
452,281,72849,2,0,L|493:270,2,32,2|0|8,0:0|0:0|0:0,0:0:0:0:
411,351,73271,1,2,0:0:0:0:
283,246,73483,6,0,L|305:286,1,32,0|0,3:0|0:0,0:0:0:0:
301,234,73694,2,0,L|323:274,1,32,0|0,3:0|0:0,0:0:0:0:
286,353,73905,1,8,0:0:0:0:
212,330,74539,1,2,0:0:0:0:
143,363,74750,1,8,0:0:0:0:
143,363,74856,1,0,0:0:0:0:
143,363,74961,1,2,0:0:0:0:
25,280,75173,6,0,L|65:268,1,32,0|0,3:0|0:0,0:0:0:0:
128,259,75384,2,0,L|88:247,1,32,0|0,3:0|0:0,0:0:0:0:
29,194,75595,1,8,0:0:0:0:
107,174,76229,1,2,0:0:0:0:
90,34,76440,2,0,L|86:-2,2,32,8|0|2,0:0|0:0|0:0,0:0:0:0:
26,93,76863,6,0,P|46:103|66:123,1,32,0|0,3:0|0:0,0:0:0:0:
124,118,77074,2,0,P|103:128|84:148,1,32,0|0,3:0|0:0,0:0:0:0:
54,203,77285,1,8,0:0:0:0:
138,281,77497,2,0,P|136:222|203:208,1,128,0|2,0:0|0:0,0:0:0:0:
209,210,78025,1,0,0:0:0:0:
220,221,78130,1,8,0:0:0:0:
302,355,78342,1,2,0:0:0:0:
126,365,78553,6,0,L|163:354,1,32,0|0,3:0|0:0,0:0:0:0:
227,330,78764,2,0,L|190:319,1,32,0|0,3:0|0:0,0:0:0:0:
94,291,78976,1,8,0:0:0:0:
167,254,79609,1,2,0:0:0:0:
167,254,79715,1,0,0:0:0:0:
167,254,79821,2,0,P|200:258|232:270,1,64,8|0,0:0|0:0,0:0:0:0:
114,167,80243,6,0,P|164:157|218:108,1,120,2|0,3:2|0:0,0:0:0:0:
133,150,80666,2,0,P|176:123|210:58,1,120,2|0,3:2|0:0,0:0:0:0:
145,127,81088,1,2,3:2:0:0:
40,21,81405,1,0,0:0:0:0:
40,21,81511,2,0,P|82:18|120:35,1,80,8|2,0:0|0:0,0:0:0:0:
105,200,81933,6,0,B|134:166|134:166|49:140,1,128,2|8,3:3|0:0,0:0:0:0:
193,110,82567,2,0,P|246:125|220:175,1,128,0|2,0:0|0:0,0:0:0:0:
300,332,83201,1,8,0:0:0:0:
300,332,83307,1,0,0:0:0:0:
300,332,83412,5,2,0:0:0:0:
178,258,83623,2,0,L|225:266,1,32,0|0,3:0|0:0,0:0:0:0:
248,246,83835,2,0,L|295:254,1,32,0|0,3:0|0:0,0:0:0:0:
337,191,84046,1,8,0:0:0:0:
383,319,84257,2,0,P|445:313|457:243,1,128,0|2,0:0|0:0,0:0:0:0:
385,122,84891,1,8,0:0:0:0:
385,122,84997,1,0,0:0:0:0:
385,122,85102,5,2,0:0:0:0:
209,182,85314,2,0,L|244:175,1,32,0|0,3:0|0:0,0:0:0:0:
309,186,85525,2,0,L|273:192,1,32,0|0,3:0|0:0,0:0:0:0:
289,329,85736,2,0,B|260:354|260:354|247:255,1,128,8|0,0:0|0:0,0:0:0:0:
153,361,86370,2,0,P|185:352|209:327,1,64,2|8,0:0|0:0,0:0:0:0:
50,306,86792,5,2,0:0:0:0:
133,165,87004,2,0,L|138:204,1,32,0|0,3:0|0:0,0:0:0:0:
158,232,87215,2,0,L|163:271,1,32,0|0,3:0|0:0,0:0:0:0:
224,356,87426,2,0,P|232:325|250:292,1,64,8|0,0:0|0:0,0:0:0:0:
279,280,87743,1,0,0:0:0:0:
279,280,87849,5,8,0:0:0:0:
433,343,88060,1,2,3:2:0:0:
351,240,88271,5,0,3:0:0:0:
336,161,88483,1,0,3:0:0:0:
409,79,88694,5,4,3:2:0:0:
416,207,95243,5,0,0:0:0:0:
416,207,95349,1,0,0:0:0:0:
416,207,95454,2,0,B|433:162|401:125|393:133|371:90|390:47,2,167.999994873047,2|2|2,3:2|3:2|3:2,0:0:0:0:
273,273,97145,5,2,3:2:0:0:
273,273,97356,2,0,P|249:244|231:231,1,55.9999982910157,0|2,0:0|0:0,0:0:0:0:
158,252,97778,1,0,3:0:0:0:
158,252,97990,2,0,P|191:231|185:145,1,111.999996582031,2|0,0:0|0:0,0:0:0:0:
120,163,98623,1,0,0:0:0:0:
94,88,98835,6,0,P|99:58|117:33,1,55.9999982910157,2|0,0:0|0:0,0:0:0:0:
187,13,99257,2,0,P|235:40|301:38,1,111.999996582031
366,62,99891,1,0,0:0:0:0:
434,24,100102,2,0,P|443:50|449:77,1,55.9999982910157,2|0,0:0|0:0,0:0:0:0:
405,210,100525,5,2,3:2:0:0:
405,210,102215,6,0,P|346:178|256:160,1,143.999995605469,2|8,3:2|0:0,0:0:0:0:
339,336,102849,1,2,0:0:0:0:
212,260,103060,2,0,B|257:243|257:243|290:252,1,71.9999978027344,0|0,3:0|0:0,0:0:0:0:
112,331,103483,1,10,0:0:0:0:
215,366,103694,1,0,0:0:0:0:
63,246,103905,6,0,P|68:198|157:206,1,143.999995605469,2|8,3:2|0:0,0:0:0:0:
195,330,104539,1,2,0:0:0:0:
236,151,104750,2,0,B|250:184|250:184|237:236,1,71.9999978027344,0|0,3:0|0:0,0:0:0:0:
296,360,105173,2,0,P|330:345|365:337,1,71.9999978027344,10|0,0:0|0:0,0:0:0:0:
388,311,105490,1,0,0:0:0:0:
388,311,105595,6,0,P|330:317|320:239,1,143.999995605469,2|10,3:2|0:0,0:0:0:0:
383,169,106229,1,0,0:0:0:0:
467,356,106440,2,0,B|478:317|478:317|452:279,1,71.9999978027344,0|2,3:0|0:0,0:0:0:0:
280,355,106863,1,10,0:0:0:0:
393,240,107074,1,0,0:0:0:0:
261,273,107285,6,0,B|295:158|295:158|263:169,1,143.999995605469,0|8,3:0|0:0,0:0:0:0:
172,219,107919,1,2,0:0:0:0:
354,256,108130,2,0,B|358:284|358:284|338:336,1,71.9999978027344,2|0,3:2|0:0,0:0:0:0:
187,368,108553,2,0,B|168:301|168:301|181:256,1,107.999996704102,8|0,0:0|0:0,0:0:0:0:
148,284,108976,6,0,P|162:216|105:172,1,143.999995605469,2|8,3:2|0:0,0:0:0:0:
66,344,109609,1,2,0:0:0:0:
193,219,109821,2,0,P|222:201|266:192,1,71.9999978027344,2|0,3:2|0:0,0:0:0:0:
224,50,110243,2,0,P|205:82|193:114,1,71.9999978027344,10|0,0:0|0:0,0:0:0:0:
362,222,110666,5,2,3:2:0:0:
325,101,110877,1,0,0:0:0:0:
456,241,111088,2,0,B|433:250|433:250|385:237,1,71.9999978027344,8|2,0:0|0:0,0:0:0:0:
330,355,111511,2,0,B|259:275|259:275|203:291,1,143.999995605469,2|8,3:2|0:0,0:0:0:0:
298,187,112145,1,0,0:0:0:0:
130,86,112356,6,0,P|154:141|232:122,1,143.999995605469,2|8,3:2|0:0,0:0:0:0:
154,175,112990,1,2,0:0:0:0:
319,23,113201,1,2,3:2:0:0:
207,48,113412,1,0,0:0:0:0:
278,194,113623,2,0,P|313:206|351:209,1,71.9999978027344,2|0,3:2|0:0,0:0:0:0:
364,200,113940,1,0,0:0:0:0:
378,189,114046,5,8,0:0:0:0:
399,199,114680,1,2,0:0:0:0:
417,181,114891,2,0,L|409:109,1,64,2|0,0:0|0:0,0:0:0:0:
327,2,115314,1,10,0:0:0:0:
335,84,115525,1,0,0:0:0:0:
264,210,115736,6,0,B|213:115|213:115|252:74,1,160,4|8,3:2|0:0,0:0:0:0:
398,136,116370,1,2,0:0:0:0:
261,249,116581,2,2,P|302:242|332:218,1,80,2|0,3:2|0:0,0:0:0:0:
189,366,117004,1,8,0:0:0:0:
80,284,117215,1,2,0:0:0:0:
175,355,117426,6,0,P|195:322|194:282,1,80,0|2,3:0|0:0,0:0:0:0:
376,359,117849,1,8,0:0:0:0:
291,276,118060,2,0,P|352:232|430:251,1,160,2|0,0:0|0:0,0:0:0:0:
438,145,118694,1,8,0:0:0:0:
352,211,118905,1,2,0:0:0:0:
483,345,119116,6,0,P|470:306|506:192,1,160,2|8,3:2|0:0,0:0:0:0:
434,44,119750,1,2,0:0:0:0:
340,149,119961,2,0,B|376:169|421:141|415:132|453:106|492:127,1,160,2|8,3:2|0:0,0:0:0:0:
398,12,120595,6,0,P|393:52|355:82,1,80,2|0,0:0|3:0,0:0:0:0:
385,249,121018,2,0,P|345:254|306:225,1,80,2|8,0:0|0:0,0:0:0:0:
423,154,121440,1,2,0:0:0:0:
294,251,121652,5,2,3:2:0:0:
244,145,121863,1,0,0:0:0:0:
155,315,122074,2,0,P|184:285|176:240,1,80,10|2,0:0|0:0,0:0:0:0:
64,123,122497,6,0,P|118:64|207:50,1,160,2|8,3:2|0:0,0:0:0:0:
50,14,123130,1,2,0:0:0:0:
138,166,123342,2,0,P|111:199|73:209,1,80,2|0,3:2|0:0,0:0:0:0:
235,116,123764,1,8,0:0:0:0:
366,165,123976,1,2,0:0:0:0:
201,10,124187,6,0,P|201:50|217:88,1,80,0|2,3:0|0:0,0:0:0:0:
301,18,124609,1,8,0:0:0:0:
151,133,124821,2,0,P|225:104|307:99,1,160,2|0,0:0|0:0,0:0:0:0:
451,39,125454,2,0,P|409:34|377:4,1,80,8|2,0:0|0:0,0:0:0:0:
307,225,125877,6,0,B|406:174|406:174|372:128,1,160,0|8,3:0|0:0,0:0:0:0:
446,302,126511,1,2,0:0:0:0:
506,138,126722,1,0,3:0:0:0:
402,198,126933,2,0,P|443:200|475:222,1,80,0|8,0:0|0:0,0:0:0:0:
331,87,127356,6,0,P|309:158|233:206,2,160,2|2|2,0:0|0:0|0:0,0:0:0:0:
263,31,128412,1,0,3:0:0:0:
147,112,128623,1,10,0:0:0:0:
276,235,128835,1,10,0:0:0:0:
221,344,129046,1,0,3:0:0:0:
160,286,129257,6,0,P|100:288|28:304,1,128,2|8,3:2|0:0,0:0:0:0:
125,204,129891,1,2,0:0:0:0:
125,204,130102,2,0,P|76:183|53:112,1,128,0|8,0:0|0:0,0:0:0:0:
149,26,130736,5,2,0:0:0:0:
118,34,131159,1,2,0:0:0:0:
197,141,131370,2,0,P|215:111|218:77,1,64,8|2,0:0|0:0,0:0:0:0:
289,250,131792,2,0,P|258:245|229:230,1,64,0|2,0:0|0:0,0:0:0:0:
345,316,132215,1,8,0:0:0:0:
287,164,132426,1,2,0:0:0:0:
430,289,132637,6,0,B|404:241|404:241|427:169,1,128,2|8,3:2|0:0,0:0:0:0:
459,43,133271,1,2,0:0:0:0:
481,124,133483,2,0,P|419:141|344:150,1,128,0|8,0:0|0:0,0:0:0:0:
261,182,134116,6,0,P|281:123|351:137,1,128,2|2,0:0|0:0,0:0:0:0:
288,276,134750,2,0,P|257:270|225:255,1,64,8|2,0:0|0:0,0:0:0:0:
189,361,135173,1,0,0:0:0:0:
132,212,135384,1,2,0:0:0:0:
38,316,135595,2,0,L|74:308,1,32,8|0,0:0|0:0,0:0:0:0:
43,334,135807,2,0,L|79:326,1,32,0|0,3:0|0:0,0:0:0:0:
159,291,136018,5,2,3:2:0:0:
256,192,136229,12,0,138976,0:0:0:0:
180,216,139398,5,2,3:2:0:0:
134,299,139821,2,0,P|195:292|250:271,1,120,0|0,0:0|3:0,0:0:0:0:
299,217,140666,1,0,0:0:0:0:
237,147,140877,1,0,3:0:0:0:
351,292,141088,6,0,P|335:222|393:117,1,191.999994140625,12|2,0:0|0:0,0:0:0:0:
147,331,156299,6,0,P|161:304|165:271,1,55.9999982910157,2|0,3:2|0:0,0:0:0:0:
231,237,156722,2,0,P|221:208|201:181,1,55.9999982910157,0|0,3:0|0:0,0:0:0:0:
165,107,157145,2,0,P|212:162|303:167,1,167.999994873047,8|0,0:0|3:0,0:0:0:0:
337,302,157990,6,0,P|341:271|354:244,1,55.9999982910157,2|0,0:0|3:0,0:0:0:0:
428,324,158412,2,0,P|384:319|350:343,1,83.9999974365235,2|0,0:0|0:0,0:0:0:0:
335,369,158835,2,0,B|259:353|259:353|240:314,1,111.999996582031,8|0,0:0|3:0,0:0:0:0:
217,228,159468,1,0,0:0:0:0:
113,358,159680,6,0,P|127:331|134:303,1,55.9999982910157,8|0,0:0|0:0,0:0:0:0:
39,163,160102,2,0,P|50:198|92:217,1,83.9999974365235,0|0,3:0|0:0,0:0:0:0:
121,202,160525,2,0,B|147:190|179:203|174:209|204:220|229:210,1,111.999996582031,8|0,0:0|0:0,0:0:0:0:
316,177,161159,1,0,3:0:0:0:
308,154,161581,5,8,0:0:0:0:
382,53,161792,2,0,P|355:64|323:70,1,55.9999982910157,2|0,0:0|0:0,0:0:0:0:
222,116,162215,2,0,P|272:141|291:200,1,111.999996582031,8|2,0:0|0:0,0:0:0:0:
254,274,162849,1,0,0:0:0:0:
411,311,163060,6,0,P|387:299|353:290,1,55.9999982910157,10|0,0:0|0:0,0:0:0:0:
334,365,163483,2,0,P|304:372|279:375,1,55.9999982910157,8|0,0:0|0:0,0:0:0:0:
196,327,163905,2,0,P|264:343|259:267,1,167.999994873047,8|8,0:0|0:0,0:0:0:0:
239,252,164961,1,8,0:0:0:0:
337,290,165173,6,0,P|385:281|446:260,1,111.999996582031,2|8,3:2|0:0,0:0:0:0:
434,299,165807,1,0,0:0:0:0:
344,200,166018,2,0,P|345:170|359:135,1,55.9999982910157,0|0,3:0|3:0,0:0:0:0:
467,27,166440,6,0,P|436:53|383:67,1,96,12|0,0:0|0:0,0:0:0:0:
355,50,166863,2,0,P|323:73|324:129,1,96,2|0,0:0|0:0,0:0:0:0:
340,152,167285,5,2,0:0:0:0:
301,175,167497,1,0,0:0:0:0:
357,229,167708,1,2,0:0:0:0:
276,184,167919,1,0,0:0:0:0:
251,301,168130,5,10,0:0:0:0:
383,257,168342,1,8,0:0:0:0:
218,234,168553,1,10,0:0:0:0:
366,291,168764,1,8,0:0:0:0:
290,151,168976,5,10,0:0:0:0:
327,370,169187,2,0,B|342:362|359:360,2,21.3333333333333
315,362,169398,2,0,P|294:336|280:306,1,64,10|0,0:0|0:0,0:0:0:0:
91,366,169821,6,0,P|153:342|175:259,1,143.999995605469,2|8,3:2|0:0,0:0:0:0:
84,149,170454,1,2,0:0:0:0:
237,217,170666,2,0,P|252:242|262:290,1,71.9999978027344,0|0,3:0|0:0,0:0:0:0:
103,345,171088,2,0,P|90:314|106:278,1,71.9999978027344,10|0,0:0|0:0,0:0:0:0:
200,132,171511,6,0,B|223:61|223:61|152:34,1,143.999995605469,2|8,3:2|0:0,0:0:0:0:
75,83,172145,1,2,0:0:0:0:
116,225,172356,2,0,L|101:267,2,35.9999989013672,2|0|0,3:2|0:0|0:0,0:0:0:0:
237,347,172778,2,0,P|215:316|210:275,1,71.9999978027344,10|0,0:0|0:0,0:0:0:0:
225,131,173201,6,0,P|296:123|365:89,1,143.999995605469,2|8,3:2|0:0,0:0:0:0:
236,50,173835,1,2,0:0:0:0:
308,152,174046,2,0,P|302:191|277:224,1,71.9999978027344,0|0,3:0|0:0,0:0:0:0:
371,353,174468,2,0,P|351:310|359:275,1,71.9999978027344,10|0,0:0|0:0,0:0:0:0:
427,172,174891,6,0,P|455:187|505:199,1,71.9999978027344,2|0,3:2|0:0,0:0:0:0:
377,97,175314,1,8,0:0:0:0:
502,48,175525,1,2,0:0:0:0:
354,0,175736,2,0,B|340:32|340:32|358:76,1,71.9999978027344,2|0,3:2|0:0,0:0:0:0:
275,232,176159,2,0,P|316:206|316:183,1,71.9999978027344,8|0,0:0|0:0,0:0:0:0:
334,156,176476,1,0,0:0:0:0:
334,156,176581,6,0,P|264:134|252:62,1,143.999995605469,2|8,3:2|0:0,0:0:0:0:
321,23,177215,1,2,0:0:0:0:
168,113,177426,2,0,P|207:110|237:95,1,71.9999978027344,2|0,3:2|0:0,0:0:0:0:
159,15,177849,2,0,P|120:18|90:33,1,71.9999978027344,8|0,0:0|0:0,0:0:0:0:
79,216,178271,6,0,B|101:228|101:228|80:142,1,107.999996704102,2|0,3:2|0:0,0:0:0:0:
73,111,178694,1,8,0:0:0:0:
194,169,178905,1,2,0:0:0:0:
106,318,179116,2,0,P|145:320|176:294,1,71.9999978027344,2|0,3:2|0:0,0:0:0:0:
294,141,179539,2,0,P|286:176|283:219,1,71.9999978027344,10|0,0:0|0:0,0:0:0:0:
291,227,179856,1,0,0:0:0:0:
300,242,179961,6,0,B|395:214|395:214|384:263,1,143.999995605469,2|8,3:2|0:0,0:0:0:0:
352,361,180595,1,2,0:0:0:0:
499,311,180807,2,0,P|494:271|477:236,1,71.9999978027344,0|2,3:0|0:0,0:0:0:0:
355,147,181229,1,0,3:0:0:0:
504,51,181440,2,0,L|454:40,1,35.9999989013672
406,2,181652,5,2,3:2:0:0:
406,2,181757,2,0,P|377:21|331:29,1,71.9999978027344,0|0,3:0|0:0,0:0:0:0:
306,18,182074,1,8,0:0:0:0:
393,105,182285,1,2,3:2:0:0:
404,127,182391,1,0,3:0:0:0:
387,159,182497,1,2,3:2:0:0:
377,193,182602,1,0,3:0:0:0:
366,227,182708,1,0,3:0:0:0:
208,293,182919,2,0,B|225:269|225:269|278:283,1,71.9999978027344,10|0,0:0|0:0,0:0:0:0:
387,358,183342,6,0,P|427:358|468:341,1,80,4|0,3:2|0:0,0:0:0:0:
308,293,183764,1,8,0:0:0:0:
257,168,183976,1,2,0:0:0:0:
395,25,184187,2,0,P|390:61|368:106,1,80,2|0,3:2|0:0,0:0:0:0:
177,23,184609,1,8,0:0:0:0:
292,59,184821,1,2,0:0:0:0:
103,145,185032,6,0,P|132:117|180:115,1,80,0|2,3:0|0:0,0:0:0:0:
54,237,185454,1,10,0:0:0:0:
204,208,185666,2,0,P|149:261|152:349,1,160,2|0,0:0|0:0,0:0:0:0:
225,380,186299,2,0,P|249:348|289:331,1,80,8|0,0:0|0:0,0:0:0:0:
464,333,186722,6,0,P|398:289|369:211,1,160,2|8,3:2|0:0,0:0:0:0:
450,35,187356,1,2,0:0:0:0:
494,110,187567,2,0,P|455:122|407:130,1,80,2|0,3:2|0:0,0:0:0:0:
315,25,187990,1,8,0:0:0:0:
257,205,188201,6,0,P|326:174|305:105,1,160,2|2,0:0|0:0,0:0:0:0:
156,200,188835,1,8,0:0:0:0:
271,354,189046,2,0,P|253:312|254:268,1,80,2|0,0:0|0:0,0:0:0:0:
305,121,189468,1,2,0:0:0:0:
457,239,189680,1,8,0:0:0:0:
347,204,189891,1,0,3:0:0:0:
241,322,190102,5,2,3:2:0:0:
118,250,190314,2,0,B|172:238|172:238|201:261,1,80,0|8,3:0|0:0,0:0:0:0:
147,77,190736,1,2,0:0:0:0:
317,199,190947,2,0,P|346:174|357:135,1,80,0|0,3:0|0:0,0:0:0:0:
262,24,191370,1,8,0:0:0:0:
206,130,191581,1,2,0:0:0:0:
346,282,191792,5,0,0:0:0:0:
216,213,192004,2,0,P|179:228|153:258,1,80,2|8,0:0|0:0,0:0:0:0:
120,64,192426,2,0,P|175:118|260:126,1,160,2|0,0:0|0:0,0:0:0:0:
199,8,193060,1,8,0:0:0:0:
413,61,193271,1,0,0:0:0:0:
385,67,193377,1,0,0:0:0:0:
356,73,193483,6,8,B|339:126|339:126|375:226,1,160,2|8,3:2|0:0,0:0:0:0:
430,370,194116,1,0,0:0:0:0:
411,348,194222,1,0,0:0:0:0:
419,321,194328,2,0,B|472:302|472:302|506:308,1,80,2|0,3:2|0:0,0:0:0:0:
321,342,194750,1,8,0:0:0:0:
270,183,194961,1,2,0:0:0:0:
270,183,195067,1,0,0:0:0:0:
270,183,195173,5,0,3:0:0:0:
164,353,195384,2,0,P|188:308|187:275,1,80,2|8,0:0|0:0,0:0:0:0:
117,120,195807,1,2,0:0:0:0:
303,190,196018,1,0,3:0:0:0:
224,212,196229,1,0,3:0:0:0:
390,125,196440,2,0,B|417:149|417:149|427:202,1,80,10|2,0:0|3:2,0:0:0:0:
245,125,196863,6,0,B|264:24|264:24|302:54,1,143.999995605469,2|8,3:2|0:0,0:0:0:0:
337,201,197497,1,2,0:0:0:0:
210,315,197708,2,0,P|183:245|113:244,1,143.999995605469,2|8,3:2|0:0,0:0:0:0:
78,100,198342,6,0,L|161:121,1,71.9999978027344,2|0,0:0|3:0,0:0:0:0:
244,43,198764,2,0,P|262:69|264:112,1,71.9999978027344,2|8,0:0|0:0,0:0:0:0:
156,20,199187,1,2,0:0:0:0:
292,128,199398,1,0,3:0:0:0:
201,179,199609,1,0,0:0:0:0:
299,301,199821,2,0,B|366:282|366:282|384:247,1,107.999996704102,10|0,0:0|0:0,0:0:0:0:
372,213,200243,6,0,P|367:180|381:140,1,71.9999978027344,2|0,3:2|0:0,0:0:0:0:
450,310,200666,1,10,0:0:0:0:
311,268,200877,1,0,0:0:0:0:
233,374,201088,2,0,P|303:353|383:342,1,143.999995605469,2|8,3:2|0:0,0:0:0:0:
232,285,201722,6,0,P|216:238|235:185,1,107.999996704102,2|0,0:0|0:0,0:0:0:0:
259,158,202145,1,2,0:0:0:0:
135,229,202356,1,8,0:0:0:0:
315,301,202567,2,0,P|324:268|331:228,1,71.9999978027344,2|0,0:0|3:0,0:0:0:0:
398,104,202990,2,0,P|403:139|423:169,1,71.9999978027344,2|8,0:0|0:0,0:0:0:0:
494,222,203412,1,2,0:0:0:0:
365,359,203623,6,0,P|399:340|432:331,1,71.9999978027344,0|0,3:0|0:0,0:0:0:0:
282,181,204046,1,10,0:0:0:0:
341,338,204257,1,0,0:0:0:0:
193,251,204468,2,0,B|229:282|229:282|130:323,1,143.999995605469,2|8,3:2|0:0,0:0:0:0:
42,194,205102,6,0,P|59:227|63:266,1,71.9999978027344,2|0,0:0|3:0,0:0:0:0:
154,140,205525,1,2,0:0:0:0:
17,38,205736,2,0,P|47:63|82:66,1,71.9999978027344,8|2,0:0|0:0,0:0:0:0:
239,25,206159,2,0,P|214:53|203:87,1,71.9999978027344,0|2,3:0|0:0,0:0:0:0:
351,215,206581,2,0,B|358:185|358:185|347:133,1,71.9999978027344,8|0,0:0|0:0,0:0:0:0:
317,52,207004,5,0,3:0:0:0:
317,52,207215,1,0,3:0:0:0:
417,104,207426,5,0,3:0:0:0:
446,27,207637,1,2,3:2:0:0:
284,164,207849,5,0,3:0:0:0:
247,134,208060,1,0,3:0:0:0:
374,211,208271,5,2,3:2:0:0:
473,167,208483,1,2,3:2:0:0:
437,352,208694,5,2,3:2:0:0:
366,181,208905,1,0,3:0:0:0:
464,247,209116,1,2,3:2:0:0:
358,366,209328,5,2,3:2:0:0:
504,321,209539,1,0,3:0:0:0:
329,289,209750,5,2,3:2:0:0:
493,346,209961,1,0,3:0:0:0:
387,143,210173,5,10,0:0:0:0:
256,192,210384,12,0,217145,3:0:0:0:
