osu file format v14

[General]
AudioFilename: audio.mp3
AudioLeadIn: 0
PreviewTime: 54785
Countdown: 0
SampleSet: Soft
StackLeniency: 0.7
Mode: 0
LetterboxInBreaks: 0
WidescreenStoryboard: 1

[Editor]
DistanceSpacing: 1.1
BeatDivisor: 4
GridSize: 8
TimelineZoom: 0.6999996

[Metadata]
Title:Impressions
TitleUnicode:Impressions
Artist:Carpool Tunnel
ArtistUnicode:Carpool Tunnel
Creator:Hinsvar
Version:Easy
Source:
Tags:Indie Rock English Featured Artist FA Mappers' Guild MPG
BeatmapID:2201449
BeatmapSetID:1052846

[Difficulty]
HPDrainRate:3
CircleSize:3
OverallDifficulty:3
ApproachRate:3.5
SliderMultiplier:0.88
SliderTickRate:1

[Events]
//Background and Video events
0,0,"impressions.jpg",0,0
//Break Periods
2,88894,94074
2,136218,138018
2,142978,154919
//Storyboard Layer 0 (Background)
//Storyboard Layer 1 (Fail)
//Storyboard Layer 2 (Pass)
//Storyboard Layer 3 (Foreground)
//Storyboard Layer 4 (Overlay)
//Storyboard Sound Samples

[TimingPoints]
807,422.535211267606,4,2,1,70,1,0
14328,-100,4,2,2,70,0,0
39680,-100,4,2,1,60,0,0
41370,-100,4,2,1,70,0,0
53835,-100,4,2,1,60,0,0
54891,-100,4,2,1,80,0,1
68412,-100,4,2,2,40,0,0
70102,-100,4,2,2,50,0,0
71792,-100,4,2,2,60,0,0
88694,-100,4,2,2,40,0,0
95243,-100,4,2,2,50,0,0
102215,-100,4,2,1,70,0,0
114680,-100,4,2,1,60,0,0
115736,-100,4,2,1,80,0,1
129257,-100,4,2,2,60,0,0
136018,-100,4,2,2,30,0,0
141088,-117.647058823529,4,2,2,40,0,0
156299,-100,4,2,2,50,0,0
166440,-100,4,2,2,40,0,0
166863,-100,4,2,2,50,0,0
168130,-100,4,2,2,60,0,0
169821,-100,4,2,1,70,0,0
183342,-100,4,2,1,80,0,1
196863,-100,4,2,1,70,0,0
207004,-100,4,2,1,60,0,0
207849,-100,4,2,1,65,0,0
208694,-100,4,2,1,70,0,0
209328,-100,4,2,1,75,0,0
210173,-100,4,2,1,80,0,0
210807,-100,4,2,1,70,0,0
211229,-100,4,2,1,60,0,0
211652,-100,4,2,1,50,0,0
212074,-100,4,2,1,40,0,0
212919,-100,4,2,1,30,0,0
214609,-100,4,2,1,20,0,0
215877,-100,4,2,1,10,0,0
217145,-100,4,2,1,5,0,0

[Colours]
Combo1 : 89,247,200
Combo2 : 4,155,106
Combo3 : 41,203,243
Combo4 : 231,188,137

[HitObjects]
79,211,7567,6,0,P|64:175|110:100,1,132,4|2,3:2|0:0,0:0:0:0:
201,74,8623,1,0,0:0:0:0:
246,159,9046,2,0,P|256:189|265:254,1,88,2|2,3:2|0:0,0:0:0:0:
225,333,9891,2,0,P|283:357|366:359,1,132,2|8,0:0|0:0,0:0:0:0:
440,321,10947,5,2,3:2:0:0:
483,154,11581,2,0,P|473:112|454:71,1,88,2|0,0:0|0:0,0:0:0:0:
371,20,12426,1,0,0:0:0:0:
292,77,12849,1,2,0:0:0:0:
206,31,13271,2,0,B|120:14|120:14|66:35,1,132,2|10,0:0|0:0,0:0:0:0:
26,111,14328,6,0,P|47:144|48:197,1,88,2|8,3:2|0:0,0:0:0:0:
162,348,15595,1,8,0:0:0:0:
234,284,16018,1,0,3:0:0:0:
328,261,16440,2,0,P|395:275|457:310,1,132,8|2,0:0|0:0,0:0:0:0:
496,219,17497,6,0,B|511:130|511:130|492:92,1,132,2|8,0:0|0:0,0:0:0:0:
339,14,18764,1,2,0:0:0:0:
319,109,19187,2,0,P|256:193|187:213,1,176,2|2,0:0|0:0,0:0:0:0:
104,170,20454,1,0,0:0:0:0:
111,73,20877,6,0,P|157:33|238:30,1,132,2|8,0:0|0:0,0:0:0:0:
427,135,22356,1,8,0:0:0:0:
337,170,22778,2,0,P|305:227|295:302,1,132,0|0,3:0|0:0,0:0:0:0:
352,370,23835,1,2,0:0:0:0:
441,334,24257,6,0,P|464:290|414:231,1,132,2|8,0:0|0:0,0:0:0:0:
253,281,25525,1,2,0:0:0:0:
163,244,25947,2,0,P|144:193|155:106,1,132,2|8,0:0|0:0,0:0:0:0:
305,42,27215,1,2,0:0:0:0:
357,123,27637,6,0,B|449:137|449:137|485:101,1,132,2|8,0:0|0:0,0:0:0:0:
326,19,28905,1,2,0:0:0:0:
229,13,29328,2,0,P|169:40|140:104,1,132,2|8,0:0|0:0,0:0:0:0:
119,267,30595,1,2,0:0:0:0:
176,345,31018,6,0,B|246:352|246:352|310:329,1,132,2|8,0:0|0:0,0:0:0:0:
405,193,32285,1,2,0:0:0:0:
341,119,32708,2,0,P|335:77|357:25,1,88,2|0,0:0|3:0,0:0:0:0:
443,11,33553,1,2,0:0:0:0:
501,88,33976,1,2,0:0:0:0:
482,182,34398,6,0,P|430:208|353:233,1,132,2|8,0:0|0:0,0:0:0:0:
241,355,35666,1,2,0:0:0:0:
198,268,36088,2,0,B|167:230|167:230|76:222,1,132,2|8,0:0|0:0,0:0:0:0:
43,55,37356,1,2,0:0:0:0:
131,15,37778,6,0,P|179:45|190:136,1,132,2|8,0:0|0:0,0:0:0:0:
155,281,39046,1,2,3:2:0:0:
222,349,39468,2,0,L|275:353,1,44,2|8,0:0|0:0,0:0:0:0:
265,352,41370,6,0,P|309:290|280:181,1,176,2|0,3:2|3:0,0:0:0:0:
226,125,42637,1,10,0:0:0:0:
140,170,43060,2,0,B|75:154|75:154|60:136,2,88,2|8|0,3:2|0:0|3:0,0:0:0:0:
164,263,44328,1,8,0:0:0:0:
255,292,44750,6,0,P|310:257|330:143,1,176,2|0,3:2|3:0,0:0:0:0:
282,75,46018,1,8,0:0:0:0:
356,13,46440,2,0,P|400:16|454:36,1,88,0|8,3:0|0:0,0:0:0:0:
469,122,47285,2,0,P|445:158|430:200,1,88,0|8,3:0|0:0,0:0:0:0:
462,292,48130,5,2,3:2:0:0:
273,335,48976,2,0,B|253:299|253:299|267:251,1,88,0|8,3:0|0:0,0:0:0:0:
329,180,49821,1,0,3:0:0:0:
312,84,50243,1,8,0:0:0:0:
230,31,50666,2,0,P|188:24|135:38,1,88,2|8,3:2|0:0,0:0:0:0:
93,116,51511,6,0,P|153:157|167:289,1,176,2|2,3:2|3:2,0:0:0:0:
154,346,52778,1,2,0:0:0:0:
248,367,53201,1,8,0:0:0:0:
430,302,54046,2,0,P|445:262|443:210,1,88,2|10,0:0|0:0,0:0:0:0:
371,153,54891,6,0,P|289:162|249:70,1,176,4|2,3:2|3:2,0:0:0:0:
309,16,56159,1,8,0:0:0:0:
405,4,56581,2,0,B|485:36|485:36|467:82,1,132,0|2,3:0|0:0,0:0:0:0:
424,165,57637,2,0,L|432:213,1,44,0|10,0:0|0:0,0:0:0:0:
395,298,58271,6,0,P|337:284|234:352,1,176,2|2,3:2|3:2,0:0:0:0:
92,253,59750,1,2,0:0:0:0:
57,162,60173,2,0,P|66:118|96:72,1,88,2|2,0:0|0:0,0:0:0:0:
173,35,61018,2,0,L|215:45,1,44,2|8,0:0|0:0,0:0:0:0:
274,122,61652,6,0,P|313:101|357:96,1,88,2|8,3:2|0:0,0:0:0:0:
432,155,62497,2,0,P|434:199|447:246,1,88,2|8,3:2|0:0,0:0:0:0:
416,333,63342,2,0,P|356:319|286:351,1,132,0|2,3:0|0:0,0:0:0:0:
217,284,64398,2,0,L|226:231,1,44,0|8,0:0|0:0,0:0:0:0:
169,160,65032,6,0,B|208:80|208:80|292:114,1,176,2|2,3:2|3:2,0:0:0:0:
383,255,66511,1,2,0:0:0:0:
450,186,66933,1,2,0:0:0:0:
442,89,67356,1,2,0:0:0:0:
366,28,67778,2,0,L|315:18,1,44,2|8,0:0|0:0,0:0:0:0:
236,64,68412,5,6,0:0:0:0:
236,64,70102,2,0,B|198:48|198:48|138:40,2,88,8|8|8,0:0|0:0|0:0,0:0:0:0:
283,148,71370,1,8,0:0:0:0:
237,233,71792,6,0,P|201:249|143:259,1,88,2|8,0:0|0:0,0:0:0:0:
61,113,72849,1,2,0:0:0:0:
113,32,73271,2,0,B|196:24|196:24|228:73,1,132,2|8,0:0|0:0,0:0:0:0:
180,231,74539,1,2,0:0:0:0:
206,323,74961,6,0,P|270:353|353:343,1,132,2|8,0:0|0:0,0:0:0:0:
464,243,76229,2,0,L|454:197,1,44,2|8,0:0|0:0,0:0:0:0:
481,106,76863,2,0,P|425:91|377:38,1,132,0|0,3:0|0:0,0:0:0:0:
285,4,77919,1,2,0:0:0:0:
209,64,78342,6,0,B|181:148|181:148|213:195,1,132,2|8,0:0|0:0,0:0:0:0:
329,303,79609,2,0,L|338:356,1,44,2|8,0:0|0:0,0:0:0:0:
246,383,80243,1,2,3:2:0:0:
150,366,80666,1,2,3:2:0:0:
73,306,81088,2,0,B|60:278|60:278|67:215,1,88,2|8,3:2|0:0,0:0:0:0:
144,164,81933,6,0,B|163:126|163:126|143:27,1,132,2|0,3:3|0:0,0:0:0:0:
235,1,82990,1,2,0:0:0:0:
275,88,83412,2,0,P|360:91|445:38,1,176,2|0,0:0|0:0,0:0:0:0:
498,121,84680,1,2,0:0:0:0:
440,198,85102,6,0,P|423:262|424:342,1,132,2|8,0:0|0:0,0:0:0:0:
255,283,86370,2,0,L|244:233,1,44,2|8,0:0|0:0,0:0:0:0:
169,179,87004,2,0,B|176:119|176:119|218:94,1,88,0|8,3:0|0:0,0:0:0:0:
255,25,87849,1,8,0:0:0:0:
160,5,88271,1,0,3:0:0:0:
80,60,88694,5,4,3:2:0:0:
80,60,95454,6,0,P|37:101|27:181,2,132,2|2|2,3:2|3:2|3:2,0:0:0:0:
148,128,97145,2,0,P|162:185|226:234,2,132,2|0|0,3:2|3:0|0:0,0:0:0:0:
203,48,98835,5,2,3:2:0:0:
296,24,99257,2,0,B|341:16|383:47|367:63|413:97|464:81,1,176,0|2,0:0|0:0,0:0:0:0:
500,168,100525,1,2,3:2:0:0:
500,168,102215,6,0,B|454:190|454:190|427:323,1,176,2|0,3:2|3:0,0:0:0:0:
344,359,103483,1,10,0:0:0:0:
263,304,103905,2,0,P|225:291|175:288,2,88,2|8|0,3:2|0:0|3:0,0:0:0:0:
310,219,105173,1,10,0:0:0:0:
244,149,105595,6,0,P|231:82|312:18,1,176,2|0,3:2|3:0,0:0:0:0:
393,60,106863,1,10,0:0:0:0:
443,142,107285,2,0,L|359:168,1,88,0|8,3:0|0:0,0:0:0:0:
317,255,108130,2,0,L|343:339,1,88,2|8,3:2|0:0,0:0:0:0:
435,369,108976,5,2,3:2:0:0:
486,182,109821,2,0,B|458:147|458:147|409:130,1,88,2|10,3:2|0:0,0:0:0:0:
349,63,110666,1,2,3:2:0:0:
254,84,111088,1,8,0:0:0:0:
167,39,111511,2,0,P|140:69|130:129,1,88,2|8,3:2|0:0,0:0:0:0:
53,175,112356,6,0,P|105:233|112:332,1,176,2|2,3:2|3:2,0:0:0:0:
198,373,113623,1,2,3:2:0:0:
262,300,114046,1,8,0:0:0:0:
361,133,114891,2,0,P|406:131|463:143,1,88,2|10,0:0|0:0,0:0:0:0:
486,226,115736,6,0,P|453:317|384:306,1,176,4|2,3:2|3:2,0:0:0:0:
310,252,117004,1,8,0:0:0:0:
213,247,117426,2,0,P|166:297|147:370,1,132,0|2,3:0|0:0,0:0:0:0:
56,321,118483,2,0,L|46:279,1,44,0|8,0:0|0:0,0:0:0:0:
109,205,119116,6,0,P|129:150|85:43,1,176,2|2,3:2|3:2,0:0:0:0:
254,4,120595,1,2,0:0:0:0:
306,85,121018,2,0,P|366:105|439:103,1,132,2|2,0:0|3:2,0:0:0:0:
486,185,122074,1,10,0:0:0:0:
408,242,122497,6,0,P|393:286|388:330,1,88,2|8,3:2|0:0,0:0:0:0:
298,364,123342,1,2,3:2:0:0:
222,303,123764,1,8,0:0:0:0:
192,210,124187,2,0,P|126:204|57:246,1,132,0|2,3:0|0:0,0:0:0:0:
85,328,125243,2,0,L|137:346,1,44,0|8,0:0|0:0,0:0:0:0:
219,368,125877,6,0,P|276:298|358:317,1,176,0|0,3:0|3:0,0:0:0:0:
481,199,127356,1,2,0:0:0:0:
498,104,127778,1,2,0:0:0:0:
415,53,128201,1,2,0:0:0:0:
327,94,128623,2,0,L|272:82,1,44,10|10,0:0|0:0,0:0:0:0:
208,23,129257,5,2,3:2:0:0:
23,82,130102,2,0,P|54:140|65:218,1,132,0|2,0:0|0:0,0:0:0:0:
23,292,131159,1,2,0:0:0:0:
78,371,131581,2,0,P|123:365|170:341,1,88,2|2,0:0|0:0,0:0:0:0:
288,232,132637,6,0,B|331:223|331:223|391:252,1,88,2|8,3:2|0:0,0:0:0:0:
461,207,133483,2,0,P|461:143|435:73,1,132,0|2,0:0|0:0,0:0:0:0:
357,26,134539,1,2,0:0:0:0:
308,109,134961,2,0,P|238:113|173:88,1,132,2|8,0:0|0:0,0:0:0:0:
95,44,136018,5,2,3:2:0:0:
58,141,139398,5,2,3:2:0:0:
95,230,139821,1,0,0:0:0:0:
273,303,140666,1,0,0:0:0:0:
359,259,141088,6,0,P|343:131|270:224,1,299.200005706787,12|2,0:0|0:0,0:0:0:0:
45,353,156299,6,0,P|111:300|96:206,1,176,2|8,3:2|0:0,0:0:0:0:
40,55,157778,1,0,3:0:0:0:
124,7,158201,2,0,P|186:13|261:42,1,132,0|8,3:0|0:0,0:0:0:0:
316,108,159257,1,0,3:0:0:0:
401,152,159680,6,0,B|456:135|456:135|469:97,2,88,8|0|8,0:0|3:0|0:0,0:0:0:0:
292,284,161159,2,0,P|241:253|218:182,1,132,0|2,3:0|0:0,0:0:0:0:
267,104,162215,1,8,0:0:0:0:
211,24,162637,1,2,0:0:0:0:
141,91,163060,6,0,B|101:108|101:108|52:102,1,88,10|8,0:0|0:0,0:0:0:0:
11,188,163905,1,8,0:0:0:0:
94,337,164539,2,0,P|148:292|224:281,1,132,8|2,0:0|3:2,0:0:0:0:
285,336,165595,2,0,P|324:354|384:359,1,88,8|0,0:0|3:0,0:0:0:0:
441,295,166440,5,12,0:0:0:0:
466,201,166863,1,2,0:0:0:0:
409,122,167285,2,0,B|387:85|387:85|392:35,1,88,2|2,0:0|0:0,0:0:0:0:
299,9,168130,1,10,0:0:0:0:
216,60,168553,1,10,0:0:0:0:
126,23,168976,2,0,P|81:28|39:45,1,88,10|10,0:0|0:0,0:0:0:0:
11,135,169821,6,0,P|74:186|74:292,1,176,2|0,3:2|3:0,0:0:0:0:
146,347,171088,1,10,0:0:0:0:
225,291,171511,2,0,B|275:280|275:280|320:308,1,88,2|8,3:2|0:0,0:0:0:0:
366,223,172356,2,0,P|365:177|343:127,1,88,2|10,3:2|0:0,0:0:0:0:
278,72,173201,5,2,3:2:0:0:
192,116,173623,1,8,0:0:0:0:
147,201,174046,2,0,P|104:193|58:165,1,88,0|10,3:0|0:0,0:0:0:0:
30,81,174891,2,0,P|103:35|204:16,1,176,2|2,3:2|3:2,0:0:0:0:
261,81,176159,1,8,0:0:0:0:
346,35,176581,6,0,B|386:78|386:78|367:197,1,176,2|2,3:2|3:2,0:0:0:0:
298,262,177849,1,8,0:0:0:0:
357,337,178271,2,0,P|403:329|448:314,2,88,2|8|2,3:2|0:0|3:2,0:0:0:0:
269,378,179539,1,10,0:0:0:0:
188,325,179961,6,0,B|173:280|173:280|184:233,1,88,2|8,3:2|0:0,0:0:0:0:
212,148,180807,1,0,3:0:0:0:
135,89,181229,1,0,3:0:0:0:
42,118,181652,2,0,P|18:174|17:210,1,88,2|8,3:2|0:0,0:0:0:0:
141,347,182919,1,10,0:0:0:0:
215,286,183342,6,0,B|322:270|322:270|369:327,1,176,4|2,3:2|3:2,0:0:0:0:
454,285,184609,1,8,0:0:0:0:
464,188,185032,2,0,P|449:147|415:115,1,88,0|10,3:0|0:0,0:0:0:0:
349,44,185877,2,0,P|318:74|273:89,1,88,0|8,0:0|0:0,0:0:0:0:
196,35,186722,5,2,3:2:0:0:
104,67,187145,1,8,0:0:0:0:
69,157,187567,2,0,P|71:224|98:287,1,132,2|2,3:2|0:0,0:0:0:0:
169,346,188623,1,2,0:0:0:0:
255,303,189046,1,2,0:0:0:0:
274,208,189468,2,0,L|265:152,1,44,2|8,0:0|0:0,0:0:0:0:
309,77,190102,6,0,B|422:51|422:51|457:104,1,176,2|0,3:2|3:0,0:0:0:0:
484,193,191370,1,8,0:0:0:0:
443,280,191792,2,0,B|389:258|389:258|313:299,1,132,0|2,0:0|0:0,0:0:0:0:
238,246,192849,2,0,L|243:201,1,44,0|8,0:0|0:0,0:0:0:0:
275,111,193483,6,0,P|237:51|138:64,1,176,2|2,3:2|3:2,0:0:0:0:
98,146,194750,2,0,L|46:160,1,44,8|2,0:0|0:0,0:0:0:0:
27,250,195384,2,0,B|40:285|40:285|96:303,1,88,2|2,0:0|0:0,0:0:0:0:
172,252,196229,2,0,L|220:257,1,44,0|10,3:0|0:0,0:0:0:0:
277,330,196863,5,2,3:2:0:0:
454,251,197708,2,0,P|462:193|432:112,1,132,2|2,3:2|0:0,0:0:0:0:
366,59,198764,1,2,0:0:0:0:
271,80,199187,1,2,0:0:0:0:
182,39,199609,2,0,L|130:52,1,44,0|10,0:0|0:0,0:0:0:0:
74,121,200243,6,0,B|79:174|79:174|60:215,1,88,2|10,3:2|0:0,0:0:0:0:
74,301,201088,2,0,P|140:305|215:338,1,132,2|2,3:2|0:0,0:0:0:0:
285,379,202145,1,2,0:0:0:0:
367,327,202567,1,2,0:0:0:0:
394,234,202990,2,0,L|385:184,1,44,2|8,0:0|0:0,0:0:0:0:
318,121,203623,6,0,B|309:77|309:77|339:32,1,88,0|10,3:0|0:0,0:0:0:0:
428,25,204468,2,0,B|475:58|475:58|460:144,1,132,2|2,3:2|0:0,0:0:0:0:
418,218,205525,1,2,0:0:0:0:
453,307,205947,1,2,0:0:0:0:
377,367,206370,2,0,L|327:354,1,44,2|8,0:0|0:0,0:0:0:0:
271,282,207004,6,0,B|225:276|225:276|176:296,1,88,0|0,3:0|3:0,0:0:0:0:
121,219,207849,2,0,B|119:177|119:177|140:136,1,88,0|2,3:0|3:2,0:0:0:0:
197,57,208694,2,0,P|251:104|318:100,1,132,2|2,3:2|3:2,0:0:0:0:
396,64,209750,1,2,3:2:0:0:
444,147,210173,5,10,0:0:0:0:
256,192,210384,12,0,217145,3:0:0:0:
