osu file format v14

[General]
AudioFilename: audio.mp3
AudioLeadIn: 0
PreviewTime: 58091
Countdown: 0
SampleSet: Soft
StackLeniency: 0.7
Mode: 0
LetterboxInBreaks: 0
WidescreenStoryboard: 0

[Editor]
DistanceSpacing: 0.8
BeatDivisor: 2
GridSize: 32
TimelineZoom: 1

[Metadata]
Title:Hooked Again
TitleUnicode:Hooked Again
Artist:Carpool Tunnel
ArtistUnicode:Carpool Tunnel
Creator:-Aqua
Version:Normal
Source:osu!
Tags:Hinsvar Onlybiscuit english indie rock fa featured artist mpg mappers' guild
BeatmapID:2218462
BeatmapSetID:1050185

[Difficulty]
HPDrainRate:4
CircleSize:3.5
OverallDifficulty:4
ApproachRate:6
SliderMultiplier:1.2
SliderTickRate:1

[Events]
//Background and Video events
0,0,"lost-places-3994109_1920.jpg",0,0
//Break Periods
//Storyboard Layer 0 (Background)
//Storyboard Layer 1 (Fail)
//Storyboard Layer 2 (Pass)
//Storyboard Layer 3 (Foreground)
//Storyboard Layer 4 (Overlay)
//Storyboard Sound Samples

[TimingPoints]
1398,352.941176470588,4,2,1,40,1,0
12692,-100,4,2,1,50,0,0
21162,342.857142857143,4,2,1,50,1,0
22533,352.941176470588,4,2,1,50,1,0
23944,-100,4,2,1,65,0,0
35238,-100,4,2,1,50,0,0
57827,-100,4,2,1,40,0,0
63474,-100,4,2,1,75,0,1
86062,-100,4,2,1,50,0,0
108650,-100,4,2,1,75,0,1
131238,-100,4,2,1,60,0,0
136885,-100,4,2,1,65,0,0
153827,-100,4,2,1,75,0,1
176415,-100,4,2,1,60,0,0
187709,-100,4,2,1,65,0,0
194768,-100,4,2,1,70,0,0

[Colours]
Combo1 : 192,192,192
Combo2 : 255,188,155
Combo3 : 255,128,128

[HitObjects]
47,286,1398,6,0,P|112:294|171:318,1,120,2|2,0:0|0:0,0:0:0:0:
236,374,2103,1,2,0:0:0:0:
236,374,2280,1,2,0:0:0:0:
326,342,2633,2,0,B|353:283|353:283|345:214,1,120,2|2,0:0|0:0,0:0:0:0:
431,181,3339,2,0,P|412:89|400:62,1,120,2|2,0:0|0:0,0:0:0:0:
365,33,3868,1,2,0:0:0:0:
292,95,4221,6,0,P|218:71|150:59,1,120,2|2,0:0|0:0,0:0:0:0:
87,99,4927,1,2,0:0:0:0:
87,99,5103,1,2,0:0:0:0:
150,171,5456,2,0,P|178:222|147:297,1,120,2|2,0:0|0:0,0:0:0:0:
124,307,5986,2,0,L|58:286,2,60,2|2|2,0:0|0:0|0:0,0:0:0:0:
190,376,6692,1,2,0:0:0:0:
274,330,7045,6,0,P|333:339|389:358,1,120,2|2,0:0|0:0,0:0:0:0:
470,306,7750,1,2,0:0:0:0:
470,306,7927,1,2,0:0:0:0:
419,224,8280,2,0,B|387:200|387:200|309:222,1,120,2|2,0:0|0:0,0:0:0:0:
223,264,8986,2,0,P|147:264|115:202,1,120,2|2,0:0|0:0,0:0:0:0:
107,188,9515,1,2,0:0:0:0:
38,254,9868,6,0,P|22:196|-3:133,1,120,2|2,0:0|0:0,0:0:0:0:
65,69,10574,1,2,0:0:0:0:
65,69,10750,1,2,0:0:0:0:
154,103,11103,2,0,P|219:73|273:52,1,120,2|2,0:0|0:0,0:0:0:0:
285,11,11633,2,0,P|259:2|223:0,2,60,2|2|2,0:0|0:0|0:0,0:0:0:0:
365,63,12339,2,0,P|369:95|381:130,1,60,2|0,0:0|0:0,0:0:0:0:
418,145,12692,6,0,L|407:204,1,60,2|0,1:2|1:2,0:0:0:0:
370,234,13044,1,10,0:0:0:0:
418,317,13397,2,0,P|467:297|478:295,2,60,2|2|8,0:0|1:2|0:0,0:0:0:0:
387,354,13927,2,0,P|312:335|270:330,1,120,2|2,0:0|1:2,0:0:0:0:
212,252,14633,2,0,P|152:260|94:276,1,120,2|2,0:0|1:2,0:0:0:0:
68,316,15162,1,10,0:0:0:0:
2,245,15515,6,0,L|13:173,1,60,2|0,1:2|1:2,0:0:0:0:
46,153,15868,1,10,0:0:0:0:
112,83,16221,2,0,L|86:4,2,60,2|2|8,0:0|1:2|0:0,0:0:0:0:
151,110,16750,2,0,P|208:125|263:105,1,120,2|2,0:0|1:2,0:0:0:0:
302,76,17280,1,10,0:0:0:0:
386,120,17633,2,0,L|404:186,1,60,2|2,0:0|1:2,0:0:0:0:
440,206,17986,2,0,L|422:272,1,60,10|0,0:0|0:0,0:0:0:0:
384,290,18339,5,2,1:2:0:0:
301,254,18692,1,10,0:0:0:0:
218,303,19045,2,0,P|206:334|195:373,2,60,2|2|8,0:0|1:2|0:0,0:0:0:0:
189,264,19574,2,0,P|160:195|131:149,1,120,2|2,0:0|1:2,0:0:0:0:
60,97,20280,2,0,P|29:148|7:204,1,120,2|2,0:0|1:2,0:0:0:0:
26,248,20809,1,10,0:0:0:0:
94,319,21162,6,0,P|152:323|197:286,1,120,6|14,1:2|0:0,0:0:0:0:
252,207,21847,2,0,L|224:139,2,60,14|8|8,0:0|0:0|0:0,0:0:0:0:
292,230,22362,1,8,0:0:0:0:
292,230,22533,1,8,0:0:0:0:
498,319,23415,2,0,L|509:408,2,60,0|8|0,1:2|0:0|1:2,0:0:0:0:
454,298,23944,6,0,P|447:272|452:230,1,60,6|2,1:2|1:2,0:0:0:0:
491,215,24297,2,0,P|493:185|486:156,1,60,10|2,0:0|0:0,0:0:0:0:
458,117,24650,1,2,1:2:0:0:
458,117,24827,1,2,1:2:0:0:
379,171,25180,2,0,P|315:202|266:179,1,120,2|2,1:2|1:2,0:0:0:0:
257,140,25709,1,8,0:0:0:0:
221,108,25885,2,0,P|164:91|114:122,1,120,2|2,0:0|1:2,0:0:0:0:
117,171,26415,1,10,0:0:0:0:
69,254,26768,6,0,L|85:335,2,60,6|2|10,1:2|1:2|0:0,0:0:0:0:
33,221,27297,1,2,0:0:0:0:
2,184,27474,2,0,L|18:103,1,60,2|2,0:0|1:2,0:0:0:0:
90,67,28003,2,0,B|157:54|154:95|211:99,1,120,2|2,1:2|1:2,0:0:0:0:
246,78,28532,1,8,0:0:0:0:
287,53,28709,2,0,L|428:76,1,120,2|2,1:2|1:2,0:0:0:0:
432,112,29238,1,8,0:0:0:0:
479,195,29591,6,0,L|460:281,1,60,6|2,1:2|1:2,0:0:0:0:
419,267,29944,2,0,L|438:353,1,60,10|2,0:0|0:0,0:0:0:0:
466,359,30297,1,2,1:2:0:0:
466,359,30474,1,2,1:2:0:0:
371,377,30827,2,0,P|307:347|258:337,1,120,2|2,1:2|1:2,0:0:0:0:
218,362,31356,1,8,0:0:0:0:
170,366,31532,2,0,P|111:352|57:326,1,120,2|2,0:0|1:2,0:0:0:0:
39,281,32062,1,10,0:0:0:0:
112,219,32415,6,0,L|128:138,2,60,6|2|10,1:2|1:2|0:0,0:0:0:0:
132,262,32944,1,2,0:0:0:0:
180,259,33121,2,0,P|214:243|261:243,1,60,2|2,0:0|1:2,0:0:0:0:
293,316,33650,2,0,B|336:331|336:331|413:286,1,120,2|8,1:2|0:0,0:0:0:0:
367,202,34356,2,0,P|376:139|436:95,1,120,10|10,0:0|0:3,0:0:0:0:
461,86,34885,2,0,L|448:28,1,60,10|10,0:0|0:0,0:0:0:0:
404,5,35238,5,4,1:2:0:0:
325,59,35591,1,10,0:0:0:0:
234,27,35944,2,0,P|163:16|106:10,1,120,2|8,1:2|0:0,0:0:0:0:
74,36,36474,1,2,0:0:0:0:
7,105,36827,1,0,1:2:0:0:
7,105,37003,2,0,P|37:180|36:208,1,60,8|2,0:0|0:0,0:0:0:0:
109,217,37532,1,0,1:2:0:0:
109,217,37708,2,0,P|79:292|80:320,1,60,8|0,0:0|0:0,0:0:0:0:
102,314,38062,5,4,1:2:0:0:
177,373,38415,1,8,0:0:0:0:
258,322,38768,2,0,B|309:308|320:362|389:357,1,120,2|10,1:2|0:0,0:0:0:0:
451,307,39474,2,0,L|440:239,1,60,2|0,1:2|1:2,0:0:0:0:
402,218,39827,1,8,0:0:0:0:
452,136,40180,2,0,L|520:125,2,60,0|0|8,1:2|1:2|0:0,0:0:0:0:
409,106,40709,1,0,1:2:0:0:
369,79,40885,6,0,B|316:75|301:119|254:122,1,120,4|10,1:2|0:0,0:0:0:0:
218,208,41591,2,0,P|227:274|231:282,1,60,2|0,1:2|1:2,0:0:0:0:
256,302,41944,1,10,0:0:0:0:
189,370,42297,2,0,P|119:379|72:338,1,120,2|10,1:2|0:0,0:0:0:0:
53,312,42827,1,2,0:0:0:0:
78,219,43180,1,0,1:2:0:0:
34,200,43356,2,0,L|13:143,1,60,8|2,0:0|0:0,0:0:0:0:
34,100,43709,6,0,P|88:79|139:106,1,120,4|8,1:2|0:0,0:0:0:0:
200,181,44415,1,0,1:2:0:0:
200,181,44591,1,0,1:2:0:0:
284,136,44944,2,0,P|346:157|419:127,1,120,2|0,0:0|1:2,0:0:0:0:
438,117,45474,2,0,L|426:49,2,60,8|0|0,0:0|0:0|1:2,0:0:0:0:
480,139,46003,1,8,0:0:0:0:
500,232,46356,1,8,0:3:0:0:
500,232,46532,6,0,B|516:299|470:278|468:376,1,120,4|10,1:2|0:0,0:0:0:0:
379,374,47238,2,0,P|304:350|281:289,1,120,2|10,1:2|0:0,0:0:0:0:
290,269,47768,1,2,0:0:0:0:
209,215,48121,1,0,1:2:0:0:
209,215,48297,2,0,P|130:192|117:194,1,60,8|2,0:0|0:0,0:0:0:0:
96,269,48827,1,0,1:2:0:0:
96,269,49003,2,0,P|17:292|4:290,1,60,8|0,0:0|1:2,0:0:0:0:
3,261,49356,5,4,1:2:0:0:
4,165,49709,1,8,0:0:0:0:
50,80,50062,2,0,P|94:40|184:48,1,120,2|10,1:2|0:0,0:0:0:0:
232,88,50768,1,2,1:2:0:0:
232,88,50944,2,0,B|248:144|196:173|221:221,1,120,0|2,1:2|0:0,0:0:0:0:
281,274,51650,1,0,1:2:0:0:
281,274,51827,2,0,P|272:320|269:346,1,60,8|0,0:0|0:0,0:0:0:0:
303,367,52180,6,0,P|364:384|417:359,1,120,4|10,1:2|0:0,0:0:0:0:
477,290,52885,2,0,L|464:200,1,60,2|0,1:2|1:2,0:0:0:0:
428,203,53238,1,8,0:0:0:0:
452,110,53591,2,0,L|542:97,2,60,2|0|10,1:2|1:2|0:0,0:0:0:0:
415,78,54121,2,0,P|344:58|290:49,1,120,2|2,0:0|1:2,0:0:0:0:
266,85,54650,1,8,0:0:0:0:
185,33,55003,6,0,B|150:23|150:23|46:59,1,120,4|8,1:2|0:0,0:0:0:0:
23,134,55709,1,0,1:2:0:0:
23,134,55885,1,0,1:2:0:0:
110,174,56238,2,0,P|150:267|128:293,1,120,2|8,0:0|0:0,0:0:0:0:
113,305,56768,2,0,L|38:319,2,60,0|0|8,1:2|1:2|0:0,0:0:0:0:
132,349,57297,1,8,0:3:0:0:
225,370,57650,1,0,1:2:0:0:
225,370,57827,5,4,1:2:0:0:
289,302,60650,2,0,P|353:323|403:346,1,120,0|0,3:0|3:0,0:0:0:0:
485,299,61356,1,0,3:0:0:0:
430,220,61709,1,0,3:0:0:0:
497,151,62062,2,0,P|511:90|512:28,1,120,4|4,0:2|0:2,0:0:0:0:
419,6,62768,2,0,P|365:35|357:37,1,60,4|0,0:2|1:2,0:0:0:0:
324,12,63121,1,8,0:0:0:0:
251,75,63474,6,0,B|229:151|277:118|247:212,1,120,6|10,1:2|0:0,0:0:0:0:
169,240,64180,1,2,1:2:0:0:
199,276,64356,2,0,L|215:333,1,60,2|10,1:2|0:0,0:0:0:0:
130,377,64885,2,0,P|72:351|5:331,1,120,2|8,1:2|0:0,0:0:0:0:
2,288,65415,1,2,0:0:0:0:
65,216,65768,1,2,1:2:0:0:
65,216,65944,1,8,0:0:0:0:
54,120,66297,6,0,L|-29:86,2,60,6|2|10,1:2|1:2|0:0,0:0:0:0:
129,60,67003,1,2,1:2:0:0:
129,60,67180,1,2,1:2:0:0:
205,118,67532,2,0,B|290:93|263:146|328:131,1,120,2|2,0:0|1:2,0:0:0:0:
358,104,68062,1,8,0:0:0:0:
402,121,68238,2,0,P|442:176|442:247,1,120,2|2,0:0|1:2,0:0:0:0:
427,270,68768,1,8,0:0:0:0:
432,365,69121,6,0,P|360:328|290:323,1,120,6|10,1:2|0:0,0:0:0:0:
225,327,69827,2,0,P|212:354|202:382,2,60,2|2|10,1:2|1:2|0:0,0:0:0:0:
189,294,70356,2,0,P|181:244|161:163,1,120,2|0,0:0|1:2,0:0:0:0:
237,112,71062,2,0,P|225:53|152:45,1,120,2|2,0:0|1:2,0:0:0:0:
135,66,71591,1,8,0:0:0:0:
39,55,71944,6,0,L|18:-5,2,60,6|2|10,1:2|1:2|0:0,0:0:0:0:
74,144,72650,1,2,1:2:0:0:
74,144,72827,1,2,1:2:0:0:
10,215,73180,2,0,P|-4:303|-8:338,1,120,2|2,0:0|1:2,0:0:0:0:
22,371,73709,1,8,0:0:0:0:
68,360,73885,2,0,B|136:336|117:380|197:363,1,120,2|2,0:0|1:2,0:0:0:0:
225,338,74415,1,8,0:0:0:0:
302,280,74768,6,0,B|378:258|345:306|439:276,1,120,6|10,1:2|0:0,0:0:0:0:
488,215,75474,1,2,1:2:0:0:
512,174,75650,2,0,L|495:116,1,60,2|10,1:2|0:0,0:0:0:0:
422,46,76179,2,0,P|364:20|297:0,1,120,2|8,1:2|0:0,0:0:0:0:
272,33,76709,1,2,0:0:0:0:
314,118,77062,1,2,1:2:0:0:
314,118,77238,1,8,0:0:0:0:
244,184,77591,6,0,L|161:150,2,60,6|2|10,1:2|1:2|0:0,0:0:0:0:
286,270,78297,1,2,1:2:0:0:
286,270,78474,1,2,1:2:0:0:
222,341,78827,2,0,B|137:316|164:369|99:354,1,120,2|2,0:0|1:2,0:0:0:0:
71,323,79356,1,8,0:0:0:0:
43,283,79532,2,0,P|50:224|87:177,1,120,2|2,0:0|1:2,0:0:0:0:
135,172,80062,1,8,0:0:0:0:
214,225,80415,6,0,P|265:255|323:267,1,120,6|10,1:2|0:0,0:0:0:0:
415,297,81121,2,0,P|427:324|437:352,2,60,2|2|10,1:2|1:2|0:0,0:0:0:0:
453,267,81650,2,0,P|445:217|425:136,1,120,2|0,0:0|1:2,0:0:0:0:
375,69,82356,2,0,P|334:28|279:43,1,120,2|2,0:0|1:2,0:0:0:0:
240,72,82885,1,8,0:0:0:0:
145,55,83238,6,0,L|124:-5,2,60,6|2|10,1:2|1:2|0:0,0:0:0:0:
97,138,83944,1,2,1:2:0:0:
97,138,84121,1,2,1:2:0:0:
3,116,84474,2,0,P|-16:171|21:239,1,120,2|10,0:0|0:0,0:0:0:0:
39,260,85003,1,2,1:2:0:0:
70,296,85179,2,0,B|138:272|119:316|199:299,1,120,2|2,1:2|1:2,0:0:0:0:
228,276,85709,1,8,0:0:0:0:
290,348,86062,6,0,P|368:330|424:327,1,120,4|10,1:2|0:0,0:0:0:0:
451,241,86768,2,0,P|486:242|517:250,2,60,2|0|10,1:2|1:2|0:0,0:0:0:0:
420,203,87297,1,2,0:0:0:0:
343,145,87650,1,0,1:2:0:0:
343,145,87827,2,0,P|313:150|285:159,1,60,8|2,0:0|0:0,0:0:0:0:
235,241,88356,1,0,1:2:0:0:
235,241,88532,2,0,P|206:231|177:227,1,60,8|0,0:0|0:0,0:0:0:0:
143,261,88885,6,0,P|75:280|29:240,1,120,4|10,1:2|0:0,0:0:0:0:
6,163,89591,2,0,P|23:106|37:80,1,60,2|0,1:2|1:2,0:0:0:0:
60,75,89944,1,10,0:0:0:0:
147,115,90297,1,2,1:2:0:0:
147,115,90474,2,0,B|222:94|207:146|279:132,1,120,2|2,1:2|0:0,0:0:0:0:
315,54,91180,1,0,1:2:0:0:
315,54,91356,2,0,L|388:36,1,60,8|0,0:0|1:2,0:0:0:0:
416,60,91709,5,4,1:2:0:0:
473,136,92062,1,10,0:0:0:0:
425,219,92415,2,0,L|353:201,1,60,2|0,1:2|1:2,0:0:0:0:
327,232,92768,1,10,0:0:0:0:
266,157,93121,2,0,L|282:94,2,60,2|0|8,1:2|1:2|0:0,0:0:0:0:
226,185,93650,2,0,P|154:213|99:174,1,120,2|0,0:0|1:2,0:0:0:0:
90,158,94180,1,8,0:0:0:0:
15,218,94532,6,0,L|29:286,1,60,4|0,1:2|1:2,0:0:0:0:
65,306,94885,1,8,0:0:0:0:
154,270,95238,1,0,1:2:0:0:
154,270,95415,1,0,1:2:0:0:
225,334,95768,2,0,B|296:321|281:360|349:353,1,120,2|8,0:0|0:0,0:0:0:0:
387,341,96297,2,0,L|411:267,2,60,0|0|8,1:2|1:2|0:0,0:0:0:0:
428,365,96827,1,0,1:2:0:0:
428,365,97003,1,8,0:0:0:0:
494,295,97356,6,0,P|490:262|477:224,1,60,4|0,1:2|1:2,0:0:0:0:
445,205,97709,2,0,P|449:172|462:134,1,60,10|0,0:0|1:2,0:0:0:0:
496,119,98062,1,10,0:3:0:0:
435,44,98415,1,10,0:0:0:0:
394,18,98591,2,0,P|332:33|266:36,1,120,2|0,0:0|1:2,0:0:0:0:
235,10,99121,1,8,0:0:0:0:
193,33,99297,2,0,P|153:94|161:136,1,120,2|0,1:2|1:2,0:0:0:0:
201,164,99827,1,8,0:0:0:0:
296,155,100180,6,0,B|320:235|278:206|303:282,1,120,4|8,1:2|0:0,0:0:0:0:
241,348,100885,2,0,P|211:340|186:323,1,60,10|0,0:3|1:2,0:0:0:0:
157,286,101238,2,0,P|127:294|102:311,1,60,10|2,0:0|0:0,0:0:0:0:
79,351,101591,2,0,L|39:227,1,120,2|8,1:2|0:0,0:0:0:0:
69,197,102121,1,2,1:2:0:0:
12,119,102474,1,0,1:2:0:0:
12,119,102650,1,8,0:0:0:0:
71,43,103003,6,0,L|135:24,1,60,4|0,1:2|1:2,0:0:0:0:
165,56,103356,2,0,L|222:73,1,60,10|0,0:0|1:2,0:0:0:0:
262,46,103709,1,10,0:3:0:0:
346,92,104062,1,8,0:0:0:0:
377,55,104238,2,0,P|441:21|482:41,1,120,2|2,0:0|1:2,0:0:0:0:
509,76,104768,1,8,0:0:0:0:
491,120,104944,2,0,B|467:193|512:167|481:263,1,120,2|2,1:2|1:2,0:0:0:0:
457,275,105474,1,8,0:0:0:0:
456,371,105827,6,0,P|397:366|356:324,1,120,4|8,1:2|0:0,0:0:0:0:
341,279,106356,1,2,1:2:0:0:
325,233,106532,2,0,P|266:237|225:279,1,120,4|8,1:2|0:0,0:0:0:0:
200,320,107062,1,0,1:2:0:0:
171,358,107238,6,0,B|104:344|119:388|43:383,1,120,4|8,1:2|0:0,0:0:0:0:
18,295,107944,2,0,P|-3:227|4:171,1,120,0|8,1:2|0:0,0:0:0:0:
88,138,108650,6,0,B|138:126|138:126|165:141|165:141|225:134,1,120,6|10,1:2|0:0,0:0:0:0:
270,205,109356,1,2,1:2:0:0:
313,224,109532,2,0,L|370:207,1,60,2|10,1:2|0:0,0:0:0:0:
440,136,110062,2,0,P|421:78|397:24,1,120,2|8,1:2|0:0,0:0:0:0:
351,9,110591,1,2,0:0:0:0:
291,84,110944,1,2,1:2:0:0:
291,84,111120,1,8,0:0:0:0:
198,56,111474,6,0,L|232:-27,2,60,6|2|10,1:2|1:2|0:0,0:0:0:0:
111,99,112179,1,2,1:2:0:0:
111,99,112356,1,2,1:2:0:0:
170,174,112709,2,0,P|225:134|296:134,1,120,2|2,0:0|1:2,0:0:0:0:
318,150,113238,1,8,0:0:0:0:
353,182,113415,2,0,B|378:267|325:240|340:305,1,120,2|2,0:0|1:2,0:0:0:0:
369,332,113944,1,8,0:0:0:0:
287,382,114297,6,0,P|215:345|145:340,1,120,6|10,1:2|0:0,0:0:0:0:
81,324,115003,2,0,P|68:351|58:379,2,60,2|2|10,1:2|1:2|0:0,0:0:0:0:
49,287,115532,2,0,P|41:237|21:156,1,120,2|0,0:0|1:2,0:0:0:0:
86,95,116238,2,0,P|136:61|193:107,1,120,2|2,0:0|1:2,0:0:0:0:
219,119,116767,1,8,0:0:0:0:
273,198,117121,6,0,L|252:258,2,60,6|2|10,1:2|1:2|0:0,0:0:0:0:
352,143,117826,1,2,1:2:0:0:
352,143,118003,1,2,1:2:0:0:
427,202,118356,2,0,B|453:263|453:263|445:325,1,120,2|10,0:0|0:0,0:0:0:0:
414,352,118885,1,8,0:0:0:0:
373,377,119062,2,0,B|305:353|324:397|244:380,1,120,2|8,1:2|0:0,0:0:0:0:
217,353,119591,1,8,0:0:0:0:
266,271,119944,6,0,B|288:195|270:134,1,120,6|10,1:2|0:0,0:0:0:0:
223,70,120650,1,2,1:2:0:0:
193,31,120826,2,0,L|135:14,1,60,2|10,1:2|0:0,0:0:0:0:
70,89,121356,2,0,P|12:107|8:181,1,120,2|8,1:2|0:0,0:0:0:0:
28,198,121885,1,2,0:0:0:0:
112,243,122238,1,2,1:2:0:0:
112,243,122414,1,8,0:0:0:0:
66,327,122768,6,0,L|-17:293,2,60,6|2|10,1:2|1:2|0:0,0:0:0:0:
149,374,123473,1,2,1:2:0:0:
149,374,123650,1,2,1:2:0:0:
218,308,124003,2,0,B|303:283|276:336|341:321,1,120,2|2,0:0|1:2,0:0:0:0:
377,305,124532,1,8,0:0:0:0:
414,275,124709,2,0,L|386:139,1,120,2|2,0:0|1:2,0:0:0:0:
355,123,125238,1,8,0:0:0:0:
280,183,125591,6,0,P|229:213|171:225,1,120,6|10,1:2|0:0,0:0:0:0:
74,237,126297,2,0,P|86:264|96:292,2,60,2|2|10,1:2|1:2|0:0,0:0:0:0:
28,219,126827,2,0,P|36:169|56:88,1,120,2|2,0:0|1:2,0:0:0:0:
129,44,127532,2,0,B|214:22|167:71|274:51,1,120,2|2,0:0|1:2,0:0:0:0:
283,85,128061,1,8,0:0:0:0:
374,56,128415,6,0,L|395:-4,2,60,6|2|10,1:2|1:2|0:0,0:0:0:0:
429,134,129120,1,10,0:0:0:0:
429,134,129297,1,2,1:2:0:0:
344,180,129650,2,0,B|320:217|320:217|362:303,1,120,2|0,1:2|1:2,0:0:0:0:
376,327,130179,1,0,1:2:0:0:
388,373,130356,2,0,P|339:356|241:377,1,120,0|0,1:2|1:2,0:0:0:0:
242,323,130885,1,0,0:0:0:0:
153,285,131238,6,0,P|115:333|52:357,1,120,4|0,1:2|0:0,0:0:0:0:
1,281,131944,1,4,1:2:0:0:
149,159,132650,2,0,B|228:146|192:193|271:182,1,120,2|2,0:0|0:0,0:0:0:0:
302,156,133180,1,2,0:0:0:0:
302,156,133356,1,2,0:0:0:0:
379,213,133709,2,0,L|366:280,1,60,2|0,0:0|0:0,0:0:0:0:
388,315,134062,6,0,P|469:302|484:266,1,120,4|0,1:2|0:0,0:0:0:0:
500,180,134768,1,4,1:2:0:0:
371,37,135474,2,0,B|298:35|320:69|241:59,1,120,2|2,0:0|0:0,0:0:0:0:
192,133,136180,2,0,P|195:166|212:195,2,60,2|2|8,0:0|0:0|0:0,0:0:0:0:
102,99,136885,5,6,1:2:0:0:
50,180,137238,2,0,P|70:206|78:235,1,60,2|2,0:0|1:2,0:0:0:0:
70,279,137591,1,10,0:0:0:0:
70,279,137768,1,2,1:2:0:0:
148,334,138121,2,0,B|215:305|203:359|273:337,1,120,2|2,1:2|0:0,0:0:0:0:
300,308,138650,2,0,L|362:332,1,60,2|2,1:2|1:2,0:0:0:0:
381,370,139003,1,10,0:0:0:0:
469,332,139356,2,0,P|474:306|471:271,1,60,10|2,0:0|1:2,0:0:0:0:
430,246,139709,6,0,P|409:200|446:132,1,120,6|2,1:2|0:0,0:0:0:0:
504,72,140415,2,0,P|466:12|399:1,1,120,10|2,0:0|0:0,0:0:0:0:
334,38,141121,2,0,L|357:120,1,60,0|0,1:2|1:2,0:0:0:0:
318,132,141474,1,8,0:0:0:0:
259,208,141827,2,0,L|236:290,1,60,0|0,1:2|1:2,0:0:0:0:
262,309,142180,1,8,0:0:0:0:
185,366,142532,6,0,P|129:340|68:339,1,120,6|2,1:2|0:0,0:0:0:0:
59,242,143238,2,0,L|-5:228,2,60,10|2|2,0:0|0:0|0:0,0:0:0:0:
93,207,143768,1,2,1:2:0:0:
128,174,143944,6,0,B|204:147|180:207|263:191,1,120,10|2,0:0|1:2,0:0:0:0:
288,183,144474,1,10,0:0:0:0:
349,256,144827,1,0,1:2:0:0:
387,284,145003,2,0,L|451:265,1,60,8|8,0:3|0:0,0:0:0:0:
470,226,145356,6,0,P|464:156|413:114,1,120,6|2,1:2|1:2,0:0:0:0:
348,72,146062,1,10,0:0:0:0:
348,72,146238,1,2,0:0:0:0:
259,108,146591,1,2,1:2:0:0:
217,83,146768,2,0,B|207:41|207:41|233:1,2,90,10|10|10,0:0|0:0|0:0,0:0:0:0:
182,117,147474,2,0,P|134:139|57:142,1,120,10|2,0:0|1:2,0:0:0:0:
17,225,148180,6,0,P|90:238|147:267,1,120,6|2,1:2|0:0,0:0:0:0:
186,335,148885,2,0,P|215:319|242:309,1,60,10|2,0:0|1:2,0:0:0:0:
282,333,149238,2,0,P|311:349|338:359,1,60,0|2,0:0|1:2,0:0:0:0:
379,338,149591,2,0,B|403:293|403:293|381:216,1,120,6|2,1:2|0:0,0:0:0:0:
476,200,150297,2,0,B|452:155|452:155|474:78,1,120,10|2,0:0|0:0,0:0:0:0:
474,40,150827,1,2,1:2:0:0:
440,6,151003,6,0,P|380:42|322:51,1,120,6|2,1:2|1:2,0:0:0:0:
297,141,151709,2,0,L|203:114,1,60,10|2,0:0|1:2,0:0:0:0:
198,149,152062,2,0,P|167:199|212:280,1,120,10|8,0:0|0:3,0:0:0:0:
220,282,152591,1,8,0:0:0:0:
152,349,152944,1,8,0:3:0:0:
152,349,153121,1,8,0:0:0:0:
63,310,153474,2,0,L|74:244,1,60,8|8,0:3|0:0,0:0:0:0:
115,229,153827,6,0,B|110:169|87:98,1,120,6|10,1:2|0:0,0:0:0:0:
164,48,154533,1,2,1:2:0:0:
202,20,154709,2,0,L|259:36,1,60,2|8,1:2|0:0,0:0:0:0:
317,114,155238,2,0,P|375:88|442:68,1,120,2|8,0:0|0:0,0:0:0:0:
471,94,155768,1,2,0:0:0:0:
428,180,156121,1,2,1:2:0:0:
428,180,156297,1,8,0:0:0:0:
459,270,156650,6,0,P|485:253|542:236,2,60,6|0|10,1:2|1:2|0:0,0:0:0:0:
407,351,157356,1,0,1:2:0:0:
407,351,157533,1,0,1:2:0:0:
317,317,157885,2,0,B|273:320|273:320|258:338|258:338|194:330,1,120,2|2,1:2|1:2,0:0:0:0:
158,322,158415,1,8,0:0:0:0:
120,351,158591,2,0,P|120:291|101:234,1,120,2|2,0:0|1:2,0:0:0:0:
73,195,159121,1,8,0:0:0:0:
21,114,159474,6,0,P|79:101|130:71,1,120,6|8,1:2|0:0,0:0:0:0:
226,84,160180,2,0,P|236:55|249:28,2,60,2|2|10,1:2|1:2|0:0,0:0:0:0:
278,164,160885,2,0,B|299:241|245:214|285:304,1,120,2|8,0:0|0:0,0:0:0:0:
313,310,161415,2,0,P|371:324|409:261,1,120,2|2,0:0|1:2,0:0:0:0:
431,241,161944,1,8,0:0:0:0:
455,148,162297,6,0,L|515:127,2,60,6|0|10,1:2|1:2|0:0,0:0:0:0:
395,72,163003,1,0,1:2:0:0:
395,72,163180,1,0,1:2:0:0:
308,113,163533,2,0,P|240:105|185:95,1,120,0|8,1:2|0:0,0:0:0:0:
145,75,164062,1,0,1:2:0:0:
99,88,164238,2,0,P|53:123|54:181,1,120,8|8,0:0|0:0,0:0:0:0:
86,218,164768,1,0,1:2:0:0:
131,302,165121,6,0,B|207:280|174:328|268:298,1,120,6|10,1:2|0:0,0:0:0:0:
338,336,165827,1,2,1:2:0:0:
383,323,166003,2,0,L|399:265,1,60,2|10,1:2|0:0,0:0:0:0:
340,194,166532,2,0,P|282:168|215:148,1,120,2|8,1:2|0:0,0:0:0:0:
193,117,167062,1,2,0:0:0:0:
127,187,167415,1,2,1:2:0:0:
127,187,167591,1,8,0:0:0:0:
47,132,167944,6,0,L|24:187,2,60,6|2|10,1:2|1:2|0:0,0:0:0:0:
12,42,168650,1,2,1:2:0:0:
12,42,168827,1,2,1:2:0:0:
106,26,169179,2,0,B|191:1|164:54|229:39,1,120,2|2,0:0|1:2,0:0:0:0:
262,18,169709,1,8,0:0:0:0:
309,12,169885,2,0,B|372:5|372:5|444:66,1,120,2|2,0:0|1:2,0:0:0:0:
434,85,170415,1,8,0:0:0:0:
470,173,170768,6,0,P|440:224|428:282,1,120,6|10,1:2|0:0,0:0:0:0:
342,326,171474,2,0,P|354:353|364:381,2,60,2|2|10,1:2|1:2|0:0,0:0:0:0:
300,301,172003,2,0,P|231:291|181:353,1,120,2|2,0:0|1:2,0:0:0:0:
107,362,172709,2,0,P|51:376|11:335,1,120,2|2,0:0|1:2,0:0:0:0:
12,287,173238,1,8,0:0:0:0:
78,218,173591,6,0,L|138:197,2,60,6|2|10,1:2|1:2|0:0,0:0:0:0:
9,150,174297,2,0,P|-1:125|3:78,1,60,2|0,1:2|1:2,0:0:0:0:
32,57,174650,1,10,0:0:0:0:
68,25,174827,2,0,B|123:6|123:6|191:43,1,120,2|8,1:2|0:0,0:0:0:0:
204,75,175356,1,2,1:2:0:0:
237,109,175532,2,0,B|305:85|286:129|366:112,1,120,8|0,0:0|1:2,0:0:0:0:
389,81,176062,1,0,1:2:0:0:
467,136,176415,6,0,P|504:201|488:256,1,120,4|10,1:2|0:0,0:0:0:0:
423,305,177121,2,0,L|363:283,1,60,2|2,1:2|1:2,0:0:0:0:
323,305,177474,1,10,0:0:0:0:
246,246,177827,2,0,L|185:275,1,60,2|2,1:2|1:2,0:0:0:0:
147,253,178180,2,0,B|119:219|119:219|125:127,1,120,10|2,0:0|1:2,0:0:0:0:
211,104,178885,2,0,L|223:33,1,60,10|2,0:0|0:0,0:0:0:0:
175,29,179238,6,0,P|102:16|60:50,1,120,6|10,1:2|0:0,0:0:0:0:
11,118,179944,2,0,L|28:189,1,60,2|2,1:2|1:2,0:0:0:0:
64,204,180297,1,10,0:0:0:0:
98,238,180474,2,0,B|107:302|107:302|73:353,1,120,2|2,1:2|1:2,0:0:0:0:
172,355,181180,2,0,B|195:327|195:327|281:345,1,120,2|2,0:0|1:2,0:0:0:0:
316,317,181709,2,0,L|391:333,1,60,10|2,0:0|1:2,0:0:0:0:
413,301,182062,6,0,P|450:236|434:181,1,120,6|10,1:2|0:0,0:0:0:0:
489,110,182768,2,0,L|467:50,1,60,2|2,1:2|1:2,0:0:0:0:
421,41,183121,1,8,0:0:0:0:
342,96,183474,2,0,L|281:67,1,60,2|0,1:2|1:2,0:0:0:0:
262,29,183827,2,0,P|184:62|130:76,1,120,8|2,0:0|1:2,0:0:0:0:
88,145,184532,2,0,L|100:216,1,60,10|2,0:0|0:0,0:0:0:0:
132,238,184885,6,0,P|205:251|247:217,1,120,6|10,1:2|0:0,0:0:0:0:
303,155,185591,2,0,L|286:84,2,60,2|2|10,1:2|1:2|0:0,0:0:0:0:
348,171,186121,1,2,1:2:0:0:
395,176,186297,2,0,P|422:187|494:245,1,120,2|2,1:2|1:2,0:0:0:0:
451,330,187003,2,0,P|379:360|344:364,1,60,10|2,0:0|1:2,0:0:0:0:
354,329,187356,1,10,0:3:0:0:
267,286,187709,6,0,B|188:263|219:324|133:300,1,120,6|10,1:2|0:0,0:0:0:0:
57,297,188415,2,0,L|72:357,2,60,2|2|10,1:2|1:2|0:0,0:0:0:0:
19,266,188944,1,2,1:2:0:0:
22,217,189121,2,0,L|35:89,1,120,2|10,1:2|0:0,0:0:0:0:
121,56,189827,2,0,P|150:57|177:71,1,60,2|0,1:2|1:2,0:0:0:0:
199,113,190180,2,0,P|228:111|255:97,1,60,10|2,0:0|1:2,0:0:0:0:
278,56,190532,6,0,B|307:35|307:35|401:54,1,120,6|10,1:2|0:0,0:0:0:0:
474,96,191238,2,0,L|495:28,2,60,2|2|10,1:2|1:2|0:0,0:0:0:0:
437,127,191768,2,0,B|400:194|464:182|422:269,1,120,2|2,1:2|1:2,0:0:0:0:
401,279,192297,1,10,0:0:0:0:
366,312,192474,2,0,L|230:274,1,120,2|2,1:2|1:2,0:0:0:0:
223,240,193003,1,10,0:0:0:0:
285,166,193356,5,6,1:2:0:0:
224,91,193709,2,0,L|160:105,1,60,10|2,0:0|1:2,0:0:0:0:
126,75,194062,1,2,1:2:0:0:
126,75,194238,1,2,1:2:0:0:
34,103,194591,2,0,P|-2:156|18:233,1,120,2|0,1:2|1:2,0:0:0:0:
37,242,195121,1,8,0:0:0:0:
70,275,195297,2,0,B|117:252|117:252|186:290,1,120,0|0,1:2|1:2,0:0:0:0:
213,316,195827,1,10,0:0:0:0:
289,360,196180,6,0,B|362:337|343:391|417:367,1,120,4|10,1:2|0:0,0:0:0:0:
469,299,196885,2,0,L|444:198,1,60,2|2,1:2|1:2,0:0:0:0:
472,195,197238,1,10,0:0:0:0:
484,148,197415,2,0,B|449:128|449:128|344:152,1,120,0|2,1:2|1:2,0:0:0:0:
298,83,198121,2,0,L|321:17,2,60,2|8|2,1:2|0:0|1:2,0:0:0:0:
255,105,198650,1,2,0:0:0:0:
292,193,199003,6,0,B|439:157|398:280|529:252,1,240,6|6,1:2|1:2,0:0:0:0:
