osu file format v14

[General]
AudioFilename: audio.mp3
AudioLeadIn: 0
PreviewTime: 58091
Countdown: 0
SampleSet: Soft
StackLeniency: 0.7
Mode: 0
LetterboxInBreaks: 0
WidescreenStoryboard: 1

[Editor]
DistanceSpacing: 0.8
BeatDivisor: 4
GridSize: 32
TimelineZoom: 1.8

[Metadata]
Title:Hooked Again
TitleUnicode:Hooked Again
Artist:Carpool Tunnel
ArtistUnicode:Carpool Tunnel
Creator:-Aqua
Version:Hinsvar's Insane
Source:osu!
Tags:Hinsvar Onlybiscuit english indie rock fa featured artist mpg mappers' guild
BeatmapID:2238203
BeatmapSetID:1050185

[Difficulty]
HPDrainRate:6
CircleSize:4
OverallDifficulty:8
ApproachRate:9
SliderMultiplier:1.6
SliderTickRate:1

[Events]
//Background and Video events
0,0,"lost-places-3994109_1920.jpg",0,0
//Break Periods
2,58027,60050
//Storyboard Layer 0 (Background)
//Storyboard Layer 1 (Fail)
//Storyboard Layer 2 (Pass)
//Storyboard Layer 3 (Foreground)
//Storyboard Layer 4 (Overlay)
//Storyboard Sound Samples

[TimingPoints]
1398,352.941176470588,4,2,1,40,1,0
1398,-200,4,2,1,40,0,0
7045,-133.333333333333,4,2,1,40,0,0
7309,-133.333333333333,4,2,1,5,0,0
7397,-133.333333333333,4,2,1,40,0,0
7662,-133.333333333333,4,2,1,5,0,0
7750,-133.333333333333,4,2,1,40,0,0
8103,-133.333333333333,4,2,1,5,0,0
8280,-133.333333333333,4,2,1,40,0,0
12692,-100,4,2,1,50,0,0
12780,-100,4,2,1,5,0,0
12868,-100,4,2,1,50,0,0
12956,-100,4,2,1,5,0,0
13045,-100,4,2,1,50,0,0
13309,-100,4,2,1,5,0,0
13397,-100,4,2,1,50,0,0
15603,-100,4,2,1,5,0,0
15692,-100,4,2,1,50,0,0
15780,-100,4,2,1,5,0,0
15868,-100,4,2,1,50,0,0
16133,-100,4,2,1,5,0,0
16221,-100,4,2,1,50,0,0
18427,-100,4,2,1,5,0,0
18515,-100,4,2,1,50,0,0
18603,-100,4,2,1,5,0,0
18692,-100,4,2,1,50,0,0
18956,-100,4,2,1,5,0,0
19045,-100,4,2,1,50,0,0
21162,342.857142857143,4,2,1,50,1,0
22533,352.941176470588,4,2,1,50,1,0
23591,-111.111111111111,4,2,1,50,0,0
23944,-100,4,2,1,65,0,0
34974,-100,4,2,1,5,0,0
35062,-100,4,2,1,65,0,0
35150,-100,4,2,1,5,0,0
35238,-111.111111111111,4,2,1,50,0,0
37444,-111.111111111111,4,2,1,5,0,0
37532,-111.111111111111,4,2,1,50,0,0
37621,-111.111111111111,4,2,1,5,0,0
37709,-111.111111111111,4,2,1,50,0,0
40268,-111.111111111111,4,2,1,5,0,0
40356,-111.111111111111,4,2,1,50,0,0
40444,-111.111111111111,4,2,1,5,0,0
40532,-111.111111111111,4,2,1,50,0,0
40974,-111.111111111111,4,2,1,5,0,0
41062,-111.111111111111,4,2,1,50,0,0
41150,-111.111111111111,4,2,1,5,0,0
41238,-111.111111111111,4,2,1,50,0,0
43091,-111.111111111111,4,2,1,5,0,0
43180,-111.111111111111,4,2,1,50,0,0
43268,-111.111111111111,4,2,1,5,0,0
43356,-111.111111111111,4,2,1,50,0,0
43797,-111.111111111111,4,2,1,5,0,0
43885,-111.111111111111,4,2,1,50,0,0
43974,-111.111111111111,4,2,1,5,0,0
44062,-111.111111111111,4,2,1,50,0,0
46444,-111.111111111111,4,2,1,5,0,0
46532,-111.111111111111,4,2,1,50,0,0
47150,-111.111111111111,4,2,1,5,0,0
47238,-111.111111111111,4,2,1,50,0,0
48032,-111.111111111111,4,2,1,5,0,0
48121,-111.111111111111,4,2,1,50,0,0
48209,-111.111111111111,4,2,1,5,0,0
48297,-111.111111111111,4,2,1,50,0,0
50856,-111.111111111111,4,2,1,5,0,0
50944,-111.111111111111,4,2,1,50,0,0
51032,-111.111111111111,4,2,1,5,0,0
51121,-111.111111111111,4,2,1,50,0,0
52268,-111.111111111111,4,2,1,5,0,0
52356,-111.111111111111,4,2,1,50,0,0
52444,-111.111111111111,4,2,1,5,0,0
52532,-111.111111111111,4,2,1,50,0,0
53680,-111.111111111111,4,2,1,5,0,0
53768,-111.111111111111,4,2,1,50,0,0
53856,-111.111111111111,4,2,1,5,0,0
53944,-111.111111111111,4,2,1,50,0,0
54915,-111.111111111111,4,2,1,5,0,0
55003,-111.111111111111,4,2,1,50,0,0
57385,-111.111111111111,4,2,1,5,0,0
57474,-111.111111111111,4,2,1,50,0,0
57562,-111.111111111111,4,2,1,5,0,0
57650,-111.111111111111,4,2,1,50,0,0
57827,-111.111111111111,4,2,1,40,0,0
60650,-250,4,2,1,40,0,0
60915,-250,4,2,1,5,0,0
61003,-200,4,2,1,40,0,0
61268,-200,4,2,1,5,0,0
61356,-166.666666666667,4,2,1,40,0,0
61621,-166.666666666667,4,2,1,5,0,0
61709,-142.857142857143,4,2,1,40,0,0
61974,-142.857142857143,4,2,1,5,0,0
62062,-125,4,2,1,40,0,0
62327,-125,4,2,1,5,0,0
62415,-111.111111111111,4,2,1,40,0,0
62680,-111.111111111111,4,2,1,5,0,0
62768,-100,4,2,1,40,0,0
63474,-90.9090909090909,4,2,1,75,0,1
66209,-90.9090909090909,4,2,1,5,0,1
66297,-90.9090909090909,4,2,1,75,0,1
77503,-90.9090909090909,4,2,1,5,0,1
77591,-90.9090909090909,4,2,1,75,0,1
86062,-111.111111111111,4,2,1,50,0,0
88797,-111.111111111111,4,2,1,5,0,0
88885,-111.111111111111,4,2,1,50,0,0
88974,-111.111111111111,4,2,1,5,0,0
89062,-111.111111111111,4,2,1,50,0,0
89150,-111.111111111111,4,2,1,5,0,0
89238,-111.111111111111,4,2,1,50,0,0
89503,-111.111111111111,4,2,1,5,0,0
89591,-111.111111111111,4,2,1,50,0,0
91797,-111.111111111111,4,2,1,5,0,0
91885,-111.111111111111,4,2,1,50,0,0
91974,-111.111111111111,4,2,1,5,0,0
92062,-111.111111111111,4,2,1,50,0,0
92327,-111.111111111111,4,2,1,5,0,0
92415,-111.111111111111,4,2,1,50,0,0
93915,-111.111111111111,4,2,1,5,0,0
94003,-111.111111111111,4,2,1,50,0,0
94091,-111.111111111111,4,2,1,5,0,0
94180,-111.111111111111,4,2,1,50,0,0
94444,-111.111111111111,4,2,1,5,0,0
94532,-111.111111111111,4,2,1,50,0,0
95150,-111.111111111111,4,2,1,5,0,0
95238,-111.111111111111,4,2,1,50,0,0
95327,-111.111111111111,4,2,1,5,0,0
95415,-111.111111111111,4,2,1,50,0,0
95503,-111.111111111111,4,2,1,5,0,0
95591,-111.111111111111,4,2,1,50,0,0
96915,-111.111111111111,4,2,1,5,0,0
97003,-111.111111111111,4,2,1,50,0,0
97268,-111.111111111111,4,2,1,5,0,0
97356,-111.111111111111,4,2,1,50,0,0
98150,-111.111111111111,4,2,1,5,0,0
98238,-111.111111111111,4,2,1,50,0,0
98327,-111.111111111111,4,2,1,5,0,0
98415,-111.111111111111,4,2,1,50,0,0
99915,-111.111111111111,4,2,1,5,0,0
100003,-111.111111111111,4,2,1,50,0,0
100091,-111.111111111111,4,2,1,5,0,0
100180,-111.111111111111,4,2,1,50,0,0
100974,-111.111111111111,4,2,1,5,0,0
101062,-111.111111111111,4,2,1,50,0,0
101150,-111.111111111111,4,2,1,5,0,0
101238,-111.111111111111,4,2,1,50,0,0
102738,-111.111111111111,4,2,1,5,0,0
102827,-111.111111111111,4,2,1,50,0,0
102915,-111.111111111111,4,2,1,5,0,0
103003,-111.111111111111,4,2,1,50,0,0
105209,-111.111111111111,4,2,1,5,0,0
105297,-111.111111111111,4,2,1,50,0,0
105385,-111.111111111111,4,2,1,5,0,0
105474,-111.111111111111,4,2,1,50,0,0
108650,-90.9090909090909,4,2,1,75,0,1
123032,-90.9090909090909,4,2,1,5,0,1
123121,-90.9090909090909,4,2,1,75,0,1
131150,-90.9090909090909,4,2,1,5,0,1
131238,-111.111111111111,4,2,1,60,0,0
131856,-111.111111111111,4,2,1,5,0,0
131944,-100,4,2,1,60,0,0
132650,-200,4,2,1,60,0,0
134062,-100,4,2,1,60,0,0
134680,-100,4,2,1,5,0,0
134768,-90.9090909090909,4,2,1,60,0,0
136885,-125,4,2,1,65,0,0
144474,-166.666666666667,4,2,1,65,0,0
145003,-111.111111111111,4,2,1,65,0,0
147738,-111.111111111111,4,2,1,5,0,0
147827,-166.666666666666,4,2,1,65,0,0
148091,-166.666666666666,4,2,1,5,0,0
148180,-111.111111111111,4,2,1,65,0,0
151268,-111.111111111111,4,2,1,5,0,0
151356,-111.111111111111,4,2,1,65,0,0
151621,-111.111111111111,4,2,1,5,0,0
151709,-111.111111111111,4,2,1,65,0,0
152415,-111.111111111111,4,2,1,65,0,0
153827,-90.9090909090909,4,2,1,75,0,1
154091,-90.9090909090909,4,2,1,5,0,1
154180,-90.9090909090909,4,2,1,75,0,1
156738,-90.9090909090909,4,2,1,5,0,1
156827,-90.9090909090909,4,2,1,75,0,1
156915,-90.9090909090909,4,2,1,5,0,1
157003,-90.9090909090909,4,2,1,75,0,1
160797,-90.9090909090909,4,2,1,5,0,1
160885,-90.9090909090909,4,2,1,75,0,1
162562,-90.9090909090909,4,2,1,5,0,1
162650,-90.9090909090909,4,2,1,75,0,1
162915,-90.9090909090909,4,2,1,5,0,1
163003,-90.9090909090909,4,2,1,75,0,1
164503,-90.9090909090909,4,2,1,5,0,1
164591,-90.9090909090909,4,2,1,75,0,1
164680,-90.9090909090909,4,2,1,5,0,1
164768,-90.9090909090909,4,2,1,75,0,1
168032,-90.9090909090909,4,2,1,5,0,1
168121,-90.9090909090909,4,2,1,75,0,1
168209,-90.9090909090909,4,2,1,5,0,1
168297,-90.9090909090909,4,2,1,75,0,1
176415,-125,4,2,1,60,0,0
176680,-125,4,2,1,5,0,0
176768,-100,4,2,1,60,0,0
178444,-100,4,2,1,5,0,0
178532,-100,4,2,1,60,0,0
182062,-125,4,2,1,60,0,0
182327,-125,4,2,1,5,0,0
182415,-100,4,2,1,60,0,0
184797,-100,4,2,1,5,0,0
184885,-100,4,2,1,60,0,0
185503,-100,4,2,1,5,0,0
185591,-100,4,2,1,60,0,0
187709,-125,4,2,1,65,0,0
187974,-125,4,2,1,5,0,0
188062,-100,4,2,1,65,0,0
193444,-100,4,2,1,5,0,0
193532,-100,4,2,1,65,0,0
193621,-100,4,2,1,5,0,0
193709,-100,4,2,1,65,0,0
194768,-100,4,2,1,70,0,0
196444,-100,4,2,1,5,0,0
196532,-100,4,2,1,70,0,0
199003,-125,4,2,1,70,0,0
199621,-125,4,2,1,5,0,0
199709,-90.9090909090909,4,2,1,70,0,0

[Colours]
Combo1 : 192,192,192
Combo2 : 255,188,155
Combo3 : 255,128,128

[HitObjects]
358,334,1398,6,0,P|394:318|442:314,2,80,2|2|2,0:0|0:0|0:0,0:0:0:0:
303,273,2280,1,2,0:0:0:0:
160,350,2633,6,0,P|185:317|178:272,1,80,2|2,0:0|0:0,0:0:0:0:
244,130,3339,2,0,P|238:88|201:62,1,80,2|2,0:0|0:0,0:0:0:0:
138,100,3868,1,2,0:0:0:0:
138,100,4045,1,2,0:0:0:0:
81,199,4221,6,0,P|39:194|-6:178,2,80,2|2|2,0:0|0:0|0:0,0:0:0:0:
27,277,5103,1,2,0:0:0:0:
188,367,5456,6,0,P|189:331|181:281,1,80,2|2,0:0|0:0,0:0:0:0:
233,225,5986,1,2,0:0:0:0:
310,245,6162,1,2,0:0:0:0:
299,332,6339,2,0,P|319:324|348:319,1,40,2|0,0:0|0:0,0:0:0:0:
434,366,6692,2,0,P|441:341|442:321,1,40,2|2,0:0|0:0,0:0:0:0:
405,202,7045,6,0,P|448:218|504:228,1,90.0000034332277,2|0,0:0|0:0,0:0:0:0:
499,197,7397,2,0,P|483:154|473:98,1,90.0000034332277,2|0,0:0|0:0,0:0:0:0:
483,82,7750,1,2,0:0:0:0:
407,32,7927,2,0,P|384:46|342:50,1,60.0000022888184,2|0,0:0|0:0,0:0:0:0:
245,120,8280,6,0,P|303:132|370:162,1,120.000004577637,2|2,0:0|0:0,0:0:0:0:
282,212,8809,1,0,0:0:0:0:
277,324,8986,2,0,P|333:278|385:269,1,120.000004577637,2|2,0:0|0:0,0:0:0:0:
252,231,9515,2,0,P|220:242|192:237,1,60.0000022888184,2|0,0:0|0:0,0:0:0:0:
132,172,9868,5,2,0:0:0:0:
193,2,10221,1,2,0:0:0:0:
15,34,10574,1,2,0:0:0:0:
83,92,10750,2,0,P|114:79|155:70,1,60.0000022888184,2|0,0:0|0:0,0:0:0:0:
193,166,11103,6,0,P|220:118|223:53,1,120.000004577637,2|2,0:0|0:0,0:0:0:0:
307,19,11633,2,0,P|333:33|364:38,1,60.0000022888184,2|2,0:0|0:0,0:0:0:0:
472,87,11986,2,0,P|442:91|416:106,1,60.0000022888184,2|0,0:0|0:0,0:0:0:0:
388,191,12339,1,2,0:0:0:0:
396,208,12603,1,8,0:0:0:0:
387,236,12692,6,0,L|342:245,1,40,2|0,1:2|0:0,0:0:0:0:
236,179,12868,2,0,L|282:192,1,40,0|0,1:2|0:0,0:0:0:0:
124,329,13045,2,0,B|148:296|148:296|111:216,1,120,10|0,0:0|0:0,0:0:0:0:
99,196,13397,1,2,0:0:0:0:
20,145,13574,1,2,1:2:0:0:
140,0,13750,1,8,0:0:0:0:
4,61,13927,6,0,P|84:67|177:102,1,160,2|2,0:0|1:2,0:0:0:0:
289,32,14456,1,10,0:0:0:0:
239,165,14633,2,0,B|126:188|126:188|98:236,1,160,2|2,0:0|1:2,0:0:0:0:
290,347,15162,2,0,P|252:340|209:314,1,80,10|0,0:0|0:0,0:0:0:0:
318,271,15427,1,8,0:0:0:0:
342,250,15515,6,0,L|352:205,1,40,2|0,1:2|0:0,0:0:0:0:
497,358,15692,2,0,L|449:338,1,40,0|0,1:2|0:0,0:0:0:0:
451,154,15868,2,0,B|434:225|434:225|464:260,1,120,10|0,0:0|0:0,0:0:0:0:
496,258,16221,1,2,0:0:0:0:
381,348,16397,1,2,1:2:0:0:
312,156,16574,1,8,0:0:0:0:
225,311,16750,6,0,B|276:297|276:297|315:258|315:258|370:242,1,160,2|2,0:0|1:2,0:0:0:0:
150,225,17280,1,10,0:0:0:0:
283,109,17456,2,0,B|299:138|299:138|284:194,1,80,2|2,0:0|0:0,0:0:0:0:
241,324,17809,1,2,1:2:0:0:
33,204,17986,1,10,0:0:0:0:
27,222,18250,1,8,0:0:0:0:
37,251,18339,6,0,B|56:263|56:263|94:269,1,40,2|0,1:2|0:0,0:0:0:0:
275,223,18515,2,0,B|256:235|256:235|218:241,1,40,0|0,1:2|0:0,0:0:0:0:
77,129,18692,2,0,B|147:163|147:163|190:148,1,120,10|0,0:0|0:0,0:0:0:0:
197,118,19045,1,2,0:0:0:0:
140,16,19221,1,2,1:2:0:0:
294,86,19397,1,8,0:0:0:0:
213,270,19574,6,0,P|268:217|355:224,1,160,2|2,0:0|1:2,0:0:0:0:
450,363,20103,2,0,B|475:308|475:308|464:269,1,80,10|2,0:0|0:0,0:0:0:0:
495,202,20456,1,0,0:0:0:0:
359,256,20633,1,2,1:2:0:0:
307,93,20809,1,10,0:0:0:0:
478,176,20986,1,0,1:2:0:0:
266,302,21162,6,0,P|208:289|161:248,1,120,6|0,1:2|0:0,0:0:0:0:
133,261,21504,2,0,B|102:225|102:225|123:156,1,120,14|0,0:0|0:0,0:0:0:0:
91,159,21847,1,14,0:0:0:0:
81,128,21933,1,8,0:0:0:0:
82,95,22019,2,0,P|94:71|111:52,1,40,8|0,0:0|0:0,0:0:0:0:
171,20,22190,2,0,P|196:11|221:10,1,40,8|0,0:0|0:0,0:0:0:0:
277,54,22362,1,8,0:0:0:0:
319,75,22447,1,8,0:0:0:0:
375,48,22533,5,8,0:0:0:0:
375,48,23415,1,0,1:2:0:0:
493,109,23591,2,0,B|463:100|463:100|423:119,1,71.9999978027344,8|0,0:0|1:2,0:0:0:0:
389,271,23944,6,0,P|351:264|309:228,1,80,6|2,1:2|1:2,0:0:0:0:
270,375,24297,2,0,P|248:343|243:288,1,80,10|2,0:0|0:0,0:0:0:0:
303,108,24650,1,2,1:2:0:0:
120,196,24827,1,2,1:2:0:0:
249,282,25003,1,8,0:0:0:0:
58,356,25180,6,0,B|162:317|162:317|131:277,1,160,2|2,1:2|1:2,0:0:0:0:
29,157,25709,1,8,0:0:0:0:
123,252,25885,2,0,P|198:276|266:222,1,160,2|2,0:0|1:2,0:0:0:0:
224,71,26415,2,0,B|205:116|205:116|218:152,1,80,10|2,0:0|1:2,0:0:0:0:
351,223,26768,5,6,1:2:0:0:
469,202,26944,1,2,1:2:0:0:
348,342,27121,1,10,0:0:0:0:
311,149,27297,1,2,0:0:0:0:
190,227,27474,2,0,P|156:206|128:172,1,80,2|2,0:0|1:2,0:0:0:0:
216,342,27827,1,8,0:0:0:0:
375,209,28003,6,0,P|395:144|344:72,1,160,2|2,1:2|1:2,0:0:0:0:
448,5,28532,1,8,0:0:0:0:
259,33,28709,2,0,P|301:46|341:49,1,80,2|0,1:2|0:0,0:0:0:0:
295,200,29062,1,2,1:2:0:0:
411,91,29238,1,8,0:0:0:0:
189,77,29415,1,8,0:0:0:0:
157,102,29503,1,8,0:0:0:0:
160,142,29591,6,0,B|174:163|174:163|240:150,1,80,6|2,1:2|1:2,0:0:0:0:
131,359,29944,2,0,B|111:323|111:323|127:282,1,80,10|2,0:0|0:0,0:0:0:0:
70,108,30297,1,2,1:2:0:0:
240,185,30474,2,0,P|237:227|221:262,1,80,2|8,1:2|0:0,0:0:0:0:
375,356,30827,6,0,P|391:282|319:246,1,160,2|2,1:2|1:2,0:0:0:0:
485,291,31356,1,8,0:0:0:0:
350,152,31532,2,0,B|414:139|414:139|432:124|432:124|506:137,1,160,2|2,0:0|1:2,0:0:0:0:
368,48,32062,2,0,L|325:29,2,40,10|0|2,0:0|0:0|1:2,0:0:0:0:
230,192,32415,6,0,P|257:161|266:122,1,80,6|2,1:2|1:2,0:0:0:0:
181,301,32768,1,10,0:0:0:0:
159,141,32944,1,2,0:0:0:0:
8,200,33121,2,0,P|47:208|79:233,1,80,2|2,0:0|1:2,0:0:0:0:
20,356,33474,1,8,0:0:0:0:
268,307,33650,6,0,B|160:280|160:280|197:230,1,160,2|8,1:2|0:0,0:0:0:0:
221,217,34091,1,8,0:0:0:0:
261,221,34180,1,8,0:0:0:0:
455,307,34356,1,10,0:0:0:0:
338,353,34532,2,0,P|357:321|359:271,1,80,10|10,0:3|0:3,0:0:0:0:
464,32,34885,2,0,P|468:52|475:74,1,40,10|0,0:0|0:0,0:0:0:0:
416,204,35062,2,0,B|438:209|438:209|472:223,1,40,10|0,0:0|0:0,0:0:0:0:
334,136,35238,6,0,P|279:158|189:167,1,143.999995605469,4|10,1:2|0:0,0:0:0:0:
52,25,35944,1,2,1:2:0:0:
23,103,36121,1,0,1:2:0:0:
185,200,36297,1,8,0:0:0:0:
156,82,36474,1,2,0:0:0:0:
0,228,36650,5,0,1:2:0:0:
101,251,36827,1,0,1:2:0:0:
206,359,37003,2,0,P|205:325|225:288,1,71.9999978027344,8|0,0:0|0:0,0:0:0:0:
356,205,37356,6,0,L|317:182,1,35.9999989013672,0|0,1:2|0:0,0:0:0:0:
389,318,37532,2,0,L|363:280,1,35.9999989013672,0|0,1:2|0:0,0:0:0:0:
484,160,37709,1,8,0:0:0:0:
484,160,38062,5,4,1:2:0:0:
454,30,38238,1,0,1:2:0:0:
275,78,38415,2,0,B|309:73|309:73|393:102,1,107.999996704102,8|0,0:0|0:0,0:0:0:0:
388,128,38768,1,2,1:2:0:0:
229,177,38944,1,0,1:2:0:0:
278,317,39121,2,0,L|293:239,1,71.9999978027344,10|0,0:0|0:0,0:0:0:0:
217,96,39474,5,2,1:2:0:0:
370,207,39650,1,0,1:2:0:0:
176,278,39827,2,0,B|155:258|155:258|216:206,1,107.999996704102,8|2,0:0|0:0,0:0:0:0:
199,182,40180,2,0,L|151:170,1,35.9999989013672,0|0,1:2|0:0,0:0:0:0:
114,72,40356,2,0,L|73:101,1,35.9999989013672,0|0,1:2|0:0,0:0:0:0:
1,213,40532,1,8,0:0:0:0:
85,344,40709,1,0,1:2:0:0:
95,329,40797,1,0,1:2:0:0:
102,293,40885,6,0,P|99:270|86:248,1,35.9999989013672,4|0,1:2|0:0,0:0:0:0:
186,345,41062,2,0,P|178:361|167:375,1,35.9999989013672,0|0,1:2|0:0,0:0:0:0:
302,321,41238,2,0,B|339:335|339:335|382:331,1,71.9999978027344,10|0,0:0|0:0,0:0:0:0:
474,178,41591,1,2,1:2:0:0:
363,240,41768,1,0,1:2:0:0:
204,132,41944,2,0,B|253:118|253:118|284:137,1,71.9999978027344,10|0,0:0|0:0,0:0:0:0:
299,2,42297,5,2,1:2:0:0:
234,209,42474,1,0,1:2:0:0:
134,54,42650,2,0,P|118:84|122:135,1,71.9999978027344,10|2,0:0|0:0,0:0:0:0:
282,297,43003,6,0,L|239:307,1,35.9999989013672,0|0,1:2|0:0,0:0:0:0:
159,253,43180,2,0,L|116:243,1,35.9999989013672,0|0,1:2|0:0,0:0:0:0:
188,369,43356,1,8,0:0:0:0:
44,288,43532,1,2,0:0:0:0:
167,102,43709,6,0,P|176:122|178:151,1,35.9999989013672,4|0,1:2|0:0,0:0:0:0:
253,179,43885,2,0,P|241:197|219:216,1,35.9999989013672,0|0,1:2|0:0,0:0:0:0:
280,344,44062,1,8,0:0:0:0:
292,357,44415,1,0,1:2:0:0:
422,308,44591,1,0,1:2:0:0:
228,235,44768,1,8,0:0:0:0:
382,88,44944,5,0,0:0:0:0:
311,268,45121,1,0,1:2:0:0:
345,254,45297,1,0,1:2:0:0:
205,119,45474,2,0,B|305:140|305:140|342:182,1,143.999995605469,8|0,0:0|1:2,0:0:0:0:
181,38,46003,5,8,0:0:0:0:
394,9,46180,1,0,1:2:0:0:
478,99,46356,2,0,L|470:53,1,35.9999989013672,8|0,0:3|0:0,0:0:0:0:
391,232,46532,5,4,1:2:0:0:
508,176,46709,1,0,1:2:0:0:
481,361,46885,2,0,B|454:329|454:329|385:308,1,107.999996704102,10|0,0:0|0:0,0:0:0:0:
395,338,47238,5,2,1:2:0:0:
471,246,47415,1,0,1:2:0:0:
342,186,47591,1,10,0:0:0:0:
249,352,47768,5,2,0:0:0:0:
167,219,47944,2,0,L|212:225,1,35.9999989013672,0|0,1:2|0:0,0:0:0:0:
92,235,48121,2,0,L|137:241,1,35.9999989013672,0|0,1:2|0:0,0:0:0:0:
18,355,48297,2,0,P|52:344|81:322,1,71.9999978027344,8|0,0:0|0:0,0:0:0:0:
218,363,48650,1,0,1:2:0:0:
92,137,48827,1,0,1:2:0:0:
275,199,49003,1,8,0:0:0:0:
264,224,49268,1,0,1:2:0:0:
264,224,49356,5,4,1:2:0:0:
222,356,49532,1,0,1:2:0:0:
178,174,49709,2,0,B|181:129|181:129|196:77|196:77|202:18,1,143.999995605469,8|2,0:0|1:2,0:0:0:0:
99,95,50238,1,0,1:2:0:0:
341,174,50415,1,10,0:0:0:0:
294,18,50591,1,0,0:0:0:0:
401,102,50768,6,0,L|439:83,1,35.9999989013672,2|0,1:2|0:0,0:0:0:0:
453,198,50944,2,0,L|415:217,1,35.9999989013672,0|0,1:2|0:0,0:0:0:0:
311,261,51121,2,0,P|345:266|388:291,1,71.9999978027344,8|2,0:0|0:0,0:0:0:0:
245,358,51474,1,0,1:2:0:0:
202,189,51650,1,0,1:2:0:0:
36,249,51827,1,8,0:0:0:0:
179,215,52003,1,0,0:0:0:0:
64,340,52180,6,0,P|85:338|115:344,1,35.9999989013672,4|0,1:2|0:0,0:0:0:0:
171,311,52356,2,0,P|150:313|120:307,1,35.9999989013672,0|0,1:2|0:0,0:0:0:0:
77,161,52532,1,10,0:0:0:0:
77,161,52885,1,2,1:2:0:0:
110,10,53062,1,0,1:2:0:0:
3,113,53238,1,8,0:0:0:0:
214,44,53415,1,0,0:0:0:0:
75,194,53591,6,0,L|114:184,1,35.9999989013672,2|0,1:2|0:0,0:0:0:0:
190,215,53768,2,0,L|229:205,1,35.9999989013672,0|0,1:2|0:0,0:0:0:0:
171,117,53944,2,0,P|136:113|101:97,1,71.9999978027344,10|2,0:0|0:0,0:0:0:0:
13,244,54297,1,0,1:2:0:0:
145,288,54474,1,2,1:2:0:0:
283,139,54650,2,0,B|346:130|346:130|356:181,1,107.999996704102,8|0,0:0|0:0,0:0:0:0:
359,205,55003,5,4,1:2:0:0:
272,57,55180,1,0,1:2:0:0:
469,130,55356,2,0,P|427:103|446:49,1,107.999996704102,8|0,0:0|0:0,0:0:0:0:
469,39,55709,1,0,1:2:0:0:
347,114,55885,1,0,1:2:0:0:
507,206,56062,1,8,0:0:0:0:
361,362,56238,6,0,P|366:324|380:287,1,71.9999978027344,0|0,0:0|1:2,0:0:0:0:
262,157,56591,1,8,0:0:0:0:
187,349,56768,2,0,P|217:328|252:318,1,71.9999978027344,0|0,1:2|1:2,0:0:0:0:
262,157,57121,1,8,0:0:0:0:
81,292,57297,2,0,L|124:306,1,35.9999989013672,8|0,0:3|0:0,0:0:0:0:
56,313,57474,2,0,L|99:327,1,35.9999989013672,8|0,0:3|0:0,0:0:0:0:
152,227,57650,1,0,1:2:0:0:
113,86,57827,5,4,1:2:0:0:
114,163,60650,6,0,P|133:175|159:186,1,48,0|0,3:0|0:0,0:0:0:0:
93,237,61003,6,0,P|122:227|155:214,1,60,0|0,3:0|0:0,0:0:0:0:
129,312,61356,6,0,P|151:285|170:247,1,71.9999978027344,0|0,3:0|0:0,0:0:0:0:
200,349,61709,6,0,P|212:308|213:260,1,83.9999974365235,0|0,3:0|0:0,0:0:0:0:
336,314,62062,6,0,P|318:270|270:231,1,96,4|0,0:2|0:0,0:0:0:0:
416,165,62415,6,0,P|372:143|303:164,1,107.999996704102,4|0,0:2|0:0,0:0:0:0:
312,135,62768,5,4,0:2:0:0:
348,32,62944,1,0,1:2:0:0:
215,201,63121,1,8,0:0:0:0:
163,99,63297,1,0,1:2:0:0:
63,306,63474,6,0,B|123:294|123:294|142:274,1,88.000002685547,6|2,1:2|1:2,0:0:0:0:
240,187,63827,2,0,P|267:215|280:266,1,88.000002685547,10|2,0:0|0:0,0:0:0:0:
316,379,64180,2,0,P|343:351|356:300,1,88.000002685547,2|2,1:2|1:2,0:0:0:0:
338,159,64532,1,10,0:0:0:0:
475,293,64709,1,2,0:0:0:0:
508,120,64885,6,0,B|461:149|461:149|418:136,1,88.000002685547,2|0,1:2|1:2,0:0:0:0:
282,72,65238,1,8,0:0:0:0:
482,32,65415,2,0,P|441:14|385:9,1,88.000002685547,2|0,0:0|1:2,0:0:0:0:
341,215,65768,1,2,1:2:0:0:
155,51,65944,2,0,B|228:82|228:82|250:31,1,132.00000402832,8|0,0:0|0:0,0:0:0:0:
258,13,66297,5,6,1:2:0:0:
202,174,66474,1,2,1:2:0:0:
76,27,66650,1,10,0:0:0:0:
180,168,66827,1,2,0:0:0:0:
1,131,67003,2,0,P|45:117|92:114,1,88.000002685547,2|2,1:2|1:2,0:0:0:0:
217,258,67356,1,10,0:0:0:0:
0,222,67532,6,0,B|111:264|111:264|58:306,1,176.000005371094,2|2,0:0|1:2,0:0:0:0:
252,353,68062,1,8,0:0:0:0:
193,231,68238,2,0,B|174:195|174:195|190:146,1,88.000002685547,2|0,0:0|1:2,0:0:0:0:
316,92,68591,1,2,1:2:0:0:
156,25,68768,1,8,0:0:0:0:
295,211,68944,1,8,0:0:0:0:
337,197,69032,1,8,0:0:0:0:
380,189,69121,6,0,P|424:198|477:217,1,88.000002685547,6|2,1:2|1:2,0:0:0:0:
265,338,69474,2,0,B|304:304|304:304|353:314,1,88.000002685547,10|2,0:0|0:0,0:0:0:0:
161,368,69827,1,2,1:2:0:0:
205,214,70003,1,2,1:2:0:0:
20,279,70180,1,10,0:0:0:0:
217,128,70356,6,0,P|171:134|129:175,1,88.000002685547,2|2,0:0|1:2,0:0:0:0:
49,30,70709,1,0,1:2:0:0:
121,251,70885,1,8,0:0:0:0:
5,150,71062,2,0,P|100:143|122:67,1,176.000005371094,2|2,0:0|1:2,0:0:0:0:
271,22,71591,2,0,B|327:15|327:15|360:46,1,88.000002685547,8|2,0:0|0:0,0:0:0:0:
230,218,71944,6,0,P|220:175|213:120,1,88.000002685547,6|2,1:2|1:2,0:0:0:0:
449,143,72297,2,0,B|408:135|408:135|355:167,1,88.000002685547,10|2,0:0|0:0,0:0:0:0:
334,282,72650,1,2,1:2:0:0:
191,145,72827,1,2,1:2:0:0:
281,357,73003,1,8,0:0:0:0:
114,318,73180,6,0,P|149:286|197:277,1,88.000002685547,2|0,0:0|1:2,0:0:0:0:
37,260,73532,1,2,1:2:0:0:
216,169,73709,2,0,B|233:136|233:136|227:83,1,88.000002685547,8|2,0:0|0:0,0:0:0:0:
106,20,74062,5,0,1:2:0:0:
312,92,74238,1,2,1:2:0:0:
84,168,74415,1,8,0:0:0:0:
205,67,74591,1,8,0:0:0:0:
131,237,74768,6,0,P|115:277|105:324,1,88.000002685547,6|2,1:2|1:2,0:0:0:0:
233,142,75121,2,0,B|228:184|228:184|251:232,1,88.000002685547,10|2,0:0|0:0,0:0:0:0:
368,347,75474,2,0,P|400:316|456:316,1,88.000002685547,2|2,1:2|1:2,0:0:0:0:
329,174,75827,1,10,0:0:0:0:
492,241,76003,1,2,0:0:0:0:
283,332,76180,6,0,P|202:316|115:274,1,176.000005371094,2|8,1:2|0:0,0:0:0:0:
225,236,76709,2,0,P|223:193|208:149,1,88.000002685547,2|0,0:0|1:2,0:0:0:0:
51,204,77062,1,2,1:2:0:0:
3,64,77238,2,0,B|39:106|39:106|120:72,1,132.00000402832,8|0,0:0|0:0,0:0:0:0:
99,56,77591,6,0,L|190:69,1,88.000002685547,6|2,1:2|1:2,0:0:0:0:
309,200,77944,2,0,B|348:190|348:190|355:184|355:184|396:173,1,88.000002685547,10|2,0:0|0:0,0:0:0:0:
198,90,78297,1,2,1:2:0:0:
383,154,78474,1,2,1:2:0:0:
260,13,78650,1,10,0:0:0:0:
149,171,78827,6,0,B|129:254|129:254|134:266|134:266|117:345,1,176.000005371094,2|2,0:0|1:2,0:0:0:0:
57,194,79356,1,8,0:0:0:0:
288,267,79532,2,0,B|247:210|247:210|254:176|254:176|213:110,1,176.000005371094,2|2,0:0|1:2,0:0:0:0:
361,208,80062,2,0,P|402:224|446:231,1,88.000002685547,8|8,0:0|0:0,0:0:0:0:
487,216,80327,1,8,0:0:0:0:
487,216,80415,6,0,P|507:257|501:312,1,88.000002685547,6|2,1:2|1:2,0:0:0:0:
402,120,80768,2,0,B|440:96|440:96|496:107,1,88.000002685547,10|2,0:0|0:0,0:0:0:0:
350,220,81121,1,2,1:2:0:0:
292,25,81297,1,2,1:2:0:0:
500,121,81474,1,10,0:0:0:0:
265,174,81650,6,0,P|218:160|174:143,1,88.000002685547,2|2,0:0|1:2,0:0:0:0:
67,84,82003,1,0,1:2:0:0:
236,28,82180,1,8,0:0:0:0:
122,206,82356,2,0,P|123:250|149:292,1,88.000002685547,2|0,0:0|1:2,0:0:0:0:
38,334,82709,1,2,1:2:0:0:
251,374,82885,2,0,B|267:347|267:347|257:291,1,88.000002685547,8|2,0:0|0:0,0:0:0:0:
278,252,83150,1,0,0:0:0:0:
278,252,83238,6,0,P|322:249|359:277,1,88.000002685547,6|2,1:2|1:2,0:0:0:0:
512,120,83591,2,0,B|467:149|467:149|424:136,1,88.000002685547,10|2,0:0|0:0,0:0:0:0:
371,35,83944,1,2,1:2:0:0:
312,169,84121,1,2,1:2:0:0:
429,365,84297,2,0,P|446:328|451:279,1,88.000002685547,8|2,0:0|0:0,0:0:0:0:
239,348,84650,5,0,1:2:0:0:
382,143,84827,1,10,0:0:0:0:
344,316,85003,2,0,P|308:292|292:243,1,88.000002685547,2|2,1:2|1:2,0:0:0:0:
98,318,85356,1,8,0:0:0:0:
197,176,85532,1,2,1:2:0:0:
67,115,85709,1,8,0:0:0:0:
94,149,85797,1,2,0:0:0:0:
81,191,85885,1,2,0:0:0:0:
245,30,86062,6,0,P|190:63|207:143,1,143.999995605469,4|10,1:2|0:0,0:0:0:0:
202,138,86768,1,2,1:2:0:0:
297,181,86944,1,0,1:2:0:0:
418,99,87121,1,10,0:0:0:0:
391,251,87297,6,0,P|416:195|497:185,1,143.999995605469,2|0,0:0|1:2,0:0:0:0:
508,307,87827,2,0,B|470:306|470:306|438:326,1,71.9999978027344,8|0,0:0|0:0,0:0:0:0:
345,373,88180,1,0,1:2:0:0:
269,269,88356,1,0,1:2:0:0:
125,333,88532,2,0,B|168:308|168:308|223:337,1,107.999996704102,8|0,0:0|0:0,0:0:0:0:
215,352,88885,6,0,L|256:346,1,35.9999989013672,4|0,1:2|0:0,0:0:0:0:
251,259,89062,2,0,L|292:253,1,35.9999989013672,0|0,1:2|0:0,0:0:0:0:
443,336,89238,2,0,B|384:316|384:316|400:264,1,107.999996704102,10|0,0:0|0:0,0:0:0:0:
408,245,89591,1,2,1:2:0:0:
509,273,89768,1,0,1:2:0:0:
353,344,89944,2,0,B|312:360|312:360|279:354,1,71.9999978027344,10|0,0:0|0:0,0:0:0:0:
199,193,90297,6,0,P|187:228|183:267,1,71.9999978027344,2|2,1:2|1:2,0:0:0:0:
37,353,90650,1,8,0:0:0:0:
15,231,90827,2,0,P|42:301|110:293,1,143.999995605469,2|0,0:0|1:2,0:0:0:0:
233,200,91356,1,8,0:0:0:0:
61,109,91532,1,0,1:2:0:0:
77,117,91621,1,0,1:2:0:0:
112,112,91709,6,0,L|151:97,1,35.9999989013672,4|0,1:2|0:0,0:0:0:0:
300,78,91885,2,0,L|266:65,1,35.9999989013672,0|0,1:2|0:0,0:0:0:0:
98,35,92062,2,0,B|164:57|164:57|210:14,1,107.999996704102,10|0,0:0|0:0,0:0:0:0:
210,8,92415,1,2,1:2:0:0:
235,155,92591,1,0,1:2:0:0:
44,219,92768,2,0,P|73:202|119:210,1,71.9999978027344,10|0,0:0|0:0,0:0:0:0:
308,348,93121,5,2,1:2:0:0:
163,300,93298,1,0,1:2:0:0:
315,178,93474,2,0,B|338:194|338:194|347:251,1,71.9999978027344,8|2,0:0|0:0,0:0:0:0:
154,281,93827,2,0,L|196:295,1,35.9999989013672,0|0,1:2|0:0,0:0:0:0:
243,355,94003,2,0,L|277:343,1,35.9999989013672,0|0,1:2|0:0,0:0:0:0:
396,321,94180,2,0,P|384:281|427:222,1,107.999996704102,8|0,0:0|0:0,0:0:0:0:
444,220,94532,5,4,1:2:0:0:
422,20,94709,1,0,1:2:0:0:
504,153,94885,2,0,B|458:137|458:137|451:129|451:129|398:114,1,107.999996704102,8|0,0:0|0:0,0:0:0:0:
385,137,95238,2,0,L|344:146,1,35.9999989013672,0|0,1:2|0:0,0:0:0:0:
296,63,95415,2,0,L|255:54,1,35.9999989013672,0|0,1:2|0:0,0:0:0:0:
115,79,95591,1,8,0:0:0:0:
240,206,95768,6,0,P|261:178|262:140,1,71.9999978027344,0|0,0:0|1:2,0:0:0:0:
328,342,96121,1,8,0:0:0:0:
373,233,96297,2,0,P|367:198|344:168,1,71.9999978027344,0|0,1:2|1:2,0:0:0:0:
150,336,96650,2,0,B|192:341|192:341|259:306,1,107.999996704102,8|0,0:0|1:2,0:0:0:0:
174,310,97003,2,0,B|131:304|131:304|64:339,1,107.999996704102,8|0,0:0|0:0,0:0:0:0:
55,356,97356,5,4,1:2:0:0:
12,237,97532,1,0,1:2:0:0:
169,158,97709,2,0,B|176:204|176:204|162:234,1,71.9999978027344,10|0,0:0|1:2,0:0:0:0:
37,22,98062,2,0,L|77:34,1,35.9999989013672,10|0,0:3|0:0,0:0:0:0:
162,18,98238,2,0,L|202:30,1,35.9999989013672,0|0,1:2|0:0,0:0:0:0:
110,102,98415,1,10,0:0:0:0:
267,169,98591,6,0,P|327:115|402:115,1,143.999995605469,2|0,0:0|1:2,0:0:0:0:
334,322,99121,2,0,P|319:291|318:248,1,71.9999978027344,8|0,0:0|1:2,0:0:0:0:
434,363,99474,1,8,0:3:0:0:
493,174,99650,1,0,1:2:0:0:
329,231,99827,2,0,L|369:239,1,35.9999989013672,8|0,0:0|0:0,0:0:0:0:
214,304,100003,2,0,L|254:296,1,35.9999989013672,8|0,0:0|0:0,0:0:0:0:
80,370,100180,5,4,1:2:0:0:
154,249,100356,1,0,1:2:0:0:
319,366,100532,2,0,B|332:337|332:337|321:278,1,71.9999978027344,8|0,0:0|1:2,0:0:0:0:
231,167,100885,2,0,L|191:158,1,35.9999989013672,10|0,0:3|0:0,0:0:0:0:
256,142,101062,2,0,L|291:134,1,35.9999989013672,0|0,1:2|0:0,0:0:0:0:
216,45,101238,1,10,0:0:0:0:
96,150,101415,1,0,0:0:0:0:
149,312,101591,6,0,B|96:302|96:302|83:274,1,71.9999978027344,2|2,1:2|1:2,0:0:0:0:
230,191,101944,1,8,0:0:0:0:
405,274,102121,1,2,1:2:0:0:
275,345,102297,2,0,P|299:314|309:276,1,71.9999978027344,8|0,0:3|1:2,0:0:0:0:
253,90,102650,2,0,B|240:70|240:70|218:57,1,35.9999989013672,8|0,0:0|0:0,0:0:0:0:
400,33,102827,2,0,B|399:45|399:45|387:66,1,35.9999989013672,8|0,0:0|0:0,0:0:0:0:
255,219,103003,5,4,1:2:0:0:
330,125,103180,1,0,1:2:0:0:
418,245,103356,2,0,B|471:230|471:230|488:207,1,71.9999978027344,10|0,0:0|1:2,0:0:0:0:
462,352,103709,1,10,0:3:0:0:
347,304,103885,1,2,1:2:0:0:
178,354,104062,1,8,0:0:0:0:
291,232,104238,6,0,P|310:171|305:80,1,143.999995605469,2|2,0:0|1:2,0:0:0:0:
446,155,104768,1,8,0:0:0:0:
376,18,104944,1,2,1:2:0:0:
198,42,105121,2,0,L|245:49,1,35.9999989013672,8|0,0:3|0:0,0:0:0:0:
125,60,105297,2,0,L|172:67,1,35.9999989013672,2|0,1:2|0:0,0:0:0:0:
51,157,105474,2,0,B|88:131|88:131|127:148,1,71.9999978027344,8|2,0:0|1:2,0:0:0:0:
84,368,105827,6,0,P|113:327|102:268,1,107.999996704102,4|0,1:2|0:0,0:0:0:0:
80,256,106180,1,8,0:0:0:0:
217,328,106356,1,2,1:2:0:0:
126,181,106532,2,0,P|113:147|111:103,1,71.9999978027344,4|0,1:2|0:0,0:0:0:0:
269,15,106885,1,8,0:0:0:0:
199,127,107062,1,0,1:2:0:0:
61,39,107238,6,0,P|95:23|134:21,1,71.9999978027344,4|0,1:2|1:2,0:0:0:0:
19,203,107591,1,8,0:0:0:0:
93,115,107768,1,0,1:2:0:0:
49,293,107944,1,0,1:2:0:0:
227,178,108121,2,0,P|246:181|275:198,1,35.9999989013672,8|8,0:0|0:0,0:0:0:0:
314,246,108297,1,8,0:0:0:0:
339,270,108385,1,8,0:0:0:0:
361,282,108474,1,8,0:0:0:0:
374,287,108562,1,8,0:0:0:0:
387,288,108650,6,0,P|410:262|423:207,1,88.000002685547,6|2,1:2|1:2,0:0:0:0:
229,366,109003,2,0,B|268:338|268:338|323:345,1,88.000002685547,10|2,0:0|0:0,0:0:0:0:
157,210,109356,1,2,1:2:0:0:
248,131,109532,1,2,1:2:0:0:
318,265,109709,1,10,0:0:0:0:
244,110,109885,1,2,0:0:0:0:
147,293,110062,6,0,B|90:281|90:281|71:248,1,88.000002685547,2|0,1:2|1:2,0:0:0:0:
121,113,110415,1,8,0:0:0:0:
0,217,110591,2,0,B|112:199|112:199|144:143,1,176.000005371094,2|2,0:0|1:2,0:0:0:0:
26,15,111121,2,0,P|22:63|44:100,1,88.000002685547,8|0,0:0|0:0,0:0:0:0:
185,224,111474,5,6,1:2:0:0:
298,172,111650,1,2,1:2:0:0:
120,52,111827,2,0,B|174:44|174:44|213:74,1,88.000002685547,10|2,0:0|0:0,0:0:0:0:
321,35,112180,2,0,P|348:70|358:120,1,88.000002685547,2|2,1:2|1:2,0:0:0:0:
490,15,112532,1,10,0:0:0:0:
438,146,112709,6,0,P|415:229|408:323,1,176.000005371094,2|2,0:0|1:2,0:0:0:0:
310,182,113238,1,8,0:0:0:0:
191,327,113415,2,0,B|320:291|320:291|275:259,1,176.000005371094,2|2,0:0|1:2,0:0:0:0:
134,230,113944,1,8,0:0:0:0:
11,371,114121,1,8,0:0:0:0:
37,336,114209,1,8,0:0:0:0:
57,297,114297,6,0,B|42:240|42:240|0:219,1,88.000002685547,6|2,1:2|1:2,0:0:0:0:
132,24,114650,2,0,B|160:47|160:47|147:115,1,88.000002685547,10|2,0:0|0:0,0:0:0:0:
17,128,115003,1,2,1:2:0:0:
161,186,115180,1,2,1:2:0:0:
338,63,115356,1,10,0:0:0:0:
233,141,115532,6,0,P|280:146|318:179,1,88.000002685547,2|2,0:0|1:2,0:0:0:0:
482,246,115885,1,0,1:2:0:0:
280,285,116062,1,8,0:0:0:0:
422,352,116238,2,0,P|450:268|431:184,1,176.000005371094,2|2,0:0|1:2,0:0:0:0:
483,16,116768,2,0,B|439:53|439:53|401:37,1,88.000002685547,8|2,0:0|0:0,0:0:0:0:
284,2,117121,6,0,P|242:5|200:30,1,88.000002685547,6|2,1:2|1:2,0:0:0:0:
337,155,117474,2,0,B|352:180|352:180|326:250,1,88.000002685547,10|2,0:0|0:0,0:0:0:0:
262,344,117827,1,2,1:2:0:0:
203,194,118003,1,2,1:2:0:0:
327,14,118180,2,0,B|337:55|337:55|388:82,1,88.000002685547,8|2,0:0|0:0,0:0:0:0:
201,52,118532,5,0,1:2:0:0:
77,132,118709,1,10,0:0:0:0:
146,335,118885,1,8,0:0:0:0:
15,194,119062,2,0,P|60:189|92:160,1,88.000002685547,2|2,1:2|1:2,0:0:0:0:
212,259,119415,1,8,0:0:0:0:
17,366,119591,2,0,B|39:328|39:328|30:272,1,88.000002685547,8|8,0:0|0:0,0:0:0:0:
237,343,119944,6,0,P|287:332|321:312,1,88.000002685547,6|2,1:2|1:2,0:0:0:0:
175,148,120297,2,0,B|224:142|224:142|264:172,1,88.000002685547,10|2,0:0|0:0,0:0:0:0:
408,312,120650,2,0,P|405:266|389:217,1,88.000002685547,2|2,1:2|1:2,0:0:0:0:
325,76,121003,1,10,0:0:0:0:
491,189,121180,1,2,0:0:0:0:
305,259,121356,6,0,P|235:197|139:185,1,176.000005371094,2|8,1:2|0:0,0:0:0:0:
64,344,121885,1,2,0:0:0:0:
156,154,122062,2,0,P|201:158|253:177,1,88.000002685547,0|2,1:2|1:2,0:0:0:0:
138,274,122415,1,8,0:0:0:0:
97,94,122591,1,0,0:0:0:0:
261,194,122768,6,0,P|309:151|295:85,1,132.00000402832,6|0,1:2|0:0,0:0:0:0:
279,77,123121,2,0,B|255:43|255:43|287:0,1,88.000002685547,10|2,0:0|0:0,0:0:0:0:
396,140,123474,1,2,1:2:0:0:
492,26,123650,1,2,1:2:0:0:
449,226,123827,1,10,0:0:0:0:
310,153,124003,6,0,B|256:144|256:144|321:263,1,176.000005371094,2|2,0:0|1:2,0:0:0:0:
283,63,124532,1,8,0:0:0:0:
237,201,124709,2,0,P|208:171|156:161,1,88.000002685547,2|0,0:0|1:2,0:0:0:0:
54,218,125062,1,2,1:2:0:0:
144,41,125238,1,8,0:0:0:0:
218,235,125415,1,8,0:0:0:0:
201,275,125503,1,8,0:0:0:0:
172,308,125591,6,0,B|127:278|127:278|85:295,1,88.000002685547,6|2,1:2|1:2,0:0:0:0:
309,367,125944,2,0,B|368:357|368:357|385:322,1,88.000002685547,10|2,0:0|0:0,0:0:0:0:
415,147,126297,1,2,1:2:0:0:
207,193,126474,1,2,1:2:0:0:
439,267,126650,1,10,0:0:0:0:
260,306,126827,6,0,P|243:199|290:169,1,176.000005371094,2|2,0:0|1:2,0:0:0:0:
399,17,127356,1,8,0:0:0:0:
247,59,127532,2,0,P|203:48|164:23,1,88.000002685547,2|0,0:0|1:2,0:0:0:0:
120,186,127885,1,2,1:2:0:0:
37,17,128062,1,8,0:0:0:0:
190,125,128238,1,2,0:0:0:0:
15,229,128415,6,0,B|41:205|41:205|32:147,1,88.000002685547,6|2,1:2|1:2,0:0:0:0:
161,41,128768,1,10,0:0:0:0:
137,245,128944,1,2,0:0:0:0:
25,131,129121,2,0,P|79:136|112:153,2,88.000002685547,10|2|2,0:0|1:2|0:0,0:0:0:0:
88,318,129650,1,2,1:2:0:0:
250,260,129827,6,0,B|262:227|262:227|252:171,1,88.000002685547,8|0,0:0|1:2,0:0:0:0:
330,322,130180,2,0,P|284:353|222:363,1,88.000002685547,0|0,1:2|1:2,0:0:0:0:
475,236,130532,2,0,B|456:206|456:206|398:180,1,88.000002685547,8|0,0:0|1:2,0:0:0:0:
314,43,130885,2,0,P|359:96|418:76,1,132.00000402832,0|0,0:0|0:0,0:0:0:0:
423,68,131238,6,0,P|333:201|367:274,1,251.999992309571,4|0,1:2|0:0,0:0:0:0:
354,288,131944,6,0,B|315:258|276:274|286:285|243:298|202:272,1,160,4|0,1:2|0:0,0:0:0:0:
202,272,132650,6,0,P|225:247|234:199,1,80,2|2,0:0|0:0,0:0:0:0:
43,74,133356,2,0,P|82:81|120:109,1,80,2|2,0:0|0:0,0:0:0:0:
16,263,134062,6,0,B|80:311|156:242|136:232|214:166|277:210,1,280,4|0,1:2|0:0,0:0:0:0:
277,225,134768,6,0,P|262:308|325:285,1,176.000005371094,4|0,1:2|0:0,0:0:0:0:
333,313,136532,1,8,0:0:0:0:
379,142,136709,1,0,1:2:0:0:
236,294,136885,6,0,P|299:287|307:223,1,128,6|2,1:2|0:0,0:0:0:0:
202,147,137415,1,2,1:2:0:0:
34,229,137591,2,0,B|82:238|82:238|116:226|116:226|157:238,1,128,10|0,0:0|0:0,0:0:0:0:
84,335,138121,1,2,1:2:0:0:
15,150,138297,6,0,P|48:146|82:130,1,64,4|2,1:2|0:0,0:0:0:0:
128,12,138650,2,0,P|145:42|156:85,1,64,2|2,1:2|1:2,0:0:0:0:
273,174,139003,2,0,P|260:116|309:56,1,128,10|10,0:0|0:0,0:0:0:0:
409,119,139532,1,2,1:2:0:0:
503,190,139709,6,0,P|425:147|386:167,1,128,6|2,1:2|0:0,0:0:0:0:
398,363,140238,1,0,1:2:0:0:
469,264,140415,1,10,0:0:0:0:
448,242,141121,6,0,L|439:206,3,21.3333333333333,0|0|0|0,1:2|1:2|1:2|1:2,0:0:0:0:
305,127,141474,2,0,L|259:112,2,42.6666666666667,8|0|0,0:0|1:0|1:2,0:0:0:0:
251,194,141827,2,0,L|205:209,2,42.6666666666667,0|0|0,1:2|1:2|1:2,0:0:0:0:
224,288,142180,2,0,B|193:317|193:317|187:345,1,64,8|0,0:0|0:0,0:0:0:0:
31,355,142532,6,0,P|64:313|42:233,1,128,6|2,1:2|0:0,0:0:0:0:
164,87,143238,2,0,P|167:54|180:24,2,64,10|2|2,0:0|0:0|0:0,0:0:0:0:
239,148,143768,1,2,1:2:0:0:
384,203,143944,6,0,P|384:148|334:94,1,128,10|2,0:0|1:2,0:0:0:0:
435,19,144474,5,10,0:0:0:0:
512,58,144650,2,0,P|501:94|467:128,1,71.9999978027344,2|0,0:0|1:2,0:0:0:0:
469,135,145003,6,0,L|509:151,1,35.9999989013672,8|8,0:3|0:3,0:0:0:0:
510,227,145180,1,8,0:0:0:0:
497,260,145268,1,8,0:0:0:0:
475,288,145356,6,0,P|422:237|350:254,1,143.999995605469,6|2,1:2|1:2,0:0:0:0:
298,355,145885,1,2,1:2:0:0:
140,250,146062,1,10,0:0:0:0:
198,362,146238,2,0,P|219:289|227:210,1,143.999995605469,2|2,0:0|1:2,0:0:0:0:
170,84,146768,5,10,0:0:0:0:
148,34,147032,1,10,0:0:0:0:
191,2,147297,1,10,0:0:0:0:
156,187,147474,5,10,0:0:0:0:
143,200,147562,2,0,P|126:165|98:139,1,71.9999978027344,0|0,0:0|0:0,0:0:0:0:
36,300,147827,6,0,P|78:293|86:261,1,71.9999978027344,2|0,1:2|0:0,0:0:0:0:
96,283,148180,6,0,P|129:297|166:301,1,71.9999978027344,6|2,1:2|0:0,0:0:0:0:
265,255,148532,1,2,0:0:0:0:
322,370,148709,1,2,1:2:0:0:
160,207,148885,2,0,B|203:202|203:202|229:179,1,71.9999978027344,10|2,0:0|1:2,0:0:0:0:
366,297,149238,2,0,P|353:260|357:223,1,71.9999978027344,0|2,0:0|1:2,0:0:0:0:
392,41,149591,6,0,P|400:114|468:137,1,143.999995605469,6|2,1:2|0:0,0:0:0:0:
292,75,150121,1,2,1:2:0:0:
257,63,150209,1,2,1:2:0:0:
221,63,150297,2,0,B|163:80|163:80|145:94|145:94|85:114,1,143.999995605469,10|2,0:0|0:0,0:0:0:0:
246,154,150827,1,2,1:2:0:0:
48,263,151003,6,0,P|99:250|114:196,1,107.999996704102,6|0,1:2|0:0,0:0:0:0:
127,215,151356,2,0,P|143:263|194:275,1,107.999996704102,2|0,1:2|0:0,0:0:0:0:
210,266,151709,1,10,0:0:0:0:
101,332,151885,1,2,1:2:0:0:
281,371,152062,1,10,0:0:0:0:
121,309,152238,1,2,1:2:0:0:
320,285,152415,5,8,0:3:0:0:
335,265,152503,1,8,0:3:0:0:
354,218,152591,1,8,0:0:0:0:
331,172,152680,1,8,0:0:0:0:
281,160,152768,1,0,1:2:0:0:
246,168,152944,5,8,0:3:0:0:
260,147,153032,1,8,0:3:0:0:
279,99,153121,1,8,0:0:0:0:
234,76,153209,1,8,0:0:0:0:
223,26,153297,1,0,1:2:0:0:
257,14,153474,5,8,0:3:0:0:
281,17,153562,1,8,0:3:0:0:
341,7,153650,1,8,0:0:0:0:
393,38,153738,1,8,0:0:0:0:
455,38,153827,6,0,B|480:74|480:74|443:167,1,132.00000402832,6|0,1:2|0:0,0:0:0:0:
439,176,154180,1,10,0:0:0:0:
471,366,154356,1,0,0:0:0:0:
301,279,154532,2,0,P|348:277|393:300,1,88.000002685547,2|2,1:2|1:2,0:0:0:0:
213,160,154885,2,0,B|259:171|259:171|307:137,1,88.000002685547,8|0,0:0|1:2,0:0:0:0:
167,282,155238,5,2,0:0:0:0:
249,71,155415,1,0,1:2:0:0:
231,30,155503,1,0,1:2:0:0:
189,15,155591,2,0,B|147:25|147:25|134:75,1,88.000002685547,8|2,0:0|0:0,0:0:0:0:
12,202,155944,2,0,P|54:196|100:180,1,88.000002685547,0|2,1:2|1:2,0:0:0:0:
210,353,156297,1,8,0:0:0:0:
319,157,156474,1,8,0:0:0:0:
342,194,156562,1,8,0:0:0:0:
337,237,156650,6,0,L|308:279,1,44.0000013427735,6|0,1:2|0:0,0:0:0:0:
434,181,156827,2,0,L|420:232,1,44.0000013427735,0|0,1:2|0:0,0:0:0:0:
419,356,157003,2,0,B|524:309|524:309|501:240,1,176.000005371094,10|0,0:0|1:2,0:0:0:0:
325,281,157532,1,0,1:2:0:0:
384,101,157709,1,8,0:0:0:0:
237,232,157885,6,0,B|278:186|278:186|163:152,1,176.000005371094,2|2,1:2|1:2,0:0:0:0:
19,97,158415,2,0,L|67:83,1,44.0000013427735,8|0,0:0|0:0,0:0:0:0:
187,15,158591,1,2,0:0:0:0:
82,197,158768,5,0,0:0:0:0:
143,325,158944,1,2,1:2:0:0:
197,132,159121,1,8,0:0:0:0:
71,232,159297,1,0,1:2:0:0:
231,379,159474,6,0,P|243:336|288:316,1,88.000002685547,6|2,1:2|1:2,0:0:0:0:
468,349,159827,1,8,0:0:0:0:
351,205,160003,1,2,0:0:0:0:
501,96,160180,2,0,P|464:119|412:111,1,88.000002685547,2|2,1:2|1:2,0:0:0:0:
197,28,160532,2,0,B|265:32|265:32|335:58,1,132.00000402832,10|0,0:0|0:0,0:0:0:0:
319,74,160885,5,2,0:0:0:0:
148,127,161062,1,0,1:2:0:0:
246,284,161238,2,0,B|275:251|275:251|255:160,1,132.00000402832,8|0,0:0|0:0,0:0:0:0:
249,143,161591,1,0,0:0:0:0:
160,254,161768,1,2,1:2:0:0:
303,347,161944,1,8,0:0:0:0:
152,167,162121,1,0,1:2:0:0:
7,364,162297,6,0,P|55:337|140:375,1,132.00000402832,6|0,1:2|0:0,0:0:0:0:
5,246,162650,2,0,B|82:279|82:279|105:335,1,132.00000402832,10|0,0:0|0:0,0:0:0:0:
109,303,163003,1,0,1:2:0:0:
262,247,163180,1,0,1:2:0:0:
173,85,163356,2,0,B|149:132|149:132|159:175,1,88.000002685547,8|0,0:0|1:2,0:0:0:0:
327,327,163709,5,0,1:2:0:0:
464,168,163885,1,8,0:0:0:0:
473,211,163974,1,8,0:0:0:0:
481,253,164062,1,0,1:2:0:0:
344,96,164238,1,8,0:0:0:0:
318,137,164327,1,8,0:0:0:0:
334,182,164415,6,0,L|378:204,1,44.0000013427735,0|0,1:2|0:0,0:0:0:0:
220,264,164591,2,0,L|267:249,1,44.0000013427735,8|0,0:0|0:0,0:0:0:0:
319,102,164768,1,0,1:2:0:0:
303,88,164856,1,8,0:0:0:0:
249,72,164944,1,8,0:0:0:0:
200,102,165032,1,8,0:0:0:0:
143,90,165121,6,0,P|130:47|142:2,1,88.000002685547,6|2,1:2|1:2,0:0:0:0:
65,205,165474,2,0,B|109:211|109:211|148:181,1,88.000002685547,10|2,0:0|0:0,0:0:0:0:
0,125,165827,1,2,1:2:0:0:
121,288,166003,1,2,1:2:0:0:
9,352,166180,2,0,B|56:345|56:345|90:369,1,88.000002685547,10|2,0:0|0:0,0:0:0:0:
268,303,166532,6,0,P|290:265|284:210,1,88.000002685547,2|0,1:2|1:2,0:0:0:0:
204,67,166885,1,8,0:0:0:0:
149,186,167062,2,0,B|262:131|262:131|328:151,1,176.000005371094,2|2,0:0|1:2,0:0:0:0:
464,270,167591,2,0,B|446:229|446:229|469:179,1,88.000002685547,8|0,0:0|0:0,0:0:0:0:
265,278,167944,6,0,L|317:289,1,44.0000013427735,6|0,1:2|0:0,0:0:0:0:
385,305,168121,2,0,L|333:316,1,44.0000013427735,2|0,1:2|0:0,0:0:0:0:
303,200,168297,1,10,0:0:0:0:
166,301,168474,1,2,0:0:0:0:
234,142,168650,1,2,1:2:0:0:
279,370,168827,1,2,1:2:0:0:
100,225,169003,1,10,0:0:0:0:
6,245,169180,6,0,L|187:280,1,176.000005371094,2|2,0:0|1:2,0:0:0:0:
128,77,169709,1,8,0:0:0:0:
288,124,169885,2,0,B|216:141|216:141|203:157|203:157|121:181,1,176.000005371094,2|2,0:0|1:2,0:0:0:0:
317,241,170415,1,8,0:0:0:0:
438,98,170591,1,8,0:0:0:0:
469,130,170680,1,8,0:0:0:0:
477,174,170768,6,0,P|464:216|442:264,1,88.000002685547,6|2,1:2|1:2,0:0:0:0:
307,352,171121,2,0,B|272:326|272:326|228:314,1,88.000002685547,10|2,0:0|0:0,0:0:0:0:
192,170,171474,1,2,1:2:0:0:
319,250,171650,1,2,1:2:0:0:
414,90,171827,1,10,0:0:0:0:
501,201,172003,6,0,P|434:140|341:156,1,176.000005371094,2|2,0:0|1:2,0:0:0:0:
222,231,172532,1,8,0:0:0:0:
280,375,172709,2,0,P|303:336|302:284,1,88.000002685547,2|0,0:0|1:2,0:0:0:0:
253,140,173062,1,2,1:2:0:0:
96,191,173238,2,0,B|70:224|70:224|90:275,1,88.000002685547,8|2,0:0|1:2,0:0:0:0:
25,86,173591,6,0,P|72:82|118:109,1,88.000002685547,6|2,1:2|1:2,0:0:0:0:
227,230,173944,2,0,B|320:208|320:208|344:178,1,132.00000402832,10|0,0:0|0:0,0:0:0:0:
335,158,174297,1,2,1:2:0:0:
298,295,174474,1,0,1:2:0:0:
222,106,174650,1,10,0:0:0:0:
137,249,174827,6,0,P|169:217|166:168,1,88.000002685547,2|2,1:2|1:2,0:0:0:0:
35,18,175180,1,8,0:0:0:0:
18,49,175268,1,8,0:0:0:0:
46,93,175356,1,2,1:2:0:0:
281,59,175532,1,8,0:0:0:0:
286,111,175621,1,8,0:0:0:0:
262,136,175709,1,0,1:2:0:0:
28,199,175885,2,0,L|78:186,1,44.0000013427735,0|8,1:2|0:0,0:0:0:0:
197,236,176062,1,0,1:2:0:0:
50,329,176238,1,0,1:2:0:0:
100,355,176327,1,8,0:0:0:0:
129,342,176415,6,0,P|177:324|239:321,1,96,4|0,1:2|0:0,0:0:0:0:
292,362,176768,6,0,P|309:329|311:280,1,80,10|0,0:0|0:0,0:0:0:0:
201,142,177121,2,0,P|184:175|182:224,1,80,2|2,1:2|1:2,0:0:0:0:
347,168,177474,1,10,0:0:0:0:
384,150,177562,1,2,0:0:0:0:
425,156,177650,1,2,0:0:0:0:
502,286,177827,6,0,P|465:282|423:253,1,80,2|2,1:2|1:2,0:0:0:0:
371,46,178180,2,0,P|303:57|274:102,1,120,10|0,0:0|0:0,0:0:0:0:
289,110,178532,6,0,P|301:146|306:195,1,80,2|0,1:2|1:2,0:0:0:0:
147,39,178885,1,10,0:0:0:0:
41,86,179062,1,2,0:0:0:0:
190,230,179238,6,0,P|209:196|203:150,1,80,6|2,1:2|1:2,0:0:0:0:
35,333,179591,2,0,B|13:289|13:289|34:251,1,80,10|2,0:0|0:0,0:0:0:0:
208,357,179944,1,2,1:2:0:0:
114,301,180121,1,2,1:2:0:0:
189,122,180297,1,10,0:0:0:0:
325,206,180474,6,0,P|245:224|150:223,1,160,2|2,1:2|1:2,0:0:0:0:
271,305,181003,1,8,0:0:0:0:
301,121,181180,2,0,B|368:81|368:81|396:160,1,160,2|2,0:0|1:2,0:0:0:0:
289,21,181709,1,10,0:0:0:0:
163,134,181885,1,2,1:2:0:0:
125,118,181974,1,8,0:0:0:0:
94,127,182062,6,0,P|51:173|60:220,1,96,6|0,1:2|0:0,0:0:0:0:
29,276,182415,6,0,B|63:257|63:257|110:258,1,80,10|2,0:0|0:0,0:0:0:0:
246,353,182768,1,2,1:2:0:0:
346,273,182944,1,2,1:2:0:0:
179,190,183121,1,8,0:0:0:0:
280,76,183297,6,0,B|325:59|360:86|351:95|392:128|435:102,1,160,2|0,0:0|1:2,0:0:0:0:
333,180,183827,1,8,0:0:0:0:
450,313,184003,2,0,P|452:271|474:231,1,80,2|2,0:0|1:2,0:0:0:0:
384,364,184356,1,0,1:2:0:0:
218,292,184532,2,0,B|292:255|292:255|347:271,1,120,10|0,0:0|0:0,0:0:0:0:
347,260,184885,6,0,P|358:225|342:174,1,80,6|0,1:2|1:2,0:0:0:0:
506,79,185238,2,0,B|419:93|419:93|439:51,1,120,10|0,0:0|0:0,0:0:0:0:
443,47,185591,1,2,1:2:0:0:
308,1,185768,1,2,1:2:0:0:
124,58,185944,2,0,B|170:51|170:51|210:80,1,80,10|2,0:0|1:2,0:0:0:0:
182,266,186297,5,2,1:2:0:0:
216,172,186474,1,8,0:0:0:0:
84,305,186650,2,0,L|69:266,1,40,2|0,1:2|0:0,0:0:0:0:
23,133,186827,1,2,1:2:0:0:
175,362,187003,6,0,B|210:343|210:343|250:355,1,80,10|2,0:0|1:2,0:0:0:0:
358,186,187356,1,10,0:3:0:0:
165,240,187532,1,8,0:0:0:0:
199,263,187621,1,8,0:0:0:0:
229,272,187709,6,0,P|280:260|334:263,1,96,6|0,1:2|0:0,0:0:0:0:
386,315,188062,6,0,B|346:332|346:332|329:372,1,80,10|0,0:0|1:2,0:0:0:0:
498,335,188415,1,2,1:2:0:0:
421,201,188591,1,2,1:2:0:0:
232,299,188768,1,10,0:0:0:0:
369,366,188944,1,2,1:2:0:0:
384,329,189032,1,0,1:2:0:0:
370,290,189121,6,0,P|347:258|291:243,1,80,2|0,1:2|1:2,0:0:0:0:
131,342,189474,2,0,B|90:351|90:351|42:322,1,80,10|0,0:0|1:2,0:0:0:0:
98,112,189827,1,2,1:2:0:0:
180,262,190003,1,0,1:2:0:0:
5,166,190180,1,10,0:0:0:0:
103,28,190356,1,2,1:2:0:0:
103,28,190444,1,0,1:2:0:0:
103,28,190532,6,0,P|142:38|182:31,1,80,6|2,1:2|1:2,0:0:0:0:
361,95,190885,1,10,0:0:0:0:
173,161,191062,1,2,1:2:0:0:
364,56,191238,1,2,1:2:0:0:
265,213,191415,1,2,1:2:0:0:
203,19,191591,1,10,0:0:0:0:
405,166,191768,2,0,L|389:211,1,40,2|0,1:2|0:0,0:0:0:0:
356,297,191944,6,0,P|393:282|445:278,1,80,2|2,1:2|1:2,0:0:0:0:
272,128,192297,2,0,B|233:100|233:100|201:107,1,80,10|2,0:0|1:2,0:0:0:0:
371,14,192650,2,0,P|375:51|356:94,1,80,0|2,1:2|1:2,0:0:0:0:
155,187,193003,1,10,0:0:0:0:
261,283,193180,1,0,1:2:0:0:
296,301,193268,1,8,0:0:0:0:
333,313,193356,6,0,L|378:299,1,40,6|0,1:2|0:0,0:0:0:0:
300,169,193532,2,0,L|289:214,1,40,0|0,1:2|0:0,0:0:0:0:
147,341,193709,2,0,B|174:311|174:311|167:266,1,80,10|2,0:0|1:2,0:0:0:0:
14,147,194062,2,0,P|29:181|29:225,1,80,2|2,1:2|1:2,0:0:0:0:
67,9,194415,1,8,0:0:0:0:
238,84,194591,1,2,1:2:0:0:
116,186,194768,6,0,P|156:179|193:150,1,80,2|0,1:2|1:2,0:0:0:0:
327,5,195121,1,8,0:0:0:0:
250,221,195297,1,0,1:2:0:0:
144,88,195474,2,0,P|140:44|163:5,1,80,2|0,1:2|1:2,0:0:0:0:
97,251,195827,1,10,0:0:0:0:
259,190,196003,1,2,1:2:0:0:
26,181,196180,6,0,P|73:220|148:221,1,120,4|0,1:2|0:0,0:0:0:0:
145,213,196532,1,10,0:0:0:0:
171,27,196709,1,0,1:2:0:0:
271,86,196885,1,2,1:2:0:0:
127,132,197062,1,2,1:2:0:0:
300,288,197238,1,10,0:0:0:0:
98,212,197415,1,0,1:2:0:0:
285,122,197591,6,0,P|323:135|368:157,1,80,8|2,0:0|1:2,0:0:0:0:
421,330,197944,2,0,P|459:317|504:295,1,80,0|2,1:2|1:2,0:0:0:0:
499,259,198209,1,0,1:2:0:0:
470,230,198297,1,8,0:0:0:0:
338,363,198474,1,2,1:2:0:0:
207,205,198650,2,0,P|233:240|224:286,1,80,2|2,0:0|1:2,0:0:0:0:
68,228,199003,6,0,P|148:221|223:110,1,224,6|0,1:2|0:0,0:0:0:0:
191,29,199709,6,0,P|138:112|191:188,1,176.000005371094,6|0,1:2|0:0,0:0:0:0:
