osu file format v14

[General]
AudioFilename: audio.mp3
AudioLeadIn: 0
PreviewTime: 58091
Countdown: 0
SampleSet: Soft
StackLeniency: 0.7
Mode: 0
LetterboxInBreaks: 0
WidescreenStoryboard: 0

[Editor]
DistanceSpacing: 1.2
BeatDivisor: 4
GridSize: 32
TimelineZoom: 1.4

[Metadata]
Title:Hooked Again
TitleUnicode:Hooked Again
Artist:Carpool Tunnel
ArtistUnicode:Carpool Tunnel
Creator:-Aqua
Version:Hard
Source:osu!
Tags:Hinsvar Onlybiscuit english indie rock fa featured artist mpg mappers' guild
BeatmapID:2229083
BeatmapSetID:1050185

[Difficulty]
HPDrainRate:5
CircleSize:3.8
OverallDifficulty:6
ApproachRate:8
SliderMultiplier:1.4
SliderTickRate:1

[Events]
//Background and Video events
0,0,"lost-places-3994109_1920.jpg",0,0
//Break Periods
//Storyboard Layer 0 (Background)
//Storyboard Layer 1 (Fail)
//Storyboard Layer 2 (Pass)
//Storyboard Layer 3 (Foreground)
//Storyboard Layer 4 (Overlay)
//Storyboard Sound Samples

[TimingPoints]
1398,352.941176470588,4,2,1,40,1,0
1398,-125,4,2,1,40,0,0
12692,-100,4,2,1,50,0,0
21162,342.857142857143,4,2,1,50,1,0
22533,352.941176470588,4,2,1,50,1,0
23944,-100,4,2,1,65,0,0
35238,-100,4,2,1,50,0,0
57827,-100,4,2,1,40,0,0
63474,-90.9090909090909,4,2,1,75,0,1
86062,-100,4,2,1,50,0,0
108650,-90.9090909090909,4,2,1,75,0,1
131238,-100,4,2,1,60,0,0
136885,-100,4,2,1,65,0,0
153827,-90.9090909090909,4,2,1,75,0,1
176415,-100,4,2,1,60,0,0
187709,-100,4,2,1,65,0,0
194768,-100,4,2,1,70,0,0

[Colours]
Combo1 : 192,192,192
Combo2 : 255,188,155
Combo3 : 255,128,128

[HitObjects]
64,320,1398,6,0,P|148:309|216:311,1,112,2|2,0:0|0:0,0:0:0:0:
198,332,2103,1,2,0:0:0:0:
198,332,2280,1,2,0:0:0:0:
309,257,2633,2,0,B|336:210|336:210|312:122,1,112,2|2,0:0|0:0,0:0:0:0:
218,66,3339,2,0,B|191:113|191:113|215:201,1,112,2|2,0:0|0:0,0:0:0:0:
146,236,3868,2,0,B|70:213|101:268|0:254,1,112,2|2,0:0|0:0,0:0:0:0:
23,234,4574,5,2,0:0:0:0:
70,156,4927,1,2,0:0:0:0:
70,156,5103,1,2,0:0:0:0:
162,253,5456,2,0,B|178:293|178:293|159:378,1,112,2|2,0:0|0:0,0:0:0:0:
251,378,5986,2,0,L|275:275,1,56,2|2,0:0|0:0,0:0:0:0:
333,266,6339,2,0,L|345:320,1,56,2|0,0:0|0:0,0:0:0:0:
429,351,6692,1,2,0:0:0:0:
504,240,7045,6,0,P|494:186|448:158,1,112,2|2,0:0|0:0,0:0:0:0:
426,164,7750,1,2,0:0:0:0:
426,164,7927,1,2,0:0:0:0:
324,252,8280,2,0,B|250:234|280:286|188:268,1,112,2|2,0:0|0:0,0:0:0:0:
131,375,8986,2,0,P|78:353|4:337,1,112,2|2,0:0|0:0,0:0:0:0:
2,252,9515,1,2,0:0:0:0:
61,131,9868,6,0,B|104:110|104:110|172:127,1,112,2|2,0:0|0:0,0:0:0:0:
186,144,10574,1,2,0:0:0:0:
186,144,10750,1,2,0:0:0:0:
271,247,11103,2,0,P|340:235|396:205,1,112,2|2,0:0|0:0,0:0:0:0:
436,148,11633,2,0,L|399:68,1,56,2|2,0:0|0:0,0:0:0:0:
358,0,11986,2,0,L|335:50,1,56,2|0,0:0|0:0,0:0:0:0:
257,95,12339,1,2,0:0:0:0:
257,95,12515,1,0,0:0:0:0:
182,46,12692,6,0,B|108:24|84:40,1,70,2|0,1:2|1:2,0:0:0:0:
51,90,13045,1,10,0:0:0:0:
130,237,13397,2,0,P|140:184|148:165,2,70,2|2|8,0:0|1:2|0:0,0:0:0:0:
81,306,13927,2,0,P|137:277|210:307,1,140,2|2,0:0|1:2,0:0:0:0:
263,362,14456,1,10,0:0:0:0:
344,340,14633,2,0,P|400:369|473:339,1,140,2|2,0:0|1:2,0:0:0:0:
491,262,15162,2,0,P|478:208|484:167,1,70,10|0,0:0|0:0,0:0:0:0:
416,137,15515,6,0,P|379:182|344:189,1,70,2|0,1:2|1:2,0:0:0:0:
292,151,15868,1,10,0:0:0:0:
160,256,16221,2,0,P|191:305|199:337,2,70,2|2|8,0:0|1:2|0:0,0:0:0:0:
77,239,16750,2,0,B|51:206|51:206|87:109,1,140,2|2,0:0|1:2,0:0:0:0:
159,72,17280,2,0,P|190:96|248:106,1,70,10|2,0:0|0:0,0:0:0:0:
297,134,17633,2,0,P|328:109|386:100,1,70,2|2,0:0|1:2,0:0:0:0:
430,140,17986,1,10,0:0:0:0:
430,140,18162,1,0,0:0:0:0:
492,83,18339,6,0,P|490:33|408:3,1,140,2|10,1:2|0:0,0:0:0:0:
289,112,19045,2,0,B|249:112|203:88,1,70,2|2,0:0|1:2,0:0:0:0:
171,29,19397,1,8,0:0:0:0:
99,73,19574,2,0,L|134:217,1,140,2|2,0:0|1:2,0:0:0:0:
71,267,20103,1,10,0:0:0:0:
124,332,20280,2,0,B|212:306|180:370|263:361,1,140,2|2,0:0|1:2,0:0:0:0:
312,301,20809,1,10,0:0:0:0:
312,301,20986,1,0,1:2:0:0:
387,341,21162,6,0,B|439:362|439:362|523:313,1,140,6|14,1:2|0:0,0:0:0:0:
438,168,21847,2,0,P|395:151|360:152,1,70,14|8,0:0|0:0,0:0:0:0:
305,202,22190,1,8,0:0:0:0:
305,202,22362,1,8,0:0:0:0:
237,156,22533,5,8,0:0:0:0:
237,156,23415,2,0,L|246:59,2,70,0|8|0,1:2|0:0|1:2,0:0:0:0:
180,218,23944,6,0,P|145:211|116:193,1,70,6|2,1:2|1:2,0:0:0:0:
48,243,24297,1,10,0:0:0:0:
48,243,24474,1,2,0:0:0:0:
3,171,24650,2,0,L|22:91,1,70,2|2,1:2|1:2,0:0:0:0:
92,61,25003,1,8,0:0:0:0:
151,120,25180,6,0,B|235:96|204:158|290:141,1,140,2|2,1:2|1:2,0:0:0:0:
336,77,25709,1,8,0:0:0:0:
424,91,25885,2,0,P|462:128|460:218,1,140,2|2,0:0|1:2,0:0:0:0:
389,251,26415,2,0,L|414:327,1,70,10|2,0:0|1:2,0:0:0:0:
354,380,26768,5,6,1:2:0:0:
354,380,26944,1,2,1:2:0:0:
285,331,27121,2,0,L|187:320,1,70,10|2,0:0|0:0,0:0:0:0:
150,376,27474,2,0,L|52:387,1,70,2|2,0:0|1:2,0:0:0:0:
23,321,27827,1,8,0:0:0:0:
82,261,28003,6,0,B|85:218|85:218|73:186|73:186|82:114,1,140,2|2,1:2|1:2,0:0:0:0:
22,62,28532,1,8,0:0:0:0:
84,5,28709,2,0,P|125:5|218:39,1,140,2|2,1:2|1:2,0:0:0:0:
273,100,29238,1,8,0:0:0:0:
340,49,29415,1,8,0:0:0:0:
340,49,29503,1,8,0:0:0:0:
340,49,29591,6,0,P|389:41|418:25,1,70,6|2,1:2|1:2,0:0:0:0:
507,125,29944,2,0,P|474:112|440:109,1,70,10|2,0:0|0:0,0:0:0:0:
388,175,30297,1,2,1:2:0:0:
388,175,30474,1,2,1:2:0:0:
315,133,30650,1,8,0:0:0:0:
261,197,30827,6,0,B|174:185|199:244|118:235,1,140,2|2,1:2|1:2,0:0:0:0:
63,186,31356,1,8,0:0:0:0:
3,244,31532,2,0,L|42:383,1,140,2|2,0:0|1:2,0:0:0:0:
117,342,32062,2,0,P|157:314|204:309,1,70,10|2,0:0|1:2,0:0:0:0:
246,356,32415,5,6,1:2:0:0:
246,356,32591,1,2,1:2:0:0:
300,291,32768,2,0,P|289:257|266:231,1,70,10|2,0:0|0:0,0:0:0:0:
195,187,33121,2,0,P|205:153|228:127,1,70,2|2,0:0|1:2,0:0:0:0:
176,60,33474,1,8,0:0:0:0:
176,60,33650,1,2,1:2:0:0:
239,4,33827,6,0,L|328:27,1,70,0|8,1:2|0:0,0:0:0:0:
325,58,34091,1,8,0:0:0:0:
325,58,34180,1,8,0:0:0:0:
402,26,34356,1,10,0:0:0:0:
460,86,34532,2,0,P|467:125|458:160,1,70,10|10,0:3|0:3,0:0:0:0:
407,219,34885,2,0,P|400:258|409:293,1,70,10|10,0:0|0:0,0:0:0:0:
483,321,35238,6,0,B|399:291|423:365|341:348,1,140,4|10,1:2|0:0,0:0:0:0:
213,257,35944,2,0,L|236:182,2,70,2|0|8,1:2|1:2|0:0,0:0:0:0:
138,297,36474,2,0,P|79:315|14:273,1,140,2|0,0:0|1:2,0:0:0:0:
65,207,37003,1,8,0:0:0:0:
13,140,37180,2,0,B|29:102|29:102|20:68|20:68|56:-13,1,140,2|0,0:0|1:2,0:0:0:0:
126,33,37709,2,0,L|213:-1,1,70,8|0,0:0|0:0,0:0:0:0:
269,38,38062,6,0,B|290:105|290:105|257:174,1,140,4|8,1:2|0:0,0:0:0:0:
159,303,38768,1,2,1:2:0:0:
159,303,38944,1,0,1:2:0:0:
225,354,39121,2,0,L|294:330,1,70,10|0,0:0|0:0,0:0:0:0:
313,249,39474,2,0,P|353:246|401:326,1,140,2|8,1:2|0:0,0:0:0:0:
461,380,40003,1,0,0:0:0:0:
509,311,40180,2,0,L|500:232,1,70,0|0,1:2|1:2,0:0:0:0:
435,189,40532,2,0,L|426:110,1,70,8|0,0:0|1:2,0:0:0:0:
451,84,40797,1,0,1:2:0:0:
451,84,40885,5,4,1:2:0:0:
300,9,41238,2,0,B|218:-8|249:57|152:36,1,140,10|2,0:0|1:2,0:0:0:0:
89,9,41768,1,0,1:2:0:0:
33,71,41944,2,0,L|51:140,1,70,10|0,0:0|0:0,0:0:0:0:
134,144,42297,2,0,B|158:190|158:190|142:283,1,140,2|10,1:2|0:0,0:0:0:0:
202,337,42827,1,2,0:0:0:0:
274,295,43003,2,0,L|288:195,2,70,0|0|8,1:2|1:2|0:0,0:0:0:0:
324,362,43532,1,2,0:0:0:0:
406,360,43709,6,0,B|429:324|429:324|401:204,1,140,4|8,1:2|0:0,0:0:0:0:
284,113,44415,2,0,L|306:36,2,70,0|0|8,1:2|1:2|0:0,0:0:0:0:
224,172,44944,1,2,0:0:0:0:
149,132,45121,2,0,P|119:114|69:111,1,70,0|0,1:2|1:2,0:0:0:0:
48,184,45474,2,0,L|25:43,1,140,8|0,0:0|1:2,0:0:0:0:
96,1,46003,1,8,0:0:0:0:
167,44,46180,2,0,L|235:23,1,70,0|8,1:2|0:3,0:0:0:0:
289,85,46532,6,0,L|357:106,1,70,4|0,1:2|1:2,0:0:0:0:
423,55,46885,1,10,0:0:0:0:
490,208,47238,2,0,L|513:133,2,70,2|0|10,1:2|1:2|0:0,0:0:0:0:
408,229,47768,2,0,P|438:316|435:377,1,140,2|0,0:0|1:2,0:0:0:0:
354,379,48297,1,8,0:0:0:0:
286,328,48474,2,0,B|203:298|226:361|154:351,1,140,2|0,0:0|1:2,0:0:0:0:
89,298,49003,2,0,L|123:211,1,70,8|0,0:0|1:2,0:0:0:0:
83,204,49268,1,0,1:2:0:0:
83,204,49356,6,0,L|64:120,1,70,4|0,1:2|1:2,0:0:0:0:
133,83,49709,1,8,0:0:0:0:
230,219,50062,2,0,L|211:303,2,70,2|0|10,1:2|1:2|0:0,0:0:0:0:
299,170,50591,1,2,0:0:0:0:
359,228,50768,1,2,1:2:0:0:
359,228,50944,2,0,P|393:226|424:209,1,70,0|8,1:2|0:0,0:0:0:0:
493,162,51297,2,0,B|502:98|502:98|456:27,1,140,2|0,0:0|1:2,0:0:0:0:
380,7,51827,1,8,0:0:0:0:
321,66,52003,1,0,0:0:0:0:
244,30,52180,6,0,L|166:9,1,70,4|0,1:2|1:2,0:0:0:0:
117,70,52532,1,10,0:0:0:0:
69,231,52885,2,0,L|0:247,2,70,2|0|8,1:2|1:2|0:0,0:0:0:0:
124,294,53415,1,2,0:0:0:0:
124,294,53591,2,0,L|195:319,1,70,2|0,1:2|1:2,0:0:0:0:
259,269,53944,1,10,0:0:0:0:
323,323,54121,2,0,B|410:296|383:352|478:346,1,140,2|2,0:0|1:2,0:0:0:0:
511,283,54650,2,0,L|490:206,1,70,8|2,0:0|0:0,0:0:0:0:
433,155,55003,6,0,P|376:149|309:209,1,140,4|8,1:2|0:0,0:0:0:0:
153,251,55709,2,0,L|240:270,2,70,0|0|8,1:2|1:2|0:0,0:0:0:0:
75,283,56238,1,2,0:0:0:0:
75,283,56415,5,0,1:2:0:0:
25,215,56591,2,0,L|53:142,1,70,8|0,0:0|1:2,0:0:0:0:
50,149,56944,1,0,1:2:0:0:
102,52,57121,2,0,L|128:118,1,70,8|8,0:0|0:3,0:0:0:0:
204,153,57474,2,0,P|260:171|301:165,1,70,8|0,0:3|1:2,0:0:0:0:
339,123,57827,5,4,1:2:0:0:
339,123,60650,1,0,3:0:0:0:
330,139,61003,1,0,3:0:0:0:
466,232,61356,1,0,3:0:0:0:
480,249,61709,1,0,3:0:0:0:
342,345,62062,6,0,B|258:329|292:384|207:382,1,140,4|4,0:2|0:2,0:0:0:0:
213,382,62768,1,4,0:2:0:0:
148,328,62944,2,0,L|167:242,2,70,0|8|0,1:2|0:0|1:2,0:0:0:0:
0,332,63474,6,0,P|22:283|63:260,1,77.0000023498536,6|2,1:2|1:2,0:0:0:0:
101,200,63827,2,0,B|100:166|100:166|79:117,1,77.0000023498536,10|2,0:0|0:0,0:0:0:0:
140,53,64180,1,2,1:2:0:0:
140,53,64356,1,2,1:2:0:0:
212,109,64532,2,0,L|192:194,1,77.0000023498536,10|2,0:0|0:0,0:0:0:0:
201,276,64885,6,0,B|294:253|262:325|358:322,1,154.000004699707,2|8,1:2|0:0,0:0:0:0:
413,273,65415,1,2,0:0:0:0:
503,291,65591,2,0,P|516:249|501:209,1,77.0000023498536,0|2,1:2|1:2,0:0:0:0:
419,188,65944,2,0,P|410:150|423:115,1,77.0000023498536,8|0,0:0|0:0,0:0:0:0:
512,0,66297,5,6,1:2:0:0:
512,0,66474,1,2,1:2:0:0:
425,32,66650,2,0,B|389:50|389:50|339:41,1,77.0000023498536,10|2,0:0|0:0,0:0:0:0:
267,80,67003,2,0,B|231:62|231:62|181:71,1,77.0000023498536,2|2,1:2|1:2,0:0:0:0:
122,10,67356,1,10,0:0:0:0:
64,81,67532,6,0,P|96:148|115:236,1,154.000004699707,2|2,0:0|1:2,0:0:0:0:
52,295,68062,1,8,0:0:0:0:
122,354,68238,2,0,B|175:349|175:349|198:369|198:369|278:361,1,154.000004699707,2|2,0:0|1:2,0:0:0:0:
318,283,68768,1,8,0:0:0:0:
447,308,68944,1,8,0:0:0:0:
447,308,69032,1,8,0:0:0:0:
447,308,69121,6,0,L|429:382,1,77.0000023498536,6|2,1:2|1:2,0:0:0:0:
509,238,69474,2,0,L|491:161,1,77.0000023498536,10|2,0:0|0:0,0:0:0:0:
409,132,69827,1,2,1:2:0:0:
337,190,70003,2,0,P|283:174|239:139,1,77.0000023498536,2|10,1:2|0:0,0:0:0:0:
207,235,70356,6,0,B|113:206|138:293|37:261,1,154.000004699707,2|0,0:0|1:2,0:0:0:0:
8,193,70885,1,8,0:0:0:0:
61,113,71062,2,0,P|101:72|200:104,1,154.000004699707,2|2,0:0|1:2,0:0:0:0:
255,153,71591,2,0,L|340:134,1,77.0000023498536,8|2,0:0|0:0,0:0:0:0:
401,17,71944,6,0,L|486:-2,1,77.0000023498536,6|2,1:2|1:2,0:0:0:0:
508,86,72297,2,0,L|489:171,1,77.0000023498536,10|2,0:0|0:0,0:0:0:0:
405,214,72650,2,0,L|424:299,1,77.0000023498536,2|2,1:2|1:2,0:0:0:0:
485,356,73003,1,8,0:0:0:0:
485,356,73180,1,2,0:0:0:0:
396,380,73356,6,0,P|357:352|316:334,1,77.0000023498536,0|2,1:2|1:2,0:0:0:0:
243,369,73709,1,8,0:0:0:0:
189,293,73885,1,2,0:0:0:0:
111,343,74062,2,0,P|72:371|31:389,1,77.0000023498536,0|2,1:2|1:2,0:0:0:0:
0,302,74415,2,0,P|5:262|21:217,1,77.0000023498536,8|8,0:0|0:0,0:0:0:0:
135,131,74768,5,6,1:2:0:0:
135,131,74944,1,2,1:2:0:0:
189,205,75121,2,0,P|241:187|276:179,1,77.0000023498536,10|2,0:0|0:0,0:0:0:0:
316,106,75474,1,2,1:2:0:0:
372,178,75650,1,2,1:2:0:0:
372,178,75827,2,0,P|387:243|387:281,1,77.0000023498536,10|2,0:0|0:0,0:0:0:0:
455,320,76180,6,0,P|459:281|470:244,1,77.0000023498536,2|0,1:2|1:2,0:0:0:0:
509,161,76532,1,8,0:0:0:0:
412,104,76709,2,0,P|334:98|285:179,1,154.000004699707,2|2,0:0|1:2,0:0:0:0:
216,209,77238,2,0,P|182:190|162:158,1,77.0000023498536,8|0,0:0|0:0,0:0:0:0:
71,245,77591,5,6,1:2:0:0:
71,245,77768,1,2,1:2:0:0:
6,179,77944,2,0,L|25:95,1,77.0000023498536,10|2,0:0|0:0,0:0:0:0:
96,47,78297,2,0,L|180:66,1,77.0000023498536,2|2,1:2|1:2,0:0:0:0:
247,116,78650,1,10,0:0:0:0:
330,74,78827,6,0,B|420:45|397:114|483:105,1,154.000004699707,2|2,0:0|1:2,0:0:0:0:
422,178,79356,1,8,0:0:0:0:
487,243,79532,2,0,B|514:278|514:278|485:384,1,154.000004699707,2|2,0:0|1:2,0:0:0:0:
412,325,80062,1,8,0:0:0:0:
297,384,80238,1,8,0:0:0:0:
297,384,80327,1,8,0:0:0:0:
297,384,80415,6,0,L|220:354,1,77.0000023498536,6|2,1:2|1:2,0:0:0:0:
182,273,80768,2,0,L|105:303,1,77.0000023498536,10|2,0:0|0:0,0:0:0:0:
45,366,81121,1,2,1:2:0:0:
45,366,81297,1,2,1:2:0:0:
2,283,81474,1,10,0:0:0:0:
69,220,81650,6,0,P|63:173|45:138,1,77.0000023498536,2|2,0:0|1:2,0:0:0:0:
0,75,82003,1,0,1:2:0:0:
0,75,82180,1,8,0:0:0:0:
65,9,82356,2,0,L|149:32,1,77.0000023498536,2|0,0:0|1:2,0:0:0:0:
193,104,82709,1,2,1:2:0:0:
193,104,82885,2,0,L|277:81,1,77.0000023498536,8|2,0:0|0:0,0:0:0:0:
370,172,83238,6,0,P|393:219|394:267,2,77.0000023498536,6|2|10,1:2|1:2|0:0,0:0:0:0:
400,83,83768,1,2,0:0:0:0:
506,144,83944,2,0,P|490:211|481:301,1,154.000004699707,2|8,1:2|0:0,0:0:0:0:
413,359,84474,1,2,0:0:0:0:
341,300,84650,6,0,L|267:267,1,77.0000023498536,0|10,1:2|0:0,0:0:0:0:
208,337,85003,1,2,1:2:0:0:
126,293,85180,1,2,1:2:0:0:
57,355,85356,1,8,0:0:0:0:
57,355,85532,1,2,1:2:0:0:
9,275,85709,2,0,L|35:198,1,77.0000023498536,8|2,0:0|0:0,0:0:0:0:
107,162,86062,6,0,P|180:119|221:156,1,140,4|10,1:2|0:0,0:0:0:0:
253,221,86591,1,0,0:0:0:0:
322,173,86768,2,0,L|401:195,1,70,2|0,1:2|1:2,0:0:0:0:
442,280,87121,1,10,0:0:0:0:
490,211,87297,6,0,P|493:152|517:61,1,140,2|0,0:0|1:2,0:0:0:0:
439,43,87827,1,8,0:0:0:0:
373,95,88003,2,0,B|311:72|311:141|230:119,1,140,2|0,0:0|1:2,0:0:0:0:
172,73,88532,1,8,0:0:0:0:
172,73,88709,1,0,0:0:0:0:
98,112,88885,6,0,L|119:183,1,70,4|0,1:2|1:2,0:0:0:0:
69,248,89238,1,10,0:0:0:0:
200,352,89591,2,0,L|272:329,1,70,2|0,1:2|1:2,0:0:0:0:
311,259,89944,1,10,0:0:0:0:
380,306,90121,1,2,0:0:0:0:
446,255,90297,5,2,1:2:0:0:
446,255,90474,2,0,P|450:220|434:190,1,70,2|8,1:2|0:0,0:0:0:0:
361,148,90827,2,0,B|316:144|316:144|284:163|284:163|223:156,1,140,2|0,0:0|1:2,0:0:0:0:
156,202,91356,1,8,0:0:0:0:
91,148,91532,1,0,1:2:0:0:
91,148,91621,1,0,1:2:0:0:
91,148,91709,6,0,P|86:94|109:60,1,70,4|0,1:2|1:2,0:0:0:0:
148,18,92062,1,10,0:0:0:0:
286,113,92415,1,2,1:2:0:0:
286,113,92591,1,0,1:2:0:0:
357,68,92768,2,0,L|345:-1,1,70,10|2,0:0|0:0,0:0:0:0:
434,99,93121,6,0,B|463:184|405:158|436:261,1,140,2|8,1:2|0:0,0:0:0:0:
489,294,93650,1,2,0:0:0:0:
438,361,93827,1,0,1:2:0:0:
438,361,94003,1,0,1:2:0:0:
373,306,94180,2,0,P|326:299|279:295,1,70,8|2,0:0|0:0,0:0:0:0:
254,364,94532,6,0,L|164:374,1,70,4|0,1:2|1:2,0:0:0:0:
119,317,94885,1,8,0:0:0:0:
231,192,95238,2,0,L|308:217,2,70,0|0|8,1:2|1:2|0:0,0:0:0:0:
190,117,95768,6,0,B|127:119|128:179|59:189,1,140,2|8,0:0|0:0,0:0:0:0:
7,132,96297,2,0,P|1:78|7:41,1,70,0|0,1:2|1:2,0:0:0:0:
64,5,96650,1,8,0:0:0:0:
64,5,96827,1,0,1:2:0:0:
133,52,97003,1,8,0:0:0:0:
261,10,97356,6,0,L|338:0,1,70,4|0,1:2|1:2,0:0:0:0:
389,61,97709,1,10,0:0:0:0:
389,61,97885,1,0,1:2:0:0:
462,20,98062,2,0,B|495:58|495:58|493:153,1,140,10|10,0:3|0:0,0:0:0:0:
422,193,98591,1,2,0:0:0:0:
338,186,98768,6,0,L|256:211,1,70,0|0,1:2|1:2,0:0:0:0:
197,164,99121,1,8,0:0:0:0:
133,218,99297,2,0,P|103:264|135:345,1,140,2|0,1:2|1:2,0:0:0:0:
210,358,99827,1,8,0:0:0:0:
262,292,100003,1,8,0:0:0:0:
318,354,100180,6,0,P|359:361|390:373,1,70,4|0,1:2|1:2,0:0:0:0:
454,326,100532,1,8,0:0:0:0:
454,326,100709,1,0,1:2:0:0:
392,269,100885,2,0,P|375:221|414:141,1,140,10|10,0:3|0:0,0:0:0:0:
483,100,101415,1,2,0:0:0:0:
433,32,101591,6,0,L|355:12,1,70,2|2,1:2|1:2,0:0:0:0:
294,60,101944,1,8,0:0:0:0:
221,103,102121,2,0,B|172:93|172:93|138:108|138:108|80:100,1,140,2|0,1:2|1:2,0:0:0:0:
5,76,102650,1,8,0:0:0:0:
26,157,102827,1,8,0:0:0:0:
46,238,103003,6,0,L|128:210,1,70,4|0,1:2|1:2,0:0:0:0:
165,280,103356,2,0,B|219:268|237:324|310:314,1,140,10|10,0:0|0:3,0:0:0:0:
365,265,103885,1,2,1:2:0:0:
428,320,104062,1,8,0:0:0:0:
491,265,104238,6,0,P|505:213|506:164,1,70,2|0,0:0|1:2,0:0:0:0:
451,133,104591,1,2,1:2:0:0:
375,170,104768,1,8,0:0:0:0:
318,108,104944,2,0,P|242:103|186:52,1,140,2|2,1:2|1:2,0:0:0:0:
129,119,105474,1,8,0:0:0:0:
61,69,105650,1,2,1:2:0:0:
4,131,105827,6,0,P|30:183|30:271,1,140,4|8,1:2|0:0,0:0:0:0:
100,312,106356,1,2,1:2:0:0:
172,270,106532,2,0,P|176:221|225:130,1,140,4|8,1:2|0:0,0:0:0:0:
271,76,107062,1,0,1:2:0:0:
271,76,107150,1,0,1:2:0:0:
271,76,107238,6,0,P|325:95|362:101,1,70,4|0,1:2|1:2,0:0:0:0:
396,37,107591,2,0,P|450:18|487:12,1,70,8|0,0:0|1:2,0:0:0:0:
493,44,107856,1,0,1:2:0:0:
493,44,107944,2,0,P|504:107|505:140,1,70,0|8,1:2|0:0,0:0:0:0:
461,185,108297,2,0,L|427:173,3,35,8|8|8|8,0:0|0:0|0:0|0:0,0:0:0:0:
468,230,108650,6,0,P|446:279|405:302,1,77.0000023498536,6|2,1:2|1:2,0:0:0:0:
350,348,109003,2,0,B|316:349|252:333,1,77.0000023498536,10|2,0:0|0:0,0:0:0:0:
208,271,109356,1,2,1:2:0:0:
208,271,109532,1,2,1:2:0:0:
122,305,109708,2,0,L|104:379,1,77.0000023498536,10|2,0:0|0:0,0:0:0:0:
47,250,110062,6,0,B|24:157|96:189|93:93,1,154.000004699707,2|8,1:2|0:0,0:0:0:0:
31,40,110591,1,2,0:0:0:0:
115,3,110767,2,0,P|157:-10|197:5,1,77.0000023498536,0|2,1:2|1:2,0:0:0:0:
238,76,111120,2,0,P|273:88|310:79,1,77.0000023498536,8|0,0:0|0:0,0:0:0:0:
421,0,111473,5,6,1:2:0:0:
421,0,111650,1,2,1:2:0:0:
501,44,111826,2,0,B|519:80|519:80|510:130,1,77.0000023498536,10|2,0:0|0:0,0:0:0:0:
458,191,112179,2,0,B|362:175,1,77.0000023498536,2|2,1:2|1:2,0:0:0:0:
294,143,112532,1,10,0:0:0:0:
212,186,112709,6,0,P|145:218|57:237,1,154.000004699707,2|2,0:0|1:2,0:0:0:0:
17,314,113238,1,8,0:0:0:0:
103,344,113415,2,0,B|196:323|175:380|259:382,1,154.000004699707,2|2,0:0|1:2,0:0:0:0:
318,322,113944,1,8,0:0:0:0:
452,384,114120,1,8,0:0:0:0:
452,384,114208,1,8,0:0:0:0:
452,384,114297,6,0,L|470:310,1,77.0000023498536,6|2,1:2|1:2,0:0:0:0:
511,226,114650,2,0,P|512:188|493:149,1,77.0000023498536,10|2,0:0|0:0,0:0:0:0:
428,90,115003,1,2,1:2:0:0:
337,108,115179,2,0,P|283:92|239:57,1,77.0000023498536,2|10,1:2|0:0,0:0:0:0:
186,33,115532,6,0,B|92:4|117:91|16:59,1,154.000004699707,2|0,0:0|1:2,0:0:0:0:
9,150,116061,1,8,0:0:0:0:
80,208,116238,2,0,P|121:248|89:347,1,154.000004699707,2|2,0:0|1:2,0:0:0:0:
185,380,116767,2,0,L|270:361,1,77.0000023498536,8|2,0:0|0:0,0:0:0:0:
281,220,117120,6,0,L|366:201,1,77.0000023498536,6|2,1:2|1:2,0:0:0:0:
387,290,117473,2,0,L|472:309,1,77.0000023498536,10|2,0:0|0:0,0:0:0:0:
505,224,117826,2,0,B|509:190|509:190|485:151,1,77.0000023498536,2|2,1:2|1:2,0:0:0:0:
402,114,118179,1,8,0:0:0:0:
402,114,118356,1,2,0:0:0:0:
346,187,118532,6,0,L|263:162,1,77.0000023498536,0|10,1:2|0:0,0:0:0:0:
183,131,118885,1,8,0:0:0:0:
113,190,119061,1,2,1:2:0:0:
58,116,119238,2,0,P|75:81|98:50,1,77.0000023498536,2|8,1:2|0:0,0:0:0:0:
179,5,119591,2,0,P|217:9|253:21,1,77.0000023498536,8|8,0:0|0:0,0:0:0:0:
359,127,119944,5,6,1:2:0:0:
359,127,120120,1,2,1:2:0:0:
441,84,120297,2,0,P|455:47|465:11,1,77.0000023498536,10|2,0:0|0:0,0:0:0:0:
496,155,120650,1,2,1:2:0:0:
445,231,120826,1,2,1:2:0:0:
445,231,121003,2,0,P|460:296|460:334,1,77.0000023498536,10|2,0:0|0:0,0:0:0:0:
377,351,121356,6,0,P|338:355|301:366,1,77.0000023498536,2|0,1:2|1:2,0:0:0:0:
232,304,121708,1,8,0:0:0:0:
146,338,121885,2,0,P|68:344|19:263,1,154.000004699707,2|2,0:0|1:2,0:0:0:0:
79,217,122415,2,0,P|66:173|45:133,1,77.0000023498536,8|0,0:0|0:0,0:0:0:0:
0,0,122767,5,6,1:2:0:0:
0,0,122944,1,2,1:2:0:0:
78,47,123120,2,0,L|162:66,1,77.0000023498536,10|2,0:0|0:0,0:0:0:0:
184,151,123473,2,0,L|268:170,1,77.0000023498536,2|2,1:2|1:2,0:0:0:0:
320,98,123826,1,10,0:0:0:0:
408,126,124003,6,0,B|437:216|368:193|377:279,1,154.000004699707,2|2,0:0|1:2,0:0:0:0:
432,340,124532,1,8,0:0:0:0:
343,366,124709,2,0,B|299:349|299:349|255:379|255:379|191:375,1,154.000004699707,2|2,0:0|1:2,0:0:0:0:
112,349,125238,1,8,0:0:0:0:
72,215,125414,1,8,0:0:0:0:
72,215,125503,1,8,0:0:0:0:
72,215,125591,6,0,L|0:242,1,77.0000023498536,6|2,1:2|1:2,0:0:0:0:
133,160,125944,2,0,L|210:190,1,77.0000023498536,10|2,0:0|0:0,0:0:0:0:
260,261,126297,1,2,1:2:0:0:
260,261,126473,1,2,1:2:0:0:
336,208,126650,1,10,0:0:0:0:
408,264,126826,6,0,P|404:302|389:337,1,77.0000023498536,2|2,0:0|1:2,0:0:0:0:
490,220,127179,1,2,1:2:0:0:
490,220,127356,1,8,0:0:0:0:
451,136,127532,2,0,L|367:113,1,77.0000023498536,2|0,0:0|1:2,0:0:0:0:
315,45,127885,1,2,1:2:0:0:
315,45,128061,2,0,L|231:68,1,77.0000023498536,8|2,0:0|0:0,0:0:0:0:
185,204,128415,6,0,P|192:241|211:275,2,77.0000023498536,6|2|10,1:2|1:2|0:0,0:0:0:0:
110,148,128944,1,2,0:0:0:0:
39,206,129121,2,0,P|72:273|64:363,1,154.000004699707,10|2,0:0|0:0,0:0:0:0:
155,382,129650,1,2,1:2:0:0:
216,313,129826,6,0,L|200:237,1,77.0000023498536,8|0,0:0|1:2,0:0:0:0:
310,344,130179,1,0,1:2:0:0:
361,267,130356,1,0,1:2:0:0:
431,326,130532,1,8,0:0:0:0:
431,326,130708,1,0,1:2:0:0:
489,261,130885,2,0,L|477:180,1,77.0000023498536,0|0,0:0|1:2,0:0:0:0:
416,126,131238,6,0,B|272:130|366:218|181:242,1,245,4|0,1:2|1:2,0:0:0:0:
175,212,131944,1,4,1:2:0:0:
175,212,132650,6,0,B|218:266|218:266|205:358,1,140,2|2,0:0|0:0,0:0:0:0:
174,361,133091,1,2,0:0:0:0:
174,361,133180,1,2,0:0:0:0:
109,307,133356,1,2,0:0:0:0:
4,197,133709,2,0,L|20:148,1,35,2|0,0:0|0:0,0:0:0:0:
55,152,133885,1,0,0:0:0:0:
129,112,134062,6,0,B|221:105|243:250|355:224,1,245,4|0,1:2|0:0,0:0:0:0:
373,208,134768,1,4,1:2:0:0:
373,208,135474,1,2,0:0:0:0:
373,208,135827,1,2,0:0:0:0:
509,109,136180,2,0,L|496:47,2,46.6666666666667,2|2|2,0:0|0:0|0:0,0:0:0:0:
476,153,136532,2,0,P|437:129|403:114,1,70,8|0,0:0|1:2,0:0:0:0:
364,51,136885,6,0,P|310:88|226:103,1,140,6|2,1:2|0:0,0:0:0:0:
165,59,137415,1,2,1:2:0:0:
100,112,137591,1,10,0:0:0:0:
100,112,137768,2,0,L|122:192,1,70,2|0,1:2|0:0,0:0:0:0:
60,240,138121,6,0,B|79:330|107:275|122:366,1,140,2|2,1:2|0:0,0:0:0:0:
191,314,138650,2,0,P|235:319|270:328,1,70,2|2,1:2|1:2,0:0:0:0:
330,371,139003,2,0,P|374:366|409:357,1,70,10|0,0:0|1:2,0:0:0:0:
454,296,139356,1,10,0:0:0:0:
454,296,139532,1,2,1:2:0:0:
404,227,139709,6,0,P|345:185|272:223,1,140,6|2,1:2|0:0,0:0:0:0:
214,250,140238,1,0,1:2:0:0:
159,314,140415,2,0,P|100:356|27:318,1,140,10|2,0:0|0:0,0:0:0:0:
19,168,141121,6,0,L|29:131,7,35,0|0|0|0|8|0|0|0,1:2|1:2|1:2|1:2|0:0|1:2|1:2|1:2,0:0:0:0:
62,109,141827,2,0,L|52:72,7,35,0|0|0|0|8|0|0|0,1:2|1:2|1:2|1:2|0:0|1:0|1:0|1:2,0:0:0:0:
25,43,142532,6,0,P|86:58|166:59,1,140,6|2,1:2|0:0,0:0:0:0:
235,15,143062,1,2,1:2:0:0:
305,60,143238,2,0,P|305:112|292:155,1,70,10|2,0:0|0:0,0:0:0:0:
238,185,143591,2,0,P|251:235|258:266,1,70,2|2,0:0|1:2,0:0:0:0:
328,294,143944,5,10,0:0:0:0:
328,294,144121,1,0,0:0:0:0:
407,266,144297,2,0,P|411:218|420:182,1,70,2|10,1:2|0:0,0:0:0:0:
484,147,144650,2,0,P|480:99|471:63,1,70,2|0,0:0|1:2,0:0:0:0:
449,44,144915,1,0,1:2:0:0:
449,44,145003,1,8,0:3:0:0:
378,90,145180,1,8,0:0:0:0:
304,50,145356,6,0,B|228:45|253:103|165:113,1,140,6|2,1:2|1:2,0:0:0:0:
104,78,145885,1,2,1:2:0:0:
41,134,146062,1,10,0:0:0:0:
41,134,146238,2,0,P|53:193|58:209,1,70,2|0,0:0|0:0,0:0:0:0:
128,267,146591,1,2,1:2:0:0:
128,267,146680,1,0,1:2:0:0:
128,267,146768,6,0,B|161:270|216:261,1,70,10|0,0:0|0:0,0:0:0:0:
222,229,147032,2,0,B|255:226|310:235,1,70,10|0,0:0|0:0,0:0:0:0:
321,262,147297,1,10,0:0:0:0:
395,221,147474,2,0,P|389:186|375:154,1,70,10|0,0:0|0:0,0:0:0:0:
468,262,147827,2,0,P|462:296|448:328,1,70,2|0,1:2|0:0,0:0:0:0:
367,353,148180,6,0,B|284:330|314:388|228:382,1,140,6|2,1:2|0:0,0:0:0:0:
173,325,148709,1,2,1:2:0:0:
107,377,148885,1,10,0:0:0:0:
107,377,149062,1,2,1:2:0:0:
39,327,149238,2,0,P|35:269|31:241,1,70,0|2,0:0|1:2,0:0:0:0:
81,188,149591,6,0,P|139:143|197:178,1,140,6|2,1:2|0:0,0:0:0:0:
268,225,150121,1,2,1:2:0:0:
268,225,150209,1,2,1:2:0:0:
268,225,150297,2,0,L|349:197,1,70,10|0,0:0|1:2,0:0:0:0:
379,130,150650,2,0,L|460:158,1,70,2|2,0:0|1:2,0:0:0:0:
492,222,151003,6,0,P|486:153|484:75,1,140,6|2,1:2|1:2,0:0:0:0:
431,16,151532,1,2,1:2:0:0:
354,50,151709,2,0,P|300:58|273:67,1,70,10|2,0:0|1:2,0:0:0:0:
214,16,152062,2,0,P|160:37|117:47,1,70,10|2,0:0|1:2,0:0:0:0:
131,78,152327,1,0,1:2:0:0:
131,78,152415,5,8,0:3:0:0:
60,32,152591,1,8,0:0:0:0:
60,32,152680,1,8,0:0:0:0:
60,32,152768,2,0,L|70:-1,3,35,0|0|8|8,1:2|1:2|0:3|0:3,0:0:0:0:
26,58,153121,2,0,L|45:116,7,35,8|8|0|0|8|8|8|8,0:0|0:0|1:2|1:2|0:3|0:3|0:0|0:0,0:0:0:0:
74,118,153827,6,0,P|52:167|42:218,1,77.0000023498536,6|0,1:2|1:2,0:0:0:0:
116,250,154180,2,0,B|115:284|131:348,1,77.0000023498536,10|0,0:0|0:0,0:0:0:0:
217,340,154533,1,2,1:2:0:0:
217,340,154709,1,2,1:2:0:0:
292,286,154885,2,0,P|327:270|366:268,1,77.0000023498536,8|0,0:0|1:2,0:0:0:0:
395,355,155238,6,0,B|372:262|441:198,1,154.000004699707,2|8,0:0|0:0,0:0:0:0:
502,155,155768,1,2,0:0:0:0:
464,70,155944,2,0,P|422:57|382:72,1,77.0000023498536,0|2,1:2|1:2,0:0:0:0:
312,114,156297,2,0,P|277:126|240:117,1,77.0000023498536,8|8,0:0|0:0,0:0:0:0:
123,32,156650,5,6,1:2:0:0:
123,32,156827,1,0,1:2:0:0:
40,73,157003,2,0,B|22:109|22:109|31:159,1,77.0000023498536,10|0,0:0|0:0,0:0:0:0:
108,192,157356,2,0,B|92:288,1,77.0000023498536,0|0,1:2|1:2,0:0:0:0:
174,316,157709,1,8,0:0:0:0:
258,278,157885,6,0,P|249:206|234:112,1,154.000004699707,2|2,1:2|1:2,0:0:0:0:
207,36,158415,1,8,0:0:0:0:
292,1,158591,2,0,B|385:-20|364:37|448:39,1,154.000004699707,2|2,0:0|1:2,0:0:0:0:
474,123,159121,1,8,0:0:0:0:
414,255,159297,1,0,1:2:0:0:
414,255,159385,1,0,1:0:0:0:
414,255,159474,6,0,L|432:329,1,77.0000023498536,6|2,1:2|1:2,0:0:0:0:
349,370,159827,2,0,P|311:371|272:352,1,77.0000023498536,8|2,0:0|0:0,0:0:0:0:
236,272,160180,1,2,1:2:0:0:
146,248,160356,2,0,P|92:264|48:299,1,77.0000023498536,2|10,1:2|0:0,0:0:0:0:
42,361,160709,6,0,B|71:267|-16:292|16:191,1,154.000004699707,0|0,1:2|1:2,0:0:0:0:
54,136,161238,1,8,0:0:0:0:
140,169,161415,2,0,P|210:191|267:145,1,154.000004699707,2|2,0:0|1:2,0:0:0:0:
327,214,161944,2,0,L|412:195,1,77.0000023498536,8|0,0:0|1:2,0:0:0:0:
479,95,162297,6,0,P|474:64|430:17,1,77.0000023498536,6|0,1:2|1:2,0:0:0:0:
356,13,162650,2,0,L|271:32,1,77.0000023498536,10|0,0:0|0:0,0:0:0:0:
237,111,163003,2,0,L|152:130,1,77.0000023498536,0|0,1:2|1:2,0:0:0:0:
84,76,163356,1,8,0:0:0:0:
84,76,163533,1,0,1:2:0:0:
27,148,163709,6,0,L|52:231,1,77.0000023498536,0|8,1:2|0:0,0:0:0:0:
128,270,164062,1,0,1:2:0:0:
192,203,164238,1,8,0:0:0:0:
274,243,164415,2,0,P|257:278|251:316,1,77.0000023498536,0|8,1:2|0:0,0:0:0:0:
329,366,164768,2,0,L|418:385,1,77.0000023498536,0|8,1:2|0:0,0:0:0:0:
497,279,165121,5,6,1:2:0:0:
497,279,165297,1,2,1:2:0:0:
428,216,165474,2,0,P|442:179|452:143,1,77.0000023498536,10|2,0:0|0:0,0:0:0:0:
504,66,165827,1,2,1:2:0:0:
427,14,166003,1,2,1:2:0:0:
427,14,166180,2,0,P|362:-1|324:-1,1,77.0000023498536,10|2,0:0|0:0,0:0:0:0:
291,63,166533,6,0,P|280:99|276:138,1,77.0000023498536,2|0,1:2|1:2,0:0:0:0:
347,196,166885,1,8,0:0:0:0:
413,260,167062,2,0,B|389:368|389:368|338:387,1,154.000004699707,2|2,0:0|1:2,0:0:0:0:
294,307,167592,2,0,P|250:320|210:341,1,77.0000023498536,8|0,0:0|0:0,0:0:0:0:
92,384,167944,5,6,1:2:0:0:
92,384,168121,1,2,1:2:0:0:
17,330,168297,2,0,L|36:246,1,77.0000023498536,10|2,0:0|0:0,0:0:0:0:
2,167,168650,2,0,L|21:83,1,77.0000023498536,2|2,1:2|1:2,0:0:0:0:
103,53,169003,1,10,0:0:0:0:
168,118,169180,6,0,B|258:89|235:158|321:149,1,154.000004699707,2|2,0:0|1:2,0:0:0:0:
404,115,169709,1,8,0:0:0:0:
481,164,169885,2,0,B|492:243|490:333,1,154.000004699707,2|2,0:0|1:2,0:0:0:0:
407,360,170415,1,8,0:0:0:0:
305,256,170591,1,8,0:0:0:0:
305,256,170680,1,8,0:0:0:0:
305,256,170768,6,0,L|318:180,1,77.0000023498536,6|2,1:2|1:2,0:0:0:0:
225,173,171121,2,0,L|207:91,1,77.0000023498536,10|2,0:0|0:0,0:0:0:0:
266,25,171474,1,2,1:2:0:0:
266,25,171650,1,2,1:2:0:0:
175,6,171827,1,10,0:0:0:0:
110,72,172003,6,0,P|74:87|36:91,1,77.0000023498536,2|2,0:0|1:2,0:0:0:0:
4,178,172356,1,2,1:2:0:0:
79,231,172533,1,8,0:0:0:0:
21,303,172709,2,0,L|-2:387,1,77.0000023498536,2|0,0:0|1:2,0:0:0:0:
93,364,173062,1,2,1:2:0:0:
93,364,173238,2,0,P|131:368|177:387,1,77.0000023498536,8|2,0:0|1:2,0:0:0:0:
270,277,173591,6,0,P|263:240|244:206,2,77.0000023498536,6|2|10,1:2|1:2|0:0,0:0:0:0:
326,351,174121,1,2,1:2:0:0:
395,291,174297,2,0,B|407:252|407:252|366:144,1,154.000004699707,2|10,1:2|0:0,0:0:0:0:
434,81,174827,1,2,1:2:0:0:
356,31,175003,6,0,L|280:47,1,77.0000023498536,2|8,1:2|0:0,0:0:0:0:
237,30,175268,1,8,0:0:0:0:
237,30,175356,1,2,1:2:0:0:
161,83,175533,1,8,0:0:0:0:
74,52,175709,1,0,1:2:0:0:
74,52,175885,1,0,1:2:0:0:
2,120,176062,2,0,P|-1:163|27:211,1,77.0000023498536,0|0,1:2|1:2,0:0:0:0:
52,215,176327,1,8,0:0:0:0:
52,215,176415,6,0,B|132:194|113:251|200:242,1,140,4|10,1:2|0:0,0:0:0:0:
236,176,176944,1,0,0:0:0:0:
310,136,177121,2,0,P|353:155|377:174,1,70,2|2,1:2|1:2,0:0:0:0:
449,137,177474,2,0,P|465:180|469:211,1,70,10|2,0:0|0:0,0:0:0:0:
407,261,177827,5,2,1:2:0:0:
407,261,178003,1,2,1:2:0:0:
474,317,178180,1,10,0:0:0:0:
474,317,178356,1,2,0:0:0:0:
413,374,178532,2,0,P|354:355|261:337,1,140,2|10,1:2|0:0,0:0:0:0:
197,367,179062,1,2,0:0:0:0:
135,310,179238,6,0,B|111:272|111:272|143:181,1,140,6|10,1:2|0:0,0:0:0:0:
209,130,179768,1,2,0:0:0:0:
151,68,179944,2,0,L|76:78,2,70,2|2|10,1:2|1:2|0:0,0:0:0:0:
212,9,180474,6,0,B|267:23|267:23|293:47|293:47|364:49,1,140,2|2,1:2|1:2,0:0:0:0:
415,8,181003,1,8,0:0:0:0:
480,60,181180,2,0,P|488:103|435:189,1,140,2|2,0:0|1:2,0:0:0:0:
368,144,181709,1,10,0:0:0:0:
293,182,181885,1,2,1:2:0:0:
293,182,181974,1,8,0:0:0:0:
293,182,182062,6,0,P|218:158|136:151,1,140,6|10,1:2|0:0,0:0:0:0:
81,186,182591,1,2,0:0:0:0:
37,257,182768,1,2,1:2:0:0:
37,257,182944,2,0,P|57:322|61:341,1,70,2|8,1:2|0:0,0:0:0:0:
133,359,183297,1,2,0:0:0:0:
201,309,183474,6,0,B|236:301|236:301|280:321,1,70,2|0,1:2|1:2,0:0:0:0:
330,370,183827,2,0,B|365:378|365:378|409:358,1,70,8|2,0:0|0:0,0:0:0:0:
449,298,184180,2,0,P|456:253|485:152,1,140,2|10,1:2|0:0,0:0:0:0:
426,97,184709,1,2,0:0:0:0:
355,142,184885,6,0,B|277:132|296:183|212:184,1,140,6|10,1:2|0:0,0:0:0:0:
158,234,185415,1,0,0:0:0:0:
85,191,185591,2,0,B|80:157|80:157|99:109,1,70,2|2,1:2|1:2,0:0:0:0:
140,54,185944,2,0,L|222:68,1,70,10|2,0:0|1:2,0:0:0:0:
241,38,186209,1,0,1:2:0:0:
241,38,186297,6,0,L|323:24,1,70,2|8,1:2|0:0,0:0:0:0:
379,73,186650,1,2,1:2:0:0:
379,73,186827,1,2,1:2:0:0:
460,52,187003,2,0,P|473:87|460:130,1,70,10|2,0:0|1:2,0:0:0:0:
427,192,187356,2,0,L|388:178,3,35,10|8|8|8,0:3|3:0|0:0|0:0,0:0:0:0:
369,214,187709,6,0,L|211:248,1,140,6|10,1:2|0:0,0:0:0:0:
151,214,188238,1,0,1:2:0:0:
83,264,188415,2,0,B|82:299|82:299|102:344,1,70,2|2,1:2|1:2,0:0:0:0:
171,369,188768,2,0,L|246:349,1,70,10|2,0:0|1:2,0:0:0:0:
294,287,189121,5,2,1:2:0:0:
294,287,189297,1,0,1:2:0:0:
362,335,189474,1,10,0:0:0:0:
362,335,189650,1,0,1:2:0:0:
424,278,189827,2,0,P|446:242|394:146,1,140,2|10,1:2|0:0,0:0:0:0:
339,119,190356,1,2,1:2:0:0:
275,173,190532,6,0,B|232:165|232:165|195:177|195:177|139:168,1,140,6|10,1:2|0:0,0:0:0:0:
65,210,191062,1,2,1:2:0:0:
8,148,191238,2,0,P|13:97|34:65,1,70,2|2,1:2|1:2,0:0:0:0:
88,30,191591,1,10,0:0:0:0:
161,71,191768,1,2,1:2:0:0:
221,13,191944,5,2,1:2:0:0:
221,13,192121,1,2,1:2:0:0:
289,61,192297,2,0,P|292:109|287:152,1,70,10|2,0:0|1:2,0:0:0:0:
348,191,192650,1,0,1:2:0:0:
348,191,192827,1,2,1:2:0:0:
279,238,193003,2,0,P|245:220|211:212,1,70,10|0,0:0|1:2,0:0:0:0:
185,243,193268,1,8,0:0:0:0:
167,280,193356,6,0,P|136:297|102:306,1,70,6|0,1:2|1:2,0:0:0:0:
212,351,193709,2,0,P|246:369|280:377,1,70,10|2,0:0|1:2,0:0:0:0:
336,317,194062,1,2,1:2:0:0:
408,359,194238,1,2,1:2:0:0:
408,359,194415,1,8,0:0:0:0:
474,307,194591,1,2,1:2:0:0:
474,307,194768,6,0,L|467:235,1,70,2|0,1:2|1:2,0:0:0:0:
385,216,195121,2,0,L|392:144,1,70,8|0,0:0|1:2,0:0:0:0:
456,92,195474,1,2,1:2:0:0:
456,92,195650,1,0,1:2:0:0:
394,34,195827,1,10,0:0:0:0:
394,34,196003,1,2,1:2:0:0:
321,77,196180,6,0,B|252:78|266:158|191:155,1,140,4|10,1:2|0:0,0:0:0:0:
137,111,196709,1,0,1:2:0:0:
77,170,196885,2,0,B|70:206|70:206|93:256,1,70,2|2,1:2|1:2,0:0:0:0:
132,305,197238,2,0,P|193:305|211:307,1,70,10|0,0:0|1:2,0:0:0:0:
267,253,197591,6,0,P|328:253|346:251,1,70,8|2,0:0|1:2,0:0:0:0:
400,307,197944,1,0,1:2:0:0:
465,254,198121,1,2,1:2:0:0:
465,254,198209,1,0,1:2:0:0:
465,254,198297,2,0,L|450:178,1,70,8|2,0:0|1:2,0:0:0:0:
508,123,198650,2,0,L|493:47,1,70,2|2,0:0|1:2,0:0:0:0:
421,13,199003,6,0,B|256:19|341:140|176:155,1,280,6|6,1:2|1:2,0:0:0:0:
