osu file format v14

[General]
AudioFilename: audio.mp3
AudioLeadIn: 0
PreviewTime: 58091
Countdown: 0
SampleSet: Soft
StackLeniency: 0.7
Mode: 0
LetterboxInBreaks: 0
WidescreenStoryboard: 0

[Editor]
DistanceSpacing: 0.9
BeatDivisor: 4
GridSize: 32
TimelineZoom: 1

[Metadata]
Title:Hooked Again
TitleUnicode:Hooked Again
Artist:Carpool Tunnel
ArtistUnicode:Carpool Tunnel
Creator:-Aqua
Version:Easy
Source:osu!
Tags:Hinsvar Onlybiscuit english indie rock fa featured artist mpg mappers' guild
BeatmapID:2194777
BeatmapSetID:1050185

[Difficulty]
HPDrainRate:2
CircleSize:3
OverallDifficulty:2
ApproachRate:4
SliderMultiplier:1
SliderTickRate:1

[Events]
//Background and Video events
0,0,"lost-places-3994109_1920.jpg",0,0
//Break Periods
//Storyboard Layer 0 (Background)
//Storyboard Layer 1 (Fail)
//Storyboard Layer 2 (Pass)
//Storyboard Layer 3 (Foreground)
//Storyboard Layer 4 (Overlay)
//Storyboard Sound Samples

[TimingPoints]
1398,352.941176470588,4,2,1,40,1,0
12692,-100,4,2,1,50,0,0
21162,342.857142857143,4,2,1,50,1,0
22533,352.941176470588,4,2,1,50,1,0
23944,-100,4,2,1,65,0,0
35238,-100,4,2,1,50,0,0
57827,-100,4,2,1,40,0,0
63474,-100,4,2,1,75,0,1
86062,-100,4,2,1,50,0,0
108650,-100,4,2,1,75,0,1
131238,-100,4,2,1,60,0,0
136885,-100,4,2,1,65,0,0
146944,-100,4,2,1,5,0,0
147032,-100,4,2,1,65,0,0
147121,-100,4,2,1,5,0,0
147209,-100,4,2,1,65,0,0
153827,-100,4,2,1,75,0,1
176415,-100,4,2,1,60,0,0
187709,-100,4,2,1,65,0,0
194768,-100,4,2,1,70,0,0

[Colours]
Combo1 : 192,192,192
Combo2 : 255,188,155
Combo3 : 255,128,128

[HitObjects]
32,256,1398,6,0,L|158:278,1,100,2|2,0:0|0:0,0:0:0:0:
205,223,2103,1,2,0:0:0:0:
332,249,2633,2,0,P|350:309|357:361,1,100,2|2,0:0|0:0,0:0:0:0:
439,378,3339,2,0,P|447:328|498:239,1,150,2|2,0:0|0:0,0:0:0:0:
509,152,4221,6,0,P|475:112|408:126,1,100,2|2,0:0|0:0,0:0:0:0:
370,178,4927,1,2,0:0:0:0:
242,133,5456,2,0,B|196:109|196:109|89:130,1,150,2|2,0:0|0:0,0:0:0:0:
47,201,6339,2,0,P|13:152|15:91,1,100,2|2,0:0|0:0,0:0:0:0:
62,39,7045,6,0,L|181:15,1,100,2|2,0:0|0:0,0:0:0:0:
224,82,7750,1,2,0:0:0:0:
342,42,8280,2,0,P|373:101|374:169,1,100,2|2,0:0|0:0,0:0:0:0:
360,221,8986,2,0,L|207:182,1,150,2|2,0:0|0:0,0:0:0:0:
137,229,9868,6,0,P|110:274|137:345,1,100,2|2,0:0|0:0,0:0:0:0:
191,367,10574,1,2,0:0:0:0:
310,330,11103,2,0,B|401:304|371:375|481:369,1,150,2|2,0:0|0:0,0:0:0:0:
508,301,11986,1,2,0:0:0:0:
453,229,12339,1,2,0:0:0:0:
508,157,12692,6,0,P|501:107|476:64,1,100,2|10,1:2|0:0,0:0:0:0:
402,14,13397,1,2,0:0:0:0:
282,76,13927,2,0,L|184:53,1,100,2|2,0:0|1:2,0:0:0:0:
102,14,14633,1,2,0:0:0:0:
28,66,14986,2,0,L|48:140,1,50,2|10,1:2|0:0,0:0:0:0:
4,196,15515,5,2,1:2:0:0:
72,255,15868,1,10,0:0:0:0:
5,315,16221,1,2,0:0:0:0:
124,378,16750,2,0,P|215:361|267:328,1,150,2|10,0:0|0:0,0:0:0:0:
337,382,17633,2,0,P|386:361|437:353,1,100,2|10,0:0|0:0,0:0:0:0:
494,288,18339,6,0,P|491:239|456:205,1,100,2|10,1:2|0:0,0:0:0:0:
366,185,19045,2,0,P|277:202|239:219,1,100,2|8,0:0|0:0,0:0:0:0:
188,163,19750,1,0,0:0:0:0:
129,231,20103,1,10,0:0:0:0:
50,186,20456,2,0,P|20:132|42:82,1,100,0|10,0:0|0:0,0:0:0:0:
88,26,21162,5,6,1:2:0:0:
167,67,21504,1,14,0:0:0:0:
238,12,21847,2,0,P|313:31|367:61,1,100,14|8,0:0|0:0,0:0:0:0:
414,6,22533,1,8,0:0:0:0:
414,6,23944,6,0,P|429:74|442:108,1,100,6|10,1:2|0:0,0:0:0:0:
505,164,24650,1,2,1:2:0:0:
426,270,25180,2,0,P|385:230|306:229,1,100,2|2,1:2|1:2,0:0:0:0:
267,174,25885,2,0,P|225:226|127:211,1,150,2|10,0:0|0:0,0:0:0:0:
65,185,26768,5,6,1:2:0:0:
9,255,27121,1,10,0:0:0:0:
48,335,27474,1,2,0:0:0:0:
177,305,28003,2,0,P|229:272|288:267,1,100,2|2,1:2|1:2,0:0:0:0:
334,324,28709,2,0,B|424:316|379:382|483:376,1,150,2|8,1:2|0:0,0:0:0:0:
504,294,29591,6,0,P|513:235|505:169,1,100,6|10,1:2|0:0,0:0:0:0:
436,143,30297,1,2,1:2:0:0:
338,232,30827,2,0,P|274:205|210:192,1,100,2|2,1:2|1:2,0:0:0:0:
207,279,31532,2,0,B|177:306|177:306|52:288,1,150,2|10,0:0|0:0,0:0:0:0:
2,229,32415,5,6,1:2:0:0:
74,174,32768,1,10,0:0:0:0:
15,105,33121,1,2,0:0:0:0:
122,23,33650,2,0,P|185:-2|233:3,1,100,2|8,1:2|0:0,0:0:0:0:
275,67,34356,1,10,0:0:0:0:
212,133,34709,2,0,L|230:194,1,50,10|10,0:3|0:0,0:0:0:0:
309,215,35238,5,4,1:2:0:0:
259,290,35591,1,10,0:0:0:0:
315,360,35944,2,0,B|411:333|378:400|466:381,1,150,2|2,1:2|0:0,0:0:0:0:
505,307,36827,1,0,1:2:0:0:
444,240,37180,2,0,P|459:166|479:88,1,150,2|8,0:0|0:0,0:0:0:0:
427,18,38062,6,0,P|371:-4|316:22,1,100,4|8,1:2|0:0,0:0:0:0:
264,63,38768,1,2,1:2:0:0:
312,138,39121,1,10,0:0:0:0:
258,210,39474,2,0,P|268:265|276:365,1,150,2|8,1:2|0:0,0:0:0:0:
145,322,40532,1,8,0:0:0:0:
61,356,40885,6,0,P|31:317|37:268,1,100,4|10,1:2|0:0,0:0:0:0:
109,216,41591,2,0,P|115:167|85:128,1,100,2|10,1:2|0:0,0:0:0:0:
45,48,42297,2,0,B|137:13|109:91|213:71,1,150,2|2,1:2|0:0,0:0:0:0:
306,20,43356,1,8,0:0:0:0:
382,67,43709,6,0,B|403:103|403:103|393:167,1,100,4|8,1:2|0:0,0:0:0:0:
333,227,44415,1,0,1:2:0:0:
219,153,44944,2,0,B|130:135|165:199|71:203,1,150,2|8,0:0|0:0,0:0:0:0:
21,265,45827,2,0,P|9:287|2:311,1,50,0|8,1:2|0:0,0:0:0:0:
127,359,46532,5,4,1:2:0:0:
200,307,46885,1,10,0:0:0:0:
272,363,47238,2,0,B|323:349|323:349|367:366|367:366|416:354,1,150,2|2,1:2|0:0,0:0:0:0:
480,291,48121,1,0,1:2:0:0:
443,208,48474,2,0,P|379:167|317:197,1,150,2|8,0:0|0:0,0:0:0:0:
266,269,49356,5,4,1:2:0:0:
191,218,49709,1,8,0:0:0:0:
138,291,50062,2,0,P|88:282|39:277,1,100,2|10,1:2|0:0,0:0:0:0:
3,194,50768,2,0,P|-16:139|59:88,1,150,2|2,1:2|0:0,0:0:0:0:
115,28,51650,2,0,P|149:45|188:60,1,50,0|8,1:2|0:0,0:0:0:0:
219,117,52180,6,0,P|279:89|311:64,1,100,4|10,1:2|0:0,0:0:0:0:
375,124,52885,1,2,1:2:0:0:
448,72,53238,1,8,0:0:0:0:
509,138,53591,2,0,P|485:200|484:254,1,100,2|10,1:2|0:0,0:0:0:0:
432,307,54297,2,0,P|399:269|357:242,1,100,0|8,1:2|0:0,0:0:0:0:
281,291,55003,5,4,1:2:0:0:
206,240,55356,1,8,0:0:0:0:
136,296,55709,1,0,1:2:0:0:
41,199,56238,2,0,P|23:125|-5:46,1,150,2|0,0:0|1:2,0:0:0:0:
78,13,57121,1,8,0:0:0:0:
133,83,57474,1,8,0:3:0:0:
221,65,57827,5,4,1:2:0:0:
228,135,60650,6,0,P|245:197|253:248,1,100,0|0,3:0|3:0,0:0:0:0:
327,279,61356,2,0,P|368:318|439:308,1,100,0|0,3:0|3:0,0:0:0:0:
473,258,62062,2,0,P|494:197|512:164,1,100,4|4,0:2|0:2,0:0:0:0:
443,107,62768,1,4,0:2:0:0:
368,157,63121,1,8,0:0:0:0:
289,112,63474,6,0,B|253:96|253:96|176:115,1,100,6|10,1:2|0:0,0:0:0:0:
137,40,64180,2,0,P|73:35|34:63,1,100,2|10,1:2|0:0,0:0:0:0:
1,131,64885,2,0,B|11:163|33:178|33:178|12:228|31:271,1,150,2|2,1:2|0:0,0:0:0:0:
0,353,65768,1,2,1:2:0:0:
131,382,66297,6,0,L|230:346,1,100,6|10,1:2|0:0,0:0:0:0:
309,314,67003,1,2,1:2:0:0:
431,353,67532,2,0,P|436:304|412:260,1,100,2|2,0:0|1:2,0:0:0:0:
343,202,68238,2,0,P|270:225|192:225,1,150,2|8,0:0|0:0,0:0:0:0:
138,156,69121,5,6,1:2:0:0:
53,188,69474,1,10,0:0:0:0:
0,114,69827,1,2,1:2:0:0:
89,28,70356,2,0,B|123:16|123:16|192:37,1,100,2|0,0:0|1:2,0:0:0:0:
245,100,71062,2,0,B|334:64|312:135|395:109,1,150,2|8,0:0|0:0,0:0:0:0:
468,72,71944,5,6,1:2:0:0:
505,153,72297,1,10,0:0:0:0:
428,199,72650,2,0,B|409:244|409:244|424:303,1,100,2|8,1:2|0:0,0:0:0:0:
490,351,73356,2,0,P|451:380|391:375,1,100,0|8,1:2|0:0,0:0:0:0:
334,330,74062,1,0,1:2:0:0:
258,378,74415,1,8,0:0:0:0:
197,311,74768,6,0,P|133:323|91:334,1,100,6|10,1:2|0:0,0:0:0:0:
23,282,75474,2,0,P|32:250|59:161,1,100,2|10,1:2|0:0,0:0:0:0:
141,178,76180,2,0,P|151:106|104:50,1,150,2|2,1:2|0:0,0:0:0:0:
183,8,77062,1,2,1:2:0:0:
269,111,77591,6,0,B|334:96|315:136|373:124,1,100,6|10,1:2|0:0,0:0:0:0:
457,113,78297,1,2,1:2:0:0:
381,1,78827,2,0,P|303:1|255:44,1,100,2|2,0:0|1:2,0:0:0:0:
207,56,79532,2,0,B|116:46|149:114|52:101,1,150,2|8,0:0|0:0,0:0:0:0:
12,171,80415,5,6,1:2:0:0:
82,226,80768,1,10,0:0:0:0:
25,303,81121,1,2,1:2:0:0:
135,380,81650,2,0,P|201:363|278:368,1,100,2|0,0:0|1:2,0:0:0:0:
282,286,82356,2,0,P|348:303|425:298,1,100,2|2,0:0|1:2,0:0:0:0:
431,179,83238,5,6,1:2:0:0:
355,130,83591,1,10,0:0:0:0:
283,184,83944,2,0,B|195:176|230:233|145:231,1,150,2|2,1:2|0:0,0:0:0:0:
69,194,84827,1,10,0:0:0:0:
38,64,85356,1,8,0:0:0:0:
115,18,85709,1,8,0:0:0:0:
185,73,86062,6,0,P|273:49|306:47,1,100,4|10,1:2|0:0,0:0:0:0:
339,116,86768,2,0,P|427:140|460:142,1,100,2|10,1:2|0:0,0:0:0:0:
496,206,87474,1,0,1:2:0:0:
429,266,87827,1,8,0:0:0:0:
455,351,88180,2,0,P|406:347|332:336,1,100,0|8,1:2|0:0,0:0:0:0:
273,377,88885,5,4,1:2:0:0:
208,313,89238,1,10,0:0:0:0:
132,359,89591,2,0,P|69:344|19:336,1,100,2|10,1:2|0:0,0:0:0:0:
2,253,90297,2,0,P|-18:193|55:118,1,150,2|2,1:2|0:0,0:0:0:0:
115,103,91180,2,0,P|154:134|172:140,1,50,0|8,1:2|0:0,0:0:0:0:
240,158,91709,5,4,1:2:0:0:
201,239,92062,1,10,0:0:0:0:
258,308,92415,2,0,P|304:284|352:275,1,100,2|10,1:2|0:0,0:0:0:0:
423,328,93121,2,0,L|458:210,1,100,2|8,1:2|0:0,0:0:0:0:
408,152,93827,1,0,1:2:0:0:
485,106,94180,1,8,0:0:0:0:
458,20,94532,6,0,P|400:2|357:0,1,100,4|8,1:2|0:0,0:0:0:0:
292,59,95238,1,0,1:2:0:0:
176,15,95768,2,0,P|114:53|43:33,1,150,2|0,0:0|1:2,0:0:0:0:
19,120,96650,1,8,0:0:0:0:
78,187,97003,1,8,0:0:0:0:
19,255,97356,6,0,L|44:358,1,100,4|10,1:2|0:0,0:0:0:0:
129,377,98062,2,0,P|193:343|288:332,1,150,10|2,0:3|0:0,0:0:0:0:
316,254,98944,2,0,P|375:277|393:292,1,50,0|8,1:2|0:0,0:0:0:0:
398,352,99474,1,8,0:3:0:0:
487,361,99827,1,8,0:0:0:0:
508,273,100180,6,0,P|510:223|494:176,1,100,4|8,1:2|0:0,0:0:0:0:
414,134,100885,1,10,0:3:0:0:
375,215,101238,1,10,0:0:0:0:
293,175,101591,2,0,B|216:148|237:226|137:212,1,150,2|2,1:2|1:2,0:0:0:0:
73,175,102474,2,0,P|63:153|55:124,1,50,0|8,1:2|0:0,0:0:0:0:
97,48,103003,6,0,P|147:84|215:91,1,100,4|10,1:2|0:0,0:0:0:0:
242,160,103709,2,0,P|292:124|360:117,1,100,10|8,0:3|0:0,0:0:0:0:
394,177,104415,1,0,1:2:0:0:
443,101,104768,1,8,0:0:0:0:
504,167,105121,2,0,B|523:216|523:216|510:275,1,100,8|8,0:3|0:0,0:0:0:0:
424,280,105827,6,0,P|379:247|292:252,1,100,4|8,1:2|0:0,0:0:0:0:
290,317,106532,2,0,P|245:350|158:345,1,100,4|8,1:2|0:0,0:0:0:0:
140,290,107238,1,4,1:2:0:0:
63,338,107591,1,8,0:0:0:0:
1,272,107944,2,0,P|7:214|8:157,1,100,0|8,1:2|0:0,0:0:0:0:
89,128,108650,6,0,B|136:166|200:152,1,100,6|10,1:2|0:0,0:0:0:0:
228,232,109356,2,0,B|275:194|339:208,1,100,2|10,1:2|0:0,0:0:0:0:
377,275,110061,2,0,B|340:193|416:133,1,150,2|2,1:2|0:0,0:0:0:0:
492,108,110944,1,2,1:2:0:0:
379,33,111474,6,0,L|280:-3,1,100,6|10,1:2|0:0,0:0:0:0:
228,69,112180,1,2,1:2:0:0:
103,16,112709,2,0,B|80:62|80:62|83:125,1,100,2|2,0:0|1:2,0:0:0:0:
9,163,113414,2,0,P|32:236|32:314,1,150,2|8,0:0|0:0,0:0:0:0:
99,369,114297,5,6,1:2:0:0:
148,293,114650,1,10,0:0:0:0:
225,335,115003,1,2,1:2:0:0:
327,256,115532,2,0,B|361:244|361:244|430:265,1,100,2|0,0:0|1:2,0:0:0:0:
474,336,116238,2,0,B|438:247|509:269|483:186,1,150,2|8,0:0|0:0,0:0:0:0:
440,115,117120,5,6,1:2:0:0:
360,156,117473,1,10,0:0:0:0:
304,84,117827,2,0,L|202:50,1,100,2|8,1:2|0:0,0:0:0:0:
143,114,118532,2,0,P|114:153|119:213,1,100,0|8,1:2|0:0,0:0:0:0:
169,274,119238,1,2,1:2:0:0:
127,353,119591,1,8,0:0:0:0:
40,326,119944,6,0,P|28:262|17:220,1,100,6|10,1:2|0:0,0:0:0:0:
88,170,120650,2,0,P|100:106|111:64,1,100,2|10,1:2|0:0,0:0:0:0:
184,23,121356,2,0,P|231:8|342:3,1,150,2|2,1:2|0:0,0:0:0:0:
392,67,122238,1,2,1:2:0:0:
450,189,122768,6,0,B|465:254|425:235|437:293,1,100,6|10,1:2|0:0,0:0:0:0:
496,351,123474,1,2,1:2:0:0:
363,373,124003,2,0,P|285:373|237:330,1,100,2|2,0:0|1:2,0:0:0:0:
238,278,124708,2,0,B|147:268|180:336|83:323,1,150,2|8,0:0|0:0,0:0:0:0:
25,275,125591,5,6,1:2:0:0:
85,208,125944,1,10,0:0:0:0:
16,152,126297,1,2,1:2:0:0:
71,28,126827,2,0,P|137:11|214:16,1,100,2|2,0:0|1:2,0:0:0:0:
206,91,127532,2,0,P|272:108|349:103,1,100,2|2,0:0|1:2,0:0:0:0:
418,37,128414,5,6,1:2:0:0:
492,86,128767,1,10,0:0:0:0:
444,162,129120,2,0,B|356:154|391:211|306:209,1,150,10|2,0:0|1:2,0:0:0:0:
238,151,130003,1,0,1:2:0:0:
191,30,130532,1,8,0:0:0:0:
114,78,130885,1,0,0:0:0:0:
41,24,131238,6,0,P|70:78|82:218,1,200,4|4,1:2|1:2,0:0:0:0:
206,345,132650,2,0,P|287:308|319:303,1,100,2|2,0:0|0:0,0:0:0:0:
362,368,133356,1,2,0:0:0:0:
427,306,133709,1,2,0:0:0:0:
495,364,134062,6,0,P|462:306|439:177,1,200,4|4,1:2|1:2,0:0:0:0:
494,18,136532,1,8,0:0:0:0:
449,96,136885,6,0,B|384:85|413:125|318:117,1,100,6|2,1:2|0:0,0:0:0:0:
283,59,137591,1,10,0:0:0:0:
199,162,138121,2,0,P|226:237|236:320,1,150,2|2,1:2|1:2,0:0:0:0:
172,369,139003,1,10,0:0:0:0:
110,302,139356,1,10,0:0:0:0:
39,371,139709,6,0,P|24:328|0:280,1,100,6|2,1:2|0:0,0:0:0:0:
66,219,140415,2,0,P|81:176|105:128,1,100,10|2,0:0|0:0,0:0:0:0:
63,47,141121,1,0,1:2:0:0:
142,4,141474,1,8,0:0:0:0:
210,62,141827,1,0,1:2:0:0:
284,12,142180,1,8,0:0:0:0:
355,65,142532,6,0,P|373:127|381:178,1,100,6|2,1:2|0:0,0:0:0:0:
451,215,143238,2,0,P|433:277|425:328,1,100,10|2,0:0|0:0,0:0:0:0:
359,372,143944,1,10,0:0:0:0:
283,322,144297,1,2,1:2:0:0:
202,363,144650,2,0,P|135:334|88:325,1,100,2|8,0:0|0:3,0:0:0:0:
56,254,145356,6,0,P|104:240|149:218,1,100,6|2,1:2|1:2,0:0:0:0:
198,143,146062,1,10,0:0:0:0:
314,216,146591,2,0,P|332:266|346:347,2,125,2|10|10,1:2|0:0|0:0,0:0:0:0:
385,161,147827,1,2,1:2:0:0:
329,89,148180,6,0,P|274:65|225:58,1,100,6|2,1:2|0:0,0:0:0:0:
161,110,148885,1,10,0:0:0:0:
79,71,149238,1,0,0:0:0:0:
20,139,149591,2,0,P|53:198|61:234,1,100,6|2,1:2|0:0,0:0:0:0:
19,309,150297,1,10,0:0:0:0:
94,357,150650,1,2,0:0:0:0:
170,308,151003,6,0,B|231:298|221:337|282:332,1,100,6|2,1:2|1:2,0:0:0:0:
343,375,151709,2,0,P|405:365|444:341,1,100,10|10,0:0|0:0,0:0:0:0:
500,283,152415,1,8,0:3:0:0:
429,226,152768,1,0,1:2:0:0:
490,160,153121,1,8,0:0:0:0:
421,101,153474,1,8,0:3:0:0:
423,11,153827,6,0,B|371:27|312:35,1,100,6|10,1:2|0:0,0:0:0:0:
291,116,154532,2,0,L|181:88,1,100,2|8,1:2|0:0,0:0:0:0:
135,23,155238,2,0,B|53:-14|-7:62,1,150,2|2,0:0|0:0,0:0:0:0:
24,140,156121,1,2,1:2:0:0:
55,271,156650,6,0,L|158:289,1,100,6|10,1:2|0:0,0:0:0:0:
219,349,157356,1,0,1:2:0:0:
344,300,157885,2,0,P|338:251|309:198,1,100,2|2,1:2|1:2,0:0:0:0:
404,191,158591,2,0,P|405:116|427:45,1,150,2|8,0:0|0:0,0:0:0:0:
348,2,159474,5,6,1:2:0:0:
292,73,159827,1,8,0:0:0:0:
213,29,160180,2,0,P|146:40|98:58,1,100,2|10,1:2|0:0,0:0:0:0:
60,120,160885,2,0,B|48:154|48:154|96:276,1,150,2|2,0:0|0:0,0:0:0:0:
169,302,161768,1,2,1:2:0:0:
263,206,162297,5,6,1:2:0:0:
339,252,162650,1,10,0:0:0:0:
393,180,163003,2,0,P|428:143|478:175,1,100,0|8,1:2|0:0,0:0:0:0:
511,237,163709,2,0,P|506:292|498:343,1,100,0|0,1:2|1:2,0:0:0:0:
419,381,164415,1,0,1:2:0:0:
349,323,164768,1,0,1:2:0:0:
268,364,165121,6,0,P|204:376|162:387,1,100,6|10,1:2|0:0,0:0:0:0:
87,348,165827,2,0,B|51:310|51:310|50:245,1,100,2|10,1:2|0:0,0:0:0:0:
131,222,166533,2,0,P|146:175|83:85,1,150,2|2,1:2|0:0,0:0:0:0:
16,56,167415,1,2,1:2:0:0:
152,0,167944,6,0,B|217:-15|198:25|256:13,1,100,6|10,1:2|0:0,0:0:0:0:
307,82,168650,1,2,1:2:0:0:
420,159,169180,2,0,P|420:237|377:285,1,100,2|2,0:0|1:2,0:0:0:0:
345,317,169885,2,0,B|254:307|287:375|190:362,1,150,2|8,0:0|0:0,0:0:0:0:
144,299,170768,5,6,1:2:0:0:
87,369,171121,1,10,0:0:0:0:
10,320,171474,1,2,1:2:0:0:
53,196,172003,2,0,P|49:146|34:98,1,100,2|2,0:0|1:2,0:0:0:0:
99,35,172709,2,0,P|148:38|196:53,1,100,2|2,0:0|1:2,0:0:0:0:
278,160,173591,5,6,1:2:0:0:
354,113,173944,1,10,0:0:0:0:
433,155,174297,2,0,B|469:194|469:194|442:308,1,150,2|2,1:2|1:2,0:0:0:0:
381,351,175180,1,8,0:0:0:0:
268,277,175709,1,0,1:2:0:0:
191,324,176062,1,0,1:2:0:0:
114,277,176415,6,0,P|69:254|22:237,1,100,4|10,1:2|0:0,0:0:0:0:
3,149,177121,1,2,1:2:0:0:
80,103,177474,1,10,0:0:0:0:
134,174,177827,2,0,P|207:204|247:213,1,100,2|10,1:2|0:0,0:0:0:0:
293,148,178532,2,0,P|338:127|386:112,1,100,2|10,1:2|0:0,0:0:0:0:
457,168,179238,5,6,1:2:0:0:
507,93,179591,1,10,0:0:0:0:
449,23,179944,2,0,P|381:9|339:5,1,100,2|10,1:2|0:0,0:0:0:0:
299,80,180650,2,0,P|231:94|189:98,1,100,0|8,1:2|0:0,0:0:0:0:
142,28,181356,2,0,P|103:74|114:124,1,100,0|10,1:2|0:0,0:0:0:0:
162,181,182062,5,6,1:2:0:0:
115,257,182415,1,10,0:0:0:0:
181,317,182768,2,0,P|239:295|281:288,1,100,2|8,1:2|0:0,0:0:0:0:
296,200,183474,2,0,P|344:209|391:228,1,100,2|8,1:2|0:0,0:0:0:0:
451,295,184180,1,2,1:2:0:0:
508,225,184532,1,10,0:0:0:0:
461,147,184885,6,0,P|471:82|490:48,1,100,6|10,1:2|0:0,0:0:0:0:
407,8,185591,2,0,P|357:12|312:33,1,100,2|10,1:2|0:0,0:0:0:0:
263,109,186297,2,0,P|213:104|168:83,1,100,2|2,1:2|1:2,0:0:0:0:
107,16,187003,1,10,0:0:0:0:
34,69,187356,1,10,0:3:0:0:
71,151,187709,6,0,P|93:195|110:242,1,100,6|10,1:2|0:0,0:0:0:0:
70,323,188415,1,2,1:2:0:0:
145,372,188768,1,10,0:0:0:0:
209,308,189121,2,0,P|282:278|322:269,1,100,2|10,1:2|0:0,0:0:0:0:
356,344,189827,2,0,P|403:358|449:379,1,100,2|10,1:2|0:0,0:0:0:0:
510,312,190532,5,6,1:2:0:0:
453,241,190885,1,10,0:0:0:0:
495,161,191238,2,0,P|509:93|513:51,1,100,2|10,1:2|0:0,0:0:0:0:
435,14,191944,2,0,P|421:82|417:124,1,100,2|10,1:2|0:0,0:0:0:0:
336,151,192650,2,0,P|300:184|300:233,1,100,0|10,1:2|0:0,0:0:0:0:
340,314,193356,5,6,1:2:0:0:
272,373,193709,1,10,0:0:0:0:
188,339,194062,2,0,P|166:281|159:239,1,100,2|8,1:2|0:0,0:0:0:0:
204,165,194768,2,0,P|194:116|175:69,1,100,2|8,1:2|0:0,0:0:0:0:
90,39,195474,1,2,1:2:0:0:
40,113,195826,1,10,0:0:0:0:
74,196,196179,6,0,P|64:261|45:295,1,100,4|10,1:2|0:0,0:0:0:0:
111,354,196885,2,0,P|160:358|205:379,1,100,2|10,1:2|0:0,0:0:0:0:
291,351,197591,2,0,P|286:301|265:256,1,100,8|0,0:0|1:2,0:0:0:0:
191,203,198297,1,8,0:0:0:0:
253,137,198650,1,2,0:0:0:0:
191,71,199003,6,0,B|83:38|119:131|-6:125,1,200,6|6,1:2|1:2,0:0:0:0:
