osu file format v14

[General]
AudioFilename: audio.mp3
AudioLeadIn: 0
PreviewTime: 336656
Countdown: 0
SampleSet: Soft
StackLeniency: 0.7
Mode: 0
LetterboxInBreaks: 0
WidescreenStoryboard: 0

[Editor]
Bookmarks: 1495,25524,49524,73524,97524,121524,145524,169524,193435,217435,240668,264668,288668,312668,336656,357281
DistanceSpacing: 2
BeatDivisor: 4
GridSize: 4
TimelineZoom: 1

[Metadata]
Title:Getaway
TitleUnicode:Getaway
Artist:Carpool Tunnel
ArtistUnicode:Carpool Tunnel
Creator:Mun
Version:Escape
Source:osu!
Tags:itzpigeon english indie surf rock marathon featured artist
BeatmapID:2100938
BeatmapSetID:1003826

[Difficulty]
HPDrainRate:5
CircleSize:5
OverallDifficulty:7
ApproachRate:8
SliderMultiplier:1.6
SliderTickRate:1

[Events]
//Background and Video events
0,0,"nic-ames-lake-side-complete-sm.jpg",0,0
//Break Periods
2,240868,260918
//Storyboard Layer 0 (Background)
//Storyboard Layer 1 (Fail)
//Storyboard Layer 2 (Pass)
//Storyboard Layer 3 (Foreground)
//Storyboard Sound Samples

[TimingPoints]
1495,750,4,2,1,75,1,0
2245,-100,4,2,1,60,0,0
7495,-100,4,2,1,75,0,0
8245,-100,4,2,1,60,0,0
11245,-100,4,3,1,75,0,0
11807,-100,4,3,1,60,0,0
12370,-100,4,3,1,75,0,0
12932,-100,4,2,1,65,0,0
13495,-100,4,2,1,75,0,0
14057,-100,4,2,1,60,0,0
16120,-100,4,2,1,75,0,0
16682,-100,4,2,1,60,0,0
19307,-100,4,2,1,65,0,0
19495,-100,4,2,1,60,0,0
20370,-100,4,2,1,65,0,0
20495,-100,4,2,1,70,0,0
20620,827.586206896552,4,2,1,70,1,0
20757,-100,4,2,1,75,0,0
21033,-100,4,2,1,70,0,0
21399,750,4,2,1,75,1,0
21774,-100,4,2,1,60,0,0
22149,-100,4,2,1,50,0,0
23649,-100,4,2,1,25,0,0
25524,750,4,3,1,40,1,0
25524,-166.666666666667,4,3,1,40,0,0
30774,-166.666666666667,4,3,1,30,0,0
31149,-166.666666666667,4,3,1,40,0,0
33774,-166.666666666667,4,3,1,30,0,0
34149,-166.666666666667,4,3,1,40,0,0
36024,-166.666666666667,4,3,1,30,0,0
36399,-166.666666666667,4,3,1,40,0,0
36774,-166.666666666667,4,3,1,30,0,0
37149,-166.666666666667,4,3,1,40,0,0
42774,-166.666666666667,4,3,1,30,0,0
43149,-166.666666666667,4,3,1,40,0,0
43524,-166.666666666667,4,3,1,30,0,0
43570,-166.666666666667,4,3,1,40,0,0
45774,-166.666666666667,4,3,1,30,0,0
46149,-166.666666666667,4,3,1,40,0,0
47274,-166.666666666667,4,3,1,30,0,0
49524,-250.000000000001,4,2,2,35,0,0
51399,-250.000000000001,4,3,1,35,0,0
51774,-250.000000000001,4,2,2,35,0,0
52336,-250.000000000001,4,3,1,35,0,0
53274,-250.000000000001,4,2,2,35,0,0
54399,-250.000000000001,4,3,1,35,0,0
54774,-250.000000000001,4,2,2,35,0,0
55149,-250.000000000001,4,2,2,25,0,0
55336,-250.000000000001,4,2,2,35,0,0
55899,-250.000000000001,4,3,1,35,0,0
56086,-250.000000000001,4,2,2,35,0,0
57399,-250.000000000001,4,3,1,35,0,0
57774,-250.000000000001,4,2,2,35,0,0
58336,-250.000000000001,4,3,1,35,0,0
59274,-250.000000000001,4,2,2,35,0,0
59649,-250.000000000001,4,3,1,35,0,0
59836,-250.000000000001,4,2,2,35,0,0
60211,-250.000000000001,4,3,1,35,0,0
60399,-250.000000000001,4,2,2,35,0,0
61336,-250.000000000001,4,3,1,35,0,0
62274,-250.000000000001,4,2,2,35,0,0
63399,-250.000000000001,4,3,1,35,0,0
63774,-250.000000000001,4,2,2,35,0,0
64336,-250.000000000001,4,3,1,35,0,0
65274,-250.000000000001,4,2,2,35,0,0
66399,-250.000000000001,4,3,1,35,0,0
66774,-250.000000000001,4,2,2,35,0,0
67336,-250.000000000001,4,3,1,35,0,0
67524,-250.000000000001,4,2,2,25,0,0
67899,-250.000000000001,4,3,1,35,0,0
68274,-250.000000000001,4,2,2,35,0,0
69399,-250.000000000001,4,3,1,35,0,0
69774,-250.000000000001,4,2,2,35,0,0
70336,-250.000000000001,4,3,1,40,0,0
70899,-250.000000000001,4,2,2,40,0,0
71274,-200.000000000001,4,2,2,50,0,0
71649,-200.000000000001,4,3,1,50,0,0
72024,-142.857142857143,4,2,2,60,0,0
72399,-142.857142857143,4,3,1,60,0,0
73149,-66.6666666666667,4,2,1,60,0,0
73524,-100,4,2,1,60,0,0
74274,-100,4,2,1,40,0,0
78399,-100,4,2,1,50,0,0
78774,-100,4,2,1,60,0,0
79149,-100,4,2,1,50,0,0
79524,-100,4,2,1,60,0,0
79899,-100,4,2,1,50,0,0
80274,-100,4,2,1,40,0,0
84024,-100,4,2,1,50,0,0
84774,-100,4,2,1,60,0,0
85524,-90.9090909090909,4,2,1,60,0,0
85899,-90.9090909090909,4,2,1,50,0,0
86274,-90.9090909090909,4,2,1,40,0,0
87024,-90.9090909090909,4,2,1,50,0,0
88524,-90.9090909090909,4,2,1,35,0,0
88899,-90.9090909090909,4,2,1,40,0,0
90024,-90.9090909090909,4,2,1,50,0,0
91524,-76.9230769230769,4,2,1,60,0,0
94242,-76.9230769230769,4,2,1,30,0,0
94336,-76.9230769230769,4,2,1,60,0,0
94430,-76.9230769230769,4,2,1,30,0,0
94524,-66.6666666666667,4,2,1,60,0,0
94899,-66.6666666666667,4,2,1,65,0,0
95274,-66.6666666666667,4,2,1,30,0,0
95461,-66.6666666666667,4,2,1,60,0,0
96024,-66.6666666666667,4,2,1,65,0,0
96399,-66.6666666666667,4,2,1,30,0,0
96586,-66.6666666666667,4,2,1,50,0,0
96774,-66.6666666666667,4,2,1,40,0,0
96961,-66.6666666666667,4,2,1,48,0,0
97149,-66.6666666666667,4,2,1,57,0,0
97336,-66.6666666666667,4,2,1,65,0,0
97524,-58.8235294117647,4,2,1,75,0,1
98274,-58.8235294117647,4,2,1,60,0,1
103524,-58.8235294117647,4,2,1,75,0,1
104086,-58.8235294117647,4,2,1,60,0,1
106149,-58.8235294117647,4,2,1,75,0,1
106711,-58.8235294117647,4,2,1,60,0,1
111774,-58.8235294117647,4,2,2,60,0,1
112149,-58.8235294117647,4,2,1,60,0,1
116399,-58.8235294117647,4,2,1,65,0,1
116524,-58.8235294117647,4,2,1,70,0,1
116774,-58.8235294117647,4,2,1,75,0,1
117024,-58.8235294117647,4,2,1,70,0,1
117399,-100,4,2,1,65,0,1
117774,-100,4,2,1,60,0,1
118149,-100,4,2,1,50,0,0
119649,-100,4,2,1,25,0,0
121524,-166.666666666667,4,3,1,35,0,0
129774,-166.666666666667,4,3,1,30,0,0
130149,-166.666666666667,4,3,1,35,0,0
135024,-166.666666666667,4,3,1,30,0,0
135399,-166.666666666667,4,3,1,35,0,0
135774,-166.666666666667,4,3,1,30,0,0
136149,-166.666666666667,4,3,1,35,0,0
145524,-250.000000000001,4,2,1,30,0,0
146274,-250.000000000001,4,2,2,30,0,0
147399,-250.000000000001,4,3,1,30,0,0
147774,-250.000000000001,4,2,2,30,0,0
148336,-250.000000000001,4,3,1,30,0,0
148570,-250.000000000001,4,2,2,30,0,0
150399,-250.000000000001,4,3,1,30,0,0
150774,-250.000000000001,4,2,2,30,0,0
151336,-250.000000000001,4,3,1,30,0,0
151570,-250.000000000001,4,2,2,30,0,0
153399,-250.000000000001,4,3,1,30,0,0
153774,-250.000000000001,4,2,2,30,0,0
154524,-250.000000000001,4,3,1,30,0,0
154899,-250.000000000001,4,2,2,30,0,0
155649,-250.000000000001,4,3,1,30,0,0
156024,-250.000000000001,4,2,2,30,0,0
156774,-250.000000000001,4,3,1,30,0,0
156961,-250.000000000001,4,2,2,30,0,0
157524,-250.000000000001,4,3,1,30,0,0
158274,-66.6666666666667,4,2,1,75,0,0
159399,-250,4,3,1,30,0,0
159774,-250,4,2,2,30,0,0
160524,-250,4,3,1,30,0,0
161274,-250,4,2,2,30,0,0
162399,-250,4,3,1,30,0,0
162774,-250,4,2,2,30,0,0
163149,-250,4,3,1,30,0,0
163430,-250,4,3,1,25,0,0
163524,-250,4,3,1,30,0,0
164274,-250,4,2,2,30,0,0
165399,-250,4,3,1,30,0,0
165774,-250,4,2,2,30,0,0
166336,-250,4,3,1,30,0,0
167274,-166.666666666667,4,2,2,40,0,0
167649,-166.666666666667,4,3,1,45,0,0
167930,-166.666666666667,4,2,1,50,0,0
168211,-166.666666666667,4,3,1,55,0,0
168399,-100,4,3,1,60,0,0
168680,-100,4,2,1,65,0,0
169149,-100,4,3,2,70,0,0
169524,-62.5,4,2,1,75,0,0
170180,-62.5,4,2,1,45,0,0
170274,-100,4,2,1,45,0,0
170836,-100,4,3,1,45,0,0
172149,-100,4,2,1,45,0,0
172336,-100,4,3,1,45,0,0
172899,-100,4,2,1,45,0,0
173086,-100,4,3,1,45,0,0
173649,-100,4,2,1,45,0,0
173836,-100,4,3,1,45,0,0
174774,-100,4,3,1,55,0,0
175149,-100,4,3,1,65,0,0
175524,-100,4,3,1,75,0,0
175899,-100,4,3,1,65,0,0
176086,-100,4,3,1,55,0,0
176274,-100,4,3,1,45,0,0
179649,736.196319018405,4,3,1,45,1,0
180753,-100,4,3,1,55,0,0
181121,-100,4,3,1,65,0,0
181489,750,4,3,1,75,1,0
181489,-76.9230769230769,4,3,1,75,0,0
181864,-76.9230769230769,4,3,1,65,0,0
182051,-76.9230769230769,4,3,1,55,0,0
182239,-76.9230769230769,4,3,1,45,0,0
186739,-76.9230769230769,4,3,1,55,0,0
187114,-76.9230769230769,4,3,1,65,0,0
187489,-76.9230769230769,4,3,1,75,0,0
187864,-76.9230769230769,4,3,1,65,0,0
188051,-76.9230769230769,4,3,1,55,0,0
188239,-76.9230769230769,4,2,2,45,0,0
188614,-76.9230769230769,4,3,1,45,0,0
190395,-76.9230769230769,4,3,0,45,0,0
190676,-76.9230769230769,4,3,1,45,0,0
191989,-76.9230769230769,4,3,1,55,0,0
192364,714.285714285714,4,3,1,45,1,0
192721,-100,4,3,1,55,0,0
192899,-100,4,3,1,65,0,0
193078,-100,4,3,1,45,0,0
193435,750,4,2,1,75,1,1
193435,-66.6666666666667,4,2,1,75,0,1
194091,-66.6666666666667,4,2,1,60,0,1
199435,-66.6666666666667,4,2,1,75,0,1
199997,-66.6666666666667,4,2,1,60,0,1
202060,-66.6666666666667,4,2,1,75,0,1
202622,-66.6666666666667,4,2,1,60,0,1
211435,-66.6666666666667,4,2,1,75,0,1
211997,-66.6666666666667,4,2,1,60,0,1
215935,-66.6666666666667,4,3,0,60,0,1
216122,-66.6666666666667,4,2,1,60,0,1
216591,-66.6666666666667,4,3,0,60,0,1
216685,-66.6666666666667,4,2,1,60,0,1
216778,-66.6666666666667,4,3,0,60,0,1
216872,-66.6666666666667,4,2,1,60,0,1
217060,-66.6666666666667,4,3,0,60,0,1
217435,-50,4,2,1,75,0,1
217622,-50,4,2,1,60,0,1
220060,-50,4,2,1,75,0,1
220435,-50,4,2,1,60,0,1
226060,-50,4,2,1,75,0,1
226435,-50,4,2,1,60,0,1
230747,740.740740740741,4,3,1,55,1,1
230836,-100,4,3,1,50,0,1
230925,-100,4,3,0,45,0,1
231014,-100,4,3,0,40,0,1
231104,-100,4,3,1,50,0,1
231193,-100,4,3,1,60,0,1
231282,-100,4,3,1,45,0,1
231372,-100,4,3,1,60,0,1
231461,-100,4,3,1,50,0,1
231550,-100,4,3,1,58,0,1
231639,-100,4,3,1,49,0,1
231729,-100,4,3,1,58,0,1
231818,-100,4,3,1,66,0,1
231907,-100,4,3,1,70,0,1
232043,750,4,2,1,75,1,1
232043,-50,4,2,1,75,0,1
232418,750,5,2,1,60,1,1
233168,-50,5,2,1,60,0,1
236918,-50,5,3,0,60,0,1
237668,-50,5,2,1,50,0,1
237855,-50,5,2,1,40,0,1
238511,-50,5,2,1,5,0,1
238699,-50,5,2,1,40,0,1
239168,-50,5,2,1,5,0,1
239355,-50,5,2,1,40,0,1
239824,-50,5,2,1,5,0,1
240011,-50,5,2,1,40,0,1
240480,-50,5,2,1,5,0,1
240668,750,4,2,1,40,1,0
261668,-100,4,2,1,35,0,0
262043,-100,4,2,1,45,0,0
262418,-100,4,2,1,35,0,0
262980,-100,4,2,1,45,0,0
263543,-100,4,2,1,35,0,0
263730,-100,4,2,1,45,0,0
264668,-83.3333333333333,4,2,1,60,0,0
265043,-83.3333333333333,4,2,1,45,0,0
265230,-83.3333333333333,4,2,1,40,0,0
265418,-83.3333333333333,4,2,1,55,0,0
265980,-83.3333333333333,4,2,1,55,0,0
276668,-83.3333333333333,4,2,1,60,0,0
276949,-83.3333333333333,4,2,1,35,0,0
277043,-83.3333333333333,4,2,1,48,0,0
277324,-83.3333333333333,4,2,1,35,0,0
287168,-83.3333333333333,4,2,1,44,0,0
287543,-83.3333333333333,4,2,1,53,0,0
287918,-83.3333333333333,4,2,1,61,0,0
288293,-83.3333333333333,4,2,1,68,0,0
288668,-62.5,4,2,1,75,0,0
289043,-62.5,4,2,1,63,0,0
289230,-62.5,4,2,1,51,0,0
289418,-62.5,4,2,1,40,0,0
291668,-62.5,4,2,1,55,0,0
292043,-62.5,4,2,1,40,0,0
292980,-62.5,4,2,1,55,0,0
293168,-62.5,4,2,1,40,0,0
293355,-62.5,4,2,1,55,0,0
293730,-62.5,4,2,1,40,0,0
294668,-62.5,4,2,1,55,0,0
295043,-62.5,4,2,1,40,0,0
295980,-62.5,4,2,1,55,0,0
296355,-62.5,4,2,1,40,0,0
299543,-62.5,4,2,1,51,0,0
300105,-62.5,4,2,1,63,0,0
300668,-62.5,4,2,1,75,0,0
301043,-62.5,4,2,1,63,0,0
301230,-62.5,4,2,1,51,0,0
301418,-62.5,4,2,1,40,0,0
301980,-62.5,4,2,1,60,0,0
302168,-62.5,4,2,1,40,0,0
302355,-62.5,4,2,1,60,0,0
302730,-62.5,4,2,1,40,0,0
303293,-62.5,4,2,1,60,0,0
303481,-62.5,4,2,1,40,0,0
304980,-62.5,4,2,1,60,0,0
305168,-62.5,4,2,1,40,0,0
305355,-62.5,4,2,1,60,0,0
305543,-62.5,4,2,1,40,0,0
306668,-62.5,4,2,1,60,0,0
307230,-62.5,4,2,1,40,0,0
307980,-62.5,4,2,1,60,0,0
308168,-62.5,4,2,1,40,0,0
308355,-62.5,4,2,1,60,0,0
308730,-62.5,4,2,1,40,0,0
312668,-62.5,4,2,1,60,0,1
313230,-62.5,4,2,1,51,0,1
313324,-62.5,4,2,1,63,0,1
313418,-62.5,4,2,1,75,0,1
313605,-62.5,4,2,1,60,0,1
315293,-62.5,4,2,1,75,0,1
315855,-62.5,4,2,1,60,0,1
318668,-62.5,4,2,1,75,0,1
319230,-62.5,4,2,1,60,0,1
320918,-62.5,4,3,0,60,0,1
320964,-62.5,4,2,1,60,0,1
323918,-62.5,4,3,0,60,0,1
324105,-62.5,4,2,1,60,0,1
326543,-62.5,4,2,1,75,0,1
326918,-62.5,4,2,1,30,0,1
327011,-62.5,4,2,1,40,0,1
327105,-62.5,4,2,1,51,0,1
327199,-62.5,4,2,1,63,0,1
327293,-62.5,4,2,1,75,0,1
327668,-62.5,4,2,1,60,0,1
330668,-62.5,4,2,1,75,0,1
331043,-62.5,4,2,1,60,0,1
331418,-62.5,4,2,1,75,0,1
331793,-62.5,4,2,1,60,0,1
332730,-62.5,4,2,1,75,0,1
332918,-62.5,4,2,1,60,0,1
333105,-62.5,4,2,1,70,0,1
333293,-62.5,4,2,1,75,0,1
333668,779.220779220779,4,2,1,60,1,1
333668,-62.5,4,2,1,60,0,1
334836,722.89156626506,4,2,1,60,1,1
334836,-62.5,4,2,1,60,0,1
335197,-62.5,4,3,0,60,0,1
335378,-62.5,4,2,1,60,0,1
335739,-62.5,4,3,0,60,0,1
336101,-62.5,4,2,1,60,0,1
336281,750,4,2,1,75,1,1
336468,-100,4,2,1,50,0,1
336656,750,4,2,1,75,1,1
336656,-55.5555555555556,4,2,1,75,0,1
337031,-55.5555555555556,4,2,1,60,0,1
344343,-55.5555555555556,4,3,0,60,0,1
344531,-55.5555555555556,4,2,1,70,0,1
344718,-55.5555555555556,4,2,1,55,0,1
344906,-55.5555555555556,4,2,1,70,0,1
345093,-55.5555555555556,4,2,1,60,0,1
345281,-55.5555555555556,4,2,1,75,0,1
345656,-55.5555555555556,4,2,1,60,0,1
347906,-55.5555555555556,4,3,0,60,0,1
348281,-55.5555555555556,4,2,1,60,0,1
348656,-55.5555555555556,4,2,1,75,0,1
348843,-55.5555555555556,4,2,1,60,0,1
350531,-55.5555555555556,4,3,0,75,0,1
350906,-55.5555555555556,4,3,0,60,0,1
351281,-55.5555555555556,4,2,1,75,0,1
351656,-55.5555555555556,4,2,1,60,0,1
353156,-55.5555555555556,4,2,1,75,0,1
353343,-55.5555555555556,4,2,1,45,0,1
353531,-55.5555555555556,4,2,1,75,0,1
353718,-55.5555555555556,4,2,1,45,0,1
354656,-55.5555555555556,4,2,1,75,0,1
354843,-55.5555555555556,4,2,1,45,0,1
355031,-55.5555555555556,4,2,1,75,0,1
355218,-55.5555555555556,4,2,1,45,0,1
355406,-55.5555555555556,4,2,1,50,0,1
355531,-55.5555555555556,4,2,1,63,0,1
355656,-55.5555555555556,4,2,1,75,0,1
355906,-55.5555555555556,4,2,1,63,0,1
356156,-55.5555555555556,4,2,1,75,0,1
356531,-100,4,2,1,75,0,1
356906,-100,4,2,1,45,0,1
357281,-100,4,2,1,60,0,0

[Colours]
Combo1 : 255,128,128
Combo2 : 61,141,87
Combo3 : 78,145,177
Combo4 : 148,207,207

[HitObjects]
145,332,1495,6,0,P|113:277|104:186,1,140,12|0,0:0|0:0,0:0:0:0:
168,107,2245,2,0,P|173:88|182:70,1,40,12|0,0:0|0:0,0:0:0:0:
189,132,2620,1,0,3:0:0:0:
193,128,2807,1,0,3:0:0:0:
198,127,2995,1,0,3:0:0:0:
203,128,3182,1,8,0:0:0:0:
23,208,3370,2,0,P|51:200|105:203,1,80,4|8,0:0|0:0,0:0:0:0:
110,209,3932,1,0,3:0:0:0:
378,359,4120,6,0,P|361:320|356:271,1,80,4|0,0:0|0:0,0:0:0:0:
405,183,4682,1,8,0:0:0:0:
479,151,4870,1,4,3:0:0:0:
471,166,5057,1,4,3:0:0:0:
335,138,5245,6,0,P|316:103|306:33,1,110,8|0,0:0|3:0,0:0:0:0:
314,27,5901,1,0,3:0:0:0:
270,74,5995,1,0,3:0:0:0:
270,74,6182,1,8,0:0:0:0:
140,41,6370,2,0,P|191:38|199:40,1,40,0|0,3:0|3:0,0:0:0:0:
261,149,6745,1,8,3:2:0:0:
239,240,6932,1,0,3:0:0:0:
178,275,7120,1,0,3:0:0:0:
158,265,7307,1,0,3:0:0:0:
265,358,7495,6,0,P|311:347|410:358,1,140,12|0,0:0|0:0,0:0:0:0:
473,271,8245,2,0,P|491:298|497:319,1,40,4|0,0:0|0:0,0:0:0:0:
512,219,8620,1,0,3:0:0:0:
512,219,8807,1,0,3:0:0:0:
512,219,8995,1,0,3:0:0:0:
512,219,9182,1,8,0:0:0:0:
251,263,9370,2,0,P|300:276|324:273,1,60,4|0,0:0|0:0,0:0:0:0:
320,271,9745,1,8,0:0:0:0:
346,329,9932,1,0,0:0:0:0:
139,357,10120,6,0,P|174:339|222:338,1,80,6|0,0:0|0:0,0:0:0:0:
336,336,10682,1,8,0:0:0:0:
293,285,10870,1,0,3:0:0:0:
275,294,11057,1,0,3:0:0:0:
481,252,11245,2,0,L|383:259,1,80,8|0,0:2|0:0,0:0:0:0:
302,206,11807,2,0,P|331:199|354:199,1,40,8|0,0:0|0:0,0:0:0:0:
355,200,12182,1,0,0:0:0:0:
211,145,12370,2,0,P|239:159|260:159,1,40,8|0,0:2|0:0,0:0:0:0:
291,109,12745,1,0,0:0:0:0:
512,58,12932,5,8,0:0:0:0:
443,100,13120,1,0,3:0:0:0:
408,85,13307,1,0,3:0:0:0:
302,207,13495,6,0,P|253:210|184:251,1,120,12|0,0:0|3:0,0:0:0:0:
188,251,14151,1,0,3:0:0:0:
206,289,14245,2,0,P|205:313|208:339,1,40,4|0,3:2|3:0,0:0:0:0:
275,363,14620,1,8,0:0:0:0:
269,362,14807,1,0,3:0:0:0:
265,359,14995,1,0,3:0:0:0:
262,355,15182,1,8,3:2:0:0:
186,181,15370,6,0,P|184:150|192:125,1,40,4|0,0:0|0:0,0:0:0:0:
190,133,15651,1,0,3:0:0:0:
210,177,15745,1,8,3:0:0:0:
160,247,15932,1,0,3:0:0:0:
206,328,16120,6,0,P|247:317|339:326,1,120,12|0,0:0|0:0,0:0:0:0:
399,370,16870,2,0,P|425:362|446:345,1,40,0|0,3:2|0:3,0:0:0:0:
225,193,17245,2,0,P|243:226|281:246,1,80,12|0,3:2|0:0,0:0:0:0:
358,210,17807,1,0,3:0:0:0:
353,206,17901,1,0,3:0:0:0:
347,203,17995,1,0,3:2:0:0:
206,328,18182,2,0,P|216:298|220:273,1,40,8|0,0:0|0:0,0:0:0:0:
173,236,18557,1,0,3:0:0:0:
307,159,18745,6,0,P|310:129|305:108,1,40,8|0,0:0|0:0,0:0:0:0:
297,169,19120,1,0,3:2:0:0:
353,206,19307,1,8,0:0:0:0:
249,82,19495,2,0,L|265:42,1,40,4|0,0:0|0:0,0:0:0:0:
437,213,19870,2,0,L|421:173,1,40,4|0,0:0|0:0,0:0:0:0:
299,347,20245,6,0,P|310:328|322:311,2,26.6666666666667,0|0|8,3:0|3:0|3:0,0:0:0:0:
393,381,20620,5,8,3:0:0:0:
385,330,20758,1,8,0:3:0:0:
419,289,20895,1,8,0:0:0:0:
508,355,21033,5,4,3:2:0:0:
508,355,21399,6,0,P|486:329|481:319,1,40,8|0,0:0|3:0,0:0:0:0:
486,257,21774,1,4,3:0:0:0:
226,329,22149,1,6,3:2:0:0:
226,329,23649,6,0,L|202:323,3,20,8|8|8|8,3:0|3:0|3:0|3:0,0:0:0:0:
192,319,24024,1,8,3:0:0:0:
110,353,24211,1,8,0:0:0:0:
298,233,24586,5,8,3:0:0:0:
286,321,24773,1,8,0:0:0:0:
369,128,25524,6,0,P|338:152|204:130,1,167.999994873047,0|0,0:0|0:0,0:0:0:0:
212,134,27024,2,0,P|187:127|155:130,1,47.9999985351563,8|0,0:0|0:0,0:0:0:0:
109,165,27774,1,8,0:0:0:0:
109,165,28336,1,0,0:0:0:0:
39,280,28524,6,0,P|67:269|188:315,1,167.999994873047,8|0,0:0|0:0,0:0:0:0:
193,324,30024,2,0,P|220:328|242:321,2,47.9999985351563,8|0|8,0:0|0:0|0:2,0:0:0:0:
314,275,31149,1,0,0:0:0:0:
329,281,31336,1,0,0:0:0:0:
369,384,31524,6,0,P|353:337|388:213,1,167.999994873047,8|0,0:0|0:0,0:0:0:0:
384,222,33024,2,0,P|383:190|378:167,1,47.9999985351563,8|0,0:0|0:0,0:0:0:0:
451,58,33774,2,0,P|440:88|422:107,1,47.9999985351563,8|0,0:2|0:0,0:0:0:0:
421,107,34336,1,0,0:0:0:0:
218,142,34524,6,0,P|254:131|377:168,1,167.999994873047,8|0,0:0|0:0,0:0:0:0:
378,180,36024,2,0,P|409:175|428:165,1,47.9999985351563,8|0,0:2|0:0,0:0:0:0:
512,255,36774,2,0,P|490:245|466:242,1,47.9999985351563,8|0,0:2|0:0,0:0:0:0:
432,299,37336,1,0,0:0:0:0:
231,366,37524,6,0,P|250:337|242:197,1,167.999994873047,8|0,0:0|0:0,0:0:0:0:
243,201,39024,2,0,P|245:171|253:151,1,47.9999985351563,8|0,0:0|0:0,0:0:0:0:
311,102,39774,1,8,0:0:0:0:
316,96,40149,2,0,P|288:102|276:103,1,23.9999992675781,0|0,0:0|0:0,0:0:0:0:
101,156,40524,6,0,P|132:150|256:221,1,167.999994873047,8|0,0:0|0:0,0:0:0:0:
251,219,42024,2,0,P|277:212|303:214,1,47.9999985351563,8|0,0:0|0:0,0:0:0:0:
347,261,42774,1,8,0:2:0:0:
347,261,43149,1,0,0:0:0:0:
354,247,43336,1,0,0:0:0:0:
348,384,43524,6,0,P|365:348|367:215,1,167.999994873047,8|0,0:2|0:0,0:0:0:0:
361,216,45024,2,0,P|355:188|358:162,2,47.9999985351563,8|0|8,0:0|0:0|0:2,0:0:0:0:
413,299,46149,2,0,P|416:286|418:272,1,23.9999992675781,0|0,0:0|0:0,0:0:0:0:
291,150,46524,6,0,P|253:122|211:112,1,71.9999978027344,8|0,0:0|0:0,0:0:0:0:
158,164,47274,2,0,P|174:154|186:151,1,23.9999992675781,8|0,0:2|0:0,0:0:0:0:
357,347,47649,1,12,2:0:0:0:
357,347,48211,1,0,0:0:0:0:
296,320,48399,2,0,L|288:293,1,23.9999992675781,0|0,0:0|0:0,0:0:0:0:
499,22,48774,2,0,P|483:54|480:90,1,71.9999978027344,12|0,2:0|0:0,0:0:0:0:
512,226,49524,6,0,P|479:217|436:217,2,64,4|8|0,3:2|0:0|0:0,0:0:0:0:
434,227,51399,1,0,0:0:0:0:
349,163,51774,2,0,P|359:184|363:203,1,32,8|0,0:0|0:0,0:0:0:0:
360,204,52336,1,0,0:0:0:0:
249,297,52524,6,0,P|271:290|313:257,1,64,0|8,2:3|0:0,0:0:0:0:
239,311,53836,2,0,P|238:339|241:354,1,32,0|0,0:0|0:0,0:0:0:0:
254,359,54399,1,0,0:0:0:0:
305,267,54774,1,8,0:0:0:0:
218,217,55149,2,0,P|205:218|198:220,1,16,2|2,3:0|0:3,0:0:0:0:
314,273,55524,6,0,P|315:248|318:234,1,32,0|0,0:0|0:0,0:0:0:0:
322,233,56086,1,0,0:0:0:0:
189,75,56274,2,0,P|213:99|236:109,2,48,8|0|0,0:0|0:0|0:0,0:0:0:0:
79,138,57774,2,0,P|101:131|118:128,1,32,8|0,0:0|0:0,0:0:0:0:
165,162,58336,1,0,0:0:0:0:
241,113,58524,6,0,P|260:103|300:91,1,64,0|8,0:0|0:0,0:0:0:0:
311,93,59649,1,0,0:0:0:0:
380,138,59836,2,0,P|387:159|387:174,1,32,0|0,0:0|0:0,0:0:0:0:
324,267,60399,2,0,P|327:251|333:236,2,32,0|8|0,0:0|0:0|0:0,0:0:0:0:
366,318,61336,1,0,0:0:0:0:
354,384,61524,5,0,0:0:0:0:
354,384,61899,2,0,P|373:379|394:376,1,32,0|8,0:0|0:0,0:0:0:0:
396,379,62649,1,0,0:0:0:0:
309,342,62836,1,0,0:0:0:0:
290,349,63399,2,0,P|268:345|245:346,2,32,0|8|0,0:0|0:0|0:0,0:0:0:0:
218,301,64336,1,0,0:0:0:0:
140,363,64524,6,0,P|147:342|151:291,1,64,0|8,0:0|0:0,0:0:0:0:
145,290,65836,1,0,0:0:0:0:
138,295,66211,1,0,0:0:0:0:
42,257,66399,2,0,P|69:263|84:261,2,32,0|8|0,0:0|0:0|0:0,0:0:0:0:
14,200,67336,1,2,0:0:0:0:
4,358,67524,6,0,P|26:351|36:349,1,32,2|0,0:3|0:0,0:0:0:0:
97,375,68274,2,0,P|124:378|141:378,1,32,8|0,0:0|0:0,0:0:0:0:
139,376,68836,1,0,0:0:0:0:
183,316,69399,1,0,0:0:0:0:
381,361,69774,2,0,P|366:352|356:339,1,32,8|0,0:0|0:0,0:0:0:0:
361,329,70336,1,0,0:0:0:0:
217,264,70524,6,0,P|241:268|257:268,1,32,0|0,0:0|0:0,0:0:0:0:
261,264,71086,1,0,0:0:0:0:
129,243,71274,6,0,P|150:233|169:219,1,40,10|0,2:0|0:0,0:0:0:0:
177,192,71836,1,0,0:0:0:0:
73,285,72024,6,0,P|66:251|51:210,1,55.9999982910157,2|2,2:0|0:2,0:0:0:0:
7,180,72586,1,0,0:0:0:0:
36,347,72774,5,2,0:2:0:0:
174,309,72961,1,0,0:0:0:0:
318,339,73149,2,0,P|386:358|416:357,1,90.0000034332277,4|0,3:2|0:0,0:0:0:0:
443,350,73524,6,0,P|362:351|276:376,1,160,4|8,0:0|0:3,0:0:0:0:
295,384,74649,1,0,0:0:0:0:
180,344,74836,1,0,3:0:0:0:
174,355,75024,2,0,P|212:343|246:319,2,80,8|0|8,0:3|3:0|0:3,0:0:0:0:
51,358,76149,2,0,P|81:354|102:357,1,40,0|0,0:0|3:0,0:0:0:0:
9,283,76524,6,0,P|45:292|96:283,1,80,8|0,0:3|0:0,0:0:0:0:
132,238,77086,1,0,3:0:0:0:
261,197,77274,2,0,P|291:191|347:202,1,80,8|0,0:3|0:0,0:0:0:0:
376,254,77836,1,0,3:0:0:0:
248,115,78024,2,0,P|228:117|157:93,2,80,8|0|8,0:3|3:0|0:3,0:0:0:0:
257,115,79149,1,0,3:0:0:0:
242,135,79336,1,0,3:0:0:0:
337,211,79524,6,0,P|340:241|358:297,1,80,12|0,3:2|0:0,0:0:0:0:
321,348,80086,1,0,3:0:0:0:
190,296,80274,2,0,P|215:306|271:306,1,80,8|0,0:3|0:0,0:0:0:0:
254,245,80836,1,0,3:0:0:0:
108,352,81024,6,0,P|116:326|116:300,1,40,8|0,0:3|0:0,0:0:0:0:
56,267,81399,2,0,P|49:240|36:217,1,40,0|0,3:0|0:0,0:0:0:0:
0,152,81774,2,0,P|32:163|86:161,1,80,8|0,0:3|3:0,0:0:0:0:
119,106,82336,1,0,3:0:0:0:
231,286,82524,6,0,P|223:261|225:197,1,80,8|0,0:3|3:0,0:0:0:0:
310,96,83274,2,0,P|322:61|325:7,1,80,8|0,0:3|0:0,0:0:0:0:
267,1,83836,1,0,3:0:0:0:
138,91,84024,2,0,P|106:82|87:68,1,40,8|0,0:3|0:0,0:0:0:0:
50,16,84399,2,0,P|18:25|-1:39,1,40,0|0,3:0|0:0,0:0:0:0:
4,44,84774,1,8,3:0:0:0:
96,139,84961,1,0,3:0:0:0:
153,109,85149,1,0,3:0:0:0:
195,79,85524,6,0,P|183:107|182:175,1,88.000002685547,8|0,3:2|0:0,0:0:0:0:
237,198,86086,1,0,3:0:0:0:
98,384,86274,2,0,P|86:356|85:288,1,88.000002685547,8|0,0:3|0:0,0:0:0:0:
129,234,86836,1,0,3:0:0:0:
291,318,87024,2,0,P|257:326|200:316,1,88.000002685547,8|0,0:0|0:0,0:0:0:0:
215,309,87586,1,0,3:0:0:0:
333,373,87774,2,0,P|354:380|382:385,1,44.0000013427735,8|0,0:3|0:0,0:0:0:0:
490,370,88149,6,0,P|434:364|402:372,2,88.000002685547,0|8|0,3:0|3:0|0:0,0:0:0:0:
502,377,89086,1,0,3:0:0:0:
432,212,89274,2,0,P|431:254|449:303,1,88.000002685547,8|0,0:3|0:0,0:0:0:0:
433,287,89836,1,0,3:0:0:0:
305,340,90024,2,0,P|326:290|318:237,1,88.000002685547,8|0,0:0|3:0,0:0:0:0:
119,352,90774,2,0,P|172:345|214:311,1,88.000002685547,8|0,3:0|3:0,0:0:0:0:
229,247,91336,1,0,3:0:0:0:
157,101,91524,6,0,P|132:170|139:228,1,103.999995239258,12|0,3:2|0:0,0:0:0:0:
144,212,92086,1,0,3:0:0:0:
51,276,92274,2,0,P|75:330|77:389,1,103.999995239258,8|0,0:3|0:0,0:0:0:0:
89,364,92836,1,0,3:0:0:0:
0,195,93024,2,0,P|24:204|55:206,1,51.999997619629,8|0,3:0|0:0,0:0:0:0:
157,275,93399,2,0,P|182:272|207:263,1,51.999997619629,0|0,3:0|0:0,0:0:0:0:
298,165,93774,1,8,0:3:0:0:
281,154,94149,2,0,P|279:172|282:188,1,25.9999988098145,0|8,3:0|3:0,0:0:0:0:
342,229,94336,2,0,P|346:248|343:263,1,25.9999988098145,0|8,3:0|3:0,0:0:0:0:
334,275,94524,5,0,3:0:0:0:
211,191,94711,1,0,3:0:0:0:
271,30,94899,2,0,P|221:88|174:123,1,120.000004577637,4|0,0:0|0:0,0:0:0:0:
22,123,95461,1,8,3:0:0:0:
28,118,95555,1,0,3:0:0:0:
36,116,95649,1,0,3:0:0:0:
61,123,95836,1,8,3:0:0:0:
92,303,96024,2,0,P|87:264|112:180,1,120.000004577637,12|0,0:0|0:0,0:0:0:0:
125,189,96586,2,0,P|113:208|106:226,1,30.0000011444092,0|0,3:0|3:0,0:0:0:0:
196,356,96774,2,0,P|173:310|162:281,1,60.0000022888184,12|8,3:2|0:3,0:0:0:0:
171,294,97055,1,8,3:0:0:0:
186,262,97149,1,8,3:0:0:0:
230,268,97242,1,8,3:0:0:0:
274,275,97336,1,8,3:0:0:0:
318,282,97430,1,8,3:0:0:0:
362,289,97524,6,0,P|340:241|349:52,1,238.00000453949,12|0,0:0|0:0,0:0:0:0:
491,1,98274,2,0,P|471:44|469:85,1,68.0000012969971,12|0,0:0|0:0,0:0:0:0:
510,129,98649,1,0,3:0:0:0:
504,127,98836,1,0,3:0:0:0:
498,125,99024,1,0,3:2:0:0:
492,123,99211,1,8,0:0:0:0:
180,46,99399,2,0,P|247:56|315:51,1,136.000002593994,4|8,0:0|0:0,0:0:0:0:
328,37,99961,1,0,0:0:0:0:
206,274,100149,6,0,P|194:229|194:131,1,136.000002593994,4|0,3:2|0:0,0:0:0:0:
166,202,100711,1,0,3:0:0:0:
217,288,100899,2,0,P|216:334|212:366,1,68.0000012969971,2|0,3:2|0:0,0:0:0:0:
152,195,101274,1,8,0:0:0:0:
291,253,101461,1,0,3:0:0:0:
306,244,101649,1,2,0:0:0:0:
84,272,101836,2,0,P|124:265|154:272,1,68.0000012969971,0|0,0:0|3:2,0:0:0:0:
204,311,102211,1,0,3:0:0:0:
236,301,102399,1,2,0:0:0:0:
280,327,102586,1,0,0:0:0:0:
192,157,102774,5,8,3:2:0:0:
324,273,102961,1,0,3:0:0:0:
332,257,103149,5,2,0:0:0:0:
336,252,103336,1,0,3:0:0:0:
129,332,103524,6,0,P|177:326|347:356,1,204.000003890991,4|0,0:0|3:0,0:0:0:0:
335,358,104180,1,0,3:0:0:0:
405,384,104274,2,0,P|400:344|404:310,1,68.0000012969971,8|0,3:2|0:0,0:0:0:0:
503,268,104649,1,8,0:0:0:0:
500,273,104836,1,0,3:0:0:0:
497,278,105024,1,0,3:2:0:0:
494,283,105211,1,0,3:0:0:0:
431,146,105399,2,0,P|443:192|439:229,1,68.0000012969971,4|0,0:0|3:0,0:0:0:0:
432,222,105680,1,0,3:0:0:0:
475,184,105774,1,8,3:0:0:0:
475,184,106149,6,0,P|441:118|315:65,1,204.000003890991,8|0,0:0|3:0,0:0:0:0:
391,57,106899,2,0,P|424:49|455:34,1,68.0000012969971,2|8,3:2|0:0,0:0:0:0:
140,227,107274,2,0,P|194:219|286:235,1,136.000002593994,12|2,3:2|3:2,0:0:0:0:
310,288,107836,1,0,0:0:0:0:
128,229,108024,2,0,P|171:202|195:183,1,68.0000012969971,0|0,3:2|3:2,0:0:0:0:
59,265,108399,2,0,P|57:214|52:183,1,68.0000012969971,2|0,3:2|3:2,0:0:0:0:
45,278,108774,1,8,3:2:0:0:
87,368,108961,1,0,3:0:0:0:
92,361,109149,1,2,3:2:0:0:
94,353,109336,1,0,3:0:0:0:
70,132,109524,6,0,P|64:181|90:280,1,136.000002593994,4|0,0:0|0:0,0:0:0:0:
98,273,110086,2,0,P|106:245|120:225,1,34.0000006484985,0|0,0:0|0:0,0:0:0:0:
276,111,110274,2,0,P|225:121|182:116,1,68.0000012969971,8|0,3:2|3:0,0:0:0:0:
170,64,110649,1,0,3:2:0:0:
166,70,110836,1,0,0:0:0:0:
162,76,111024,1,0,3:2:0:0:
158,82,111211,1,0,3:0:0:0:
268,243,111399,2,0,P|258:195|271:140,1,102.000001945496,4|0,3:2|3:0,0:0:0:0:
279,138,111774,1,8,3:2:0:0:
193,358,112149,6,0,P|184:308|143:217,1,136.000002593994,4|0,0:0|0:0,0:0:0:0:
84,215,112711,1,0,3:0:0:0:
84,215,112805,1,0,3:0:0:0:
54,231,112899,2,0,P|84:199|92:157,1,68.0000012969971,2|8,3:2|3:0,0:0:0:0:
5,329,113274,2,0,P|60:302|142:295,1,136.000002593994,8|2,0:0|3:2,0:0:0:0:
346,289,113836,6,0,P|274:274|252:264,1,68.0000012969971,0|0,3:0|3:2,0:0:0:0:
249,214,114211,1,0,0:0:0:0:
394,363,114399,2,0,P|344:362|305:376,1,68.0000012969971,2|0,3:2|3:0,0:0:0:0:
410,377,114774,1,12,3:2:0:0:
494,328,114961,1,0,3:0:0:0:
438,287,115149,1,2,3:2:0:0:
438,287,115336,1,0,3:0:0:0:
465,37,115524,6,0,P|471:93|461:153,1,102.000001945496,4|0,0:0|0:0,0:0:0:0:
367,49,115899,2,0,P|321:82|264:103,1,102.000001945496,4|0,0:0|0:0,0:0:0:0:
202,83,116274,5,8,3:0:0:0:
237,111,116399,1,8,0:3:0:0:
247,155,116524,1,8,0:3:0:0:
164,151,116649,5,0,3:0:0:0:
186,209,116774,1,8,0:3:0:0:
168,269,116899,1,8,0:0:0:0:
104,227,117024,5,0,3:2:0:0:
104,227,117399,2,0,P|131:239|149:253,1,40,2|0,0:3|3:0,0:0:0:0:
168,337,117774,1,8,0:0:0:0:
115,51,118149,1,6,0:0:0:0:
115,51,119649,6,0,L|122:75,3,20,8|8|8|8,3:0|3:0|3:0|3:0,0:0:0:0:
125,83,120024,1,8,0:0:0:0:
203,9,120211,2,0,L|195:63,1,40,8|0,0:0|0:0,0:0:0:0:
239,108,120586,1,8,3:0:0:0:
34,26,120774,2,0,L|50:119,1,80,8|0,0:0|0:0,0:0:0:0:
24,256,121524,6,0,P|76:227|186:239,1,167.999994873047,0|0,0:0|0:0,0:0:0:0:
188,245,123024,2,0,P|219:241|237:233,1,47.9999985351563,8|0,0:0|0:0,0:0:0:0:
265,172,123774,1,8,0:0:0:0:
255,164,124149,2,0,P|243:162|231:161,1,23.9999992675781,0|0,0:0|0:0,0:0:0:0:
391,256,124524,6,0,P|386:229|406:94,1,143.999995605469,8|0,0:0|0:0,0:0:0:0:
406,105,125836,1,0,0:0:0:0:
419,98,126024,2,0,P|422:71|417:43,2,47.9999985351563,8|0|8,0:0|0:0|0:0,0:0:0:0:
485,173,127149,1,0,0:0:0:0:
495,180,127336,1,0,0:0:0:0:
341,198,127524,6,0,P|370:189|514:223,1,167.999994873047,8|0,0:0|0:0,0:0:0:0:
510,226,129024,2,0,P|512:260|506:294,1,47.9999985351563,8|0,0:0|0:0,0:0:0:0:
419,372,129774,2,0,P|430:340|434:317,1,47.9999985351563,8|0,0:2|0:0,0:0:0:0:
432,318,130336,1,0,0:0:0:0:
225,231,130524,6,0,P|266:235|353:319,1,167.999994873047,8|0,0:0|0:0,0:0:0:0:
355,331,132024,2,0,P|353:350|346:365,1,23.9999992675781,8|0,0:0|0:0,0:0:0:0:
266,377,132399,2,0,P|281:351|285:323,2,47.9999985351563,0|8|0,0:0|0:0|0:0,0:0:0:0:
113,142,133524,6,0,P|136:172|132:314,1,167.999994873047,8|0,0:0|0:0,0:0:0:0:
132,311,135024,2,0,P|135:342|144:361,1,47.9999985351563,8|0,0:2|0:0,0:0:0:0:
157,373,135586,1,0,0:0:0:0:
61,255,135774,2,0,P|58:286|49:305,1,47.9999985351563,8|0,0:2|0:0,0:0:0:0:
354,194,136524,6,0,P|275:166|235:114,1,143.999995605469,8|0,0:0|0:0,0:0:0:0:
238,120,138024,2,0,P|239:91|245:73,1,47.9999985351563,8|0,0:0|0:0,0:0:0:0:
179,179,138774,2,0,P|190:195|197:235,1,47.9999985351563,8|0,0:0|0:0,0:0:0:0:
192,240,139336,1,0,0:0:0:0:
21,66,139524,6,0,P|66:83|182:58,1,167.999994873047,8|0,0:0|0:0,0:0:0:0:
192,56,141024,2,0,P|221:64|244:78,1,47.9999985351563,8|0,0:0|0:0,0:0:0:0:
272,127,141586,1,0,0:0:0:0:
389,43,141774,2,0,P|372:85|368:105,1,47.9999985351563,8|0,0:0|0:0,0:0:0:0:
276,166,142336,6,0,P|271:150|270:137,1,23.9999992675781,0|0,0:0|0:0,0:0:0:0:
302,84,142711,1,0,0:0:0:0:
200,285,142899,2,0,P|158:261|141:255,1,47.9999985351563,12|0,0:2|0:0,0:0:0:0:
142,262,143461,1,0,0:0:0:0:
192,202,143649,1,0,0:0:0:0:
79,328,144024,6,0,P|110:345|137:370,1,71.9999978027344,10|0,0:2|0:0,0:0:0:0:
252,144,144774,2,0,P|221:161|195:186,1,71.9999978027344,10|0,0:0|0:0,0:0:0:0:
44,38,145524,6,0,P|65:45|106:72,1,64,4|8,0:0|0:0,0:0:0:0:
105,72,146836,2,0,P|131:80|148:81,1,32,0|0,0:0|0:0,0:0:0:0:
149,79,147399,2,0,P|145:108|145:124,2,32,0|8|0,0:0|0:0|0:0,0:0:0:0:
158,70,148336,1,0,0:0:0:0:
280,11,148524,6,0,P|311:14|341:26,1,64,0|8,0:0|0:0,0:0:0:0:
347,34,149836,1,0,0:0:0:0:
352,44,150399,2,0,P|383:46|397:44,2,32,0|8|0,0:0|0:0|0:0,0:0:0:0:
329,61,151336,1,0,0:0:0:0:
247,144,151524,6,0,P|278:147|309:156,1,64,0|8,0:0|0:0,0:0:0:0:
309,156,152649,2,0,P|313:178|315:200,2,32,0|0|0,0:0|0:0|0:0,0:0:0:0:
252,351,153774,2,0,P|248:328|246:308,1,32,8|0,0:0|0:0,0:0:0:0:
168,324,154524,6,0,P|180:303|182:283,1,32,0|0,0:0|0:0,0:0:0:0:
171,223,155086,1,8,0:0:0:0:
171,223,155649,2,0,P|195:222|213:214,1,32,0|0,0:0|0:0,0:0:0:0:
259,175,156211,1,8,0:0:0:0:
259,175,156774,2,0,P|251:162|242:152,1,16,0|0,0:0|0:0,0:0:0:0:
198,110,157149,2,0,P|206:97|215:87,1,16,8|0,0:0|0:0,0:0:0:0:
215,88,157524,5,0,0:0:0:0:
215,88,158274,2,0,P|98:125|19:114,1,180.000006866455,12|0,0:0|0:0,0:0:0:0:
42,120,159399,6,0,P|53:140|57:158,2,32,0|8|0,0:0|0:0|0:0,0:0:0:0:
24,287,160524,6,0,P|46:264|76:246,1,64,0|8,0:0|0:0,0:0:0:0:
90,241,161836,2,0,P|112:237|124:237,1,32,0|0,0:0|0:0,0:0:0:0:
121,237,162305,1,0,0:0:0:0:
121,237,162399,2,0,P|122:261|122:272,1,32,0|8,0:0|0:0,0:0:0:0:
92,325,162961,1,0,0:0:0:0:
144,367,163149,2,0,P|166:361|174:360,1,24,2|2,0:0|0:3,0:0:0:0:
180,366,163524,6,0,P|203:373|247:374,1,64,0|8,0:0|0:0,0:0:0:0:
243,375,164649,2,0,P|258:373|265:371,1,16,0|0,0:0|0:0,0:0:0:0:
325,379,165024,2,0,P|336:369|342:364,1,16,0|0,0:0|0:0,0:0:0:0:
402,364,165399,2,0,P|408:341|408:327,2,32,0|8|0,0:0|0:0|0:0,0:0:0:0:
403,314,166336,1,0,0:0:0:0:
454,260,166524,6,0,P|486:267|503:274,1,48,0|0,0:0|0:0,0:0:0:0:
348,264,167274,6,0,P|336:243|331:225,1,35.9999989013672,8|0,0:0|0:0,0:0:0:0:
290,183,167649,2,0,P|302:162|315:148,1,35.9999989013672,0|0,0:0|0:0,0:0:0:0:
316,88,168024,1,0,0:0:0:0:
319,155,168211,1,0,0:0:0:0:
228,233,168399,6,0,P|195:222|162:202,1,60,0|0,0:0|0:0,0:0:0:0:
129,147,168774,2,0,P|96:158|63:178,1,60,8|0,0:3|0:0,0:0:0:0:
34,227,169149,5,2,0:2:0:0:
179,193,169336,1,0,3:0:0:0:
283,282,169524,6,0,P|339:302|515:302,1,224,4|0,3:2|0:0,0:0:0:0:
511,298,170274,6,0,P|468:294|391:309,1,120,8|0,0:0|0:0,0:0:0:0:
345,365,171024,1,8,0:0:0:0:
419,180,171399,1,0,0:0:0:0:
384,118,171586,1,0,0:0:0:0:
324,299,171774,2,0,P|261:293|232:299,1,80,8|0,0:2|0:0,0:0:0:0:
223,359,172336,1,0,0:0:0:0:
78,358,172524,6,0,P|97:329|104:278,1,80,8|0,0:0|0:0,0:0:0:0:
63,227,173086,1,0,0:0:0:0:
135,39,173274,2,0,P|127:67|131:128,1,80,8|0,0:0|0:0,0:0:0:0:
241,200,173836,2,0,P|234:160|235:120,1,80,0|0,0:0|0:0,0:0:0:0:
246,108,174399,5,8,0:0:0:0:
268,105,174586,1,8,0:0:0:0:
319,51,174774,5,12,2:0:0:0:
361,107,174961,1,8,0:0:0:0:
391,11,175149,5,12,2:0:0:0:
421,147,175336,1,8,0:0:0:0:
503,1,175524,6,0,P|491:26|498:87,1,80,12|0,2:0|0:0,0:0:0:0:
504,92,176086,1,0,0:0:0:0:
389,237,176274,2,0,P|392:204|412:151,1,80,8|0,0:0|2:0,0:0:0:0:
476,171,176836,1,0,0:0:0:0:
374,337,177024,2,0,P|400:323|458:313,1,80,8|0,0:0|0:0,0:0:0:0:
510,350,177586,1,0,0:0:0:0:
266,333,177774,2,0,P|293:325|308:319,1,40,8|0,0:0|2:0,0:0:0:0:
408,366,178149,2,0,P|389:359|369:353,1,40,0|0,2:0|3:0,0:0:0:0:
195,371,178524,6,0,P|212:308|214:281,1,80,8|0,2:0|0:0,0:0:0:0:
204,278,179086,1,0,0:0:0:0:
90,144,179274,2,0,P|96:178|94:189,1,40,8|0,0:0|2:0,0:0:0:0:
77,347,179649,6,0,P|84:324|108:273,1,80,8|0,0:0|0:0,0:0:0:0:
174,248,180201,1,0,0:0:0:0:
89,172,180385,5,8,0:0:0:0:
166,241,180569,1,8,0:0:0:0:
116,109,180753,5,12,3:2:0:0:
120,283,180937,1,8,0:0:0:0:
211,61,181121,5,12,3:2:0:0:
59,169,181305,1,8,0:0:0:0:
299,90,181489,6,0,P|352:81|414:81,1,103.999995239258,12|0,3:2|2:0,0:0:0:0:
459,123,182051,1,0,0:0:0:0:
264,260,182239,2,0,P|282:221|315:169,1,103.999995239258,8|0,0:0|2:0,0:0:0:0:
334,164,182801,1,0,0:0:0:0:
368,349,182989,6,0,P|375:318|378:290,1,51.999997619629,8|0,0:0|2:0,0:0:0:0:
206,211,183364,2,0,P|199:180|196:152,1,51.999997619629,0|0,2:0|0:0,0:0:0:0:
372,286,183739,2,0,P|387:250|429:200,1,103.999995239258,8|0,0:0|0:0,0:0:0:0:
499,195,184301,1,0,2:0:0:0:
252,59,184489,6,0,P|288:79|362:87,1,103.999995239258,8|0,0:0|2:0,0:0:0:0:
406,51,185051,1,0,0:0:0:0:
158,172,185239,2,0,P|194:151|254:141,1,103.999995239258,8|0,0:0|0:0,0:0:0:0:
311,177,185801,1,0,0:0:0:0:
245,245,185989,5,0,0:0:0:0:
259,237,186176,1,0,0:0:0:0:
170,299,186364,5,8,0:0:0:0:
177,249,186551,1,8,0:0:0:0:
135,368,186739,5,8,2:0:0:0:
67,224,186926,1,8,0:0:0:0:
57,371,187114,5,8,2:0:0:0:
142,168,187301,1,8,0:0:0:0:
248,368,187489,6,0,P|183:344|125:369,1,103.999995239258,12|0,2:0|2:0,0:0:0:0:
144,368,188051,1,0,0:0:0:0:
155,153,188239,2,0,P|143:203|152:254,1,103.999995239258,8|0,0:0|0:0,0:0:0:0:
221,268,188801,1,0,0:0:0:0:
81,116,188989,2,0,P|136:125|159:122,1,51.999997619629,8|0,0:0|2:0,0:0:0:0:
187,30,189364,2,0,P|242:21|265:24,1,51.999997619629,0|0,0:0|0:0,0:0:0:0:
293,150,189739,2,0,P|333:160|362:158,1,51.999997619629,8|0,0:0|0:0,0:0:0:0:
406,118,190114,1,8,0:0:0:0:
359,291,190301,1,0,0:0:0:0:
359,291,190395,1,8,0:0:0:0:
359,291,190489,5,4,0:0:0:0:
424,308,190676,1,0,0:0:0:0:
227,332,190864,5,8,2:0:0:0:
318,219,191051,1,0,0:0:0:0:
146,367,191239,6,0,P|159:318|164:258,1,103.999995239258,10|0,2:0|0:0,0:0:0:0:
163,265,191801,1,0,0:0:0:0:
163,265,191895,1,0,0:0:0:0:
99,301,191989,1,8,2:0:0:0:
255,325,192176,1,8,0:0:0:0:
74,187,192364,5,8,2:0:0:0:
107,165,192453,1,8,2:0:0:0:
146,163,192542,1,8,0:0:0:0:
183,177,192631,1,8,0:0:0:0:
202,197,192721,5,8,2:0:0:0:
227,208,192810,1,8,2:0:0:0:
254,209,192899,1,8,0:0:0:0:
280,198,192989,1,8,0:0:0:0:
287,190,193078,6,0,L|291:162,1,20,8|0,0:0|0:0,0:0:0:0:
231,114,193256,2,0,L|227:86,1,20,8|0,0:0|0:0,0:0:0:0:
279,6,193435,6,0,P|318:36|481:42,1,210.000008010865,12|0,0:0|0:0,0:0:0:0:
509,153,194185,2,0,P|468:158|435:172,1,60.0000022888184,12|0,0:0|0:0,0:0:0:0:
503,260,194560,1,0,3:0:0:0:
506,254,194747,1,8,3:2:0:0:
509,248,194935,1,0,3:2:0:0:
512,242,195122,1,0,3:0:0:0:
411,373,195310,6,0,P|417:312|401:237,1,120.000004577637,4|8,3:2|0:0,0:0:0:0:
419,266,195872,1,0,0:0:0:0:
162,220,196060,2,0,P|208:206|270:161,1,120.000004577637,4|0,3:2|0:0,0:0:0:0:
236,229,196622,1,0,3:0:0:0:
273,304,196810,2,0,P|226:307|165:334,1,90.0000034332277,2|0,3:2|0:0,0:0:0:0:
110,318,197185,2,0,P|104:352|110:381,1,60.0000022888184,8|0,0:0|3:0,0:0:0:0:
129,295,197560,1,2,0:0:0:0:
51,220,197747,2,0,P|18:231|-3:251,1,60.0000022888184,0|0,3:0|3:2,0:0:0:0:
81,229,198122,1,0,3:0:0:0:
171,160,198310,2,0,P|147:141|119:131,1,60.0000022888184,2|0,0:0|0:0,0:0:0:0:
0,159,198685,5,8,3:2:0:0:
163,58,198872,1,0,3:0:0:0:
262,94,199060,1,2,3:2:0:0:
277,122,199247,1,0,3:0:0:0:
238,268,199435,6,0,P|265:235|391:175,1,180.000006866455,4|0,0:0|3:0,0:0:0:0:
396,183,200091,1,0,3:0:0:0:
441,125,200185,2,0,P|440:95|433:65,1,60.0000022888184,8|0,3:2|0:0,0:0:0:0:
495,23,200560,1,8,0:0:0:0:
490,24,200747,1,0,3:0:0:0:
485,25,200935,1,0,3:2:0:0:
480,26,201122,1,0,3:0:0:0:
285,82,201310,6,0,P|326:81|363:87,1,60.0000022888184,4|0,0:0|3:0,0:0:0:0:
356,93,201591,1,0,3:0:0:0:
391,31,201685,1,8,3:0:0:0:
391,31,202060,6,0,P|379:90|383:166,1,120.000004577637,12|0,0:0|0:0,0:0:0:0:
439,208,202622,1,0,3:0:0:0:
405,226,202810,1,2,3:2:0:0:
378,293,202997,1,8,0:0:0:0:
231,149,203185,6,0,P|282:164|332:218,1,120.000004577637,12|2,3:2|3:2,0:0:0:0:
289,285,203747,1,0,0:0:0:0:
192,193,203935,2,0,P|229:180|260:176,1,60.0000022888184,0|0,3:2|3:2,0:0:0:0:
128,273,204310,2,0,P|91:260|60:256,1,60.0000022888184,10|0,3:2|3:2,0:0:0:0:
210,313,204685,2,0,P|206:355|209:378,1,60.0000022888184,8|0,3:2|3:0,0:0:0:0:
214,383,204966,1,0,0:0:0:0:
272,357,205060,1,2,3:2:0:0:
126,290,205247,1,0,3:0:0:0:
359,194,205435,6,0,P|323:203|173:124,1,210.000008010865,4|0,0:0|3:0,0:0:0:0:
102,50,206185,2,0,P|118:18|137:-5,1,60.0000022888184,8|0,0:2|3:0,0:0:0:0:
93,140,206560,1,0,3:2:0:0:
84,140,206747,1,0,3:0:0:0:
75,137,206935,1,0,3:2:0:0:
67,131,207122,1,0,3:0:0:0:
196,226,207310,6,0,P|137:226|67:247,1,120.000004577637,4|8,3:2|3:2,0:0:0:0:
71,258,207872,1,0,0:0:0:0:
305,384,208060,2,0,P|244:348|183:328,1,120.000004577637,4|0,0:0|0:0,0:0:0:0:
125,374,208622,1,0,3:0:0:0:
358,273,208810,2,0,P|341:226|343:200,1,60.0000022888184,2|8,3:2|3:0,0:0:0:0:
495,384,209185,2,0,P|453:365|428:358,1,60.0000022888184,8|0,0:0|0:0,0:0:0:0:
373,374,209560,1,2,3:2:0:0:
446,150,209747,6,0,P|432:185|415:218,1,60.0000022888184,0|0,3:0|3:2,0:0:0:0:
423,108,210122,1,0,0:0:0:0:
497,76,210310,2,0,P|501:41|498:14,1,60.0000022888184,2|0,3:2|3:0,0:0:0:0:
293,113,210685,2,0,P|322:102|348:89,1,60.0000022888184,8|0,3:2|3:0,0:0:0:0:
376,23,211060,1,2,3:2:0:0:
376,23,211247,1,0,3:0:0:0:
224,324,211435,6,0,P|239:273|205:140,1,180.000006866455,4|0,0:0|3:0,0:0:0:0:
202,151,212091,1,0,3:0:0:0:
271,187,212185,2,0,P|311:182|334:171,1,60.0000022888184,8|0,3:2|3:0,0:0:0:0:
368,148,212466,1,0,3:0:0:0:
404,172,212560,1,8,3:2:0:0:
402,179,212747,1,0,3:0:0:0:
400,186,212934,1,0,3:2:0:0:
398,193,213122,1,0,3:0:0:0:
298,22,213310,6,0,P|252:40|222:42,1,60.0000022888184,4|0,3:2|3:0,0:0:0:0:
157,22,213685,1,8,0:0:0:0:
193,3,213872,1,0,3:0:0:0:
198,263,214060,6,0,P|194:224|151:130,1,120.000004577637,4|0,3:2|0:0,0:0:0:0:
104,116,214622,1,8,0:0:0:0:
340,203,214810,1,0,3:0:0:0:
327,202,214903,1,8,3:2:0:0:
316,206,214997,1,0,3:0:0:0:
306,216,215091,1,0,3:0:0:0:
336,276,215185,2,0,P|365:284|395:285,2,60.0000022888184,10|0|8,3:2|0:0|0:0,0:0:0:0:
170,341,215747,5,0,3:0:0:0:
170,341,215841,1,0,3:0:0:0:
205,345,215935,1,8,0:0:0:0:
246,323,216028,1,4,0:0:0:0:
255,265,216122,6,0,P|249:241|241:224,1,30.0000011444092,0|0,0:0|0:0,0:0:0:0:
328,320,216310,1,0,3:0:0:0:
335,329,216403,1,0,3:0:0:0:
346,341,216497,6,0,P|357:322|364:312,1,30.0000011444092,8|4,3:0|0:0,0:0:0:0:
512,267,216685,2,0,P|501:248|494:238,1,30.0000011444092,8|8,0:0|0:0,0:0:0:0:
416,355,216872,2,0,P|417:369|420:384,1,30.0000011444092,0|0,3:0|3:0,0:0:0:0:
429,237,217060,1,8,3:0:0:0:
433,226,217153,1,8,3:0:0:0:
438,213,217247,1,4,3:0:0:0:
444,199,217341,1,4,3:0:0:0:
512,168,217435,5,12,0:0:0:0:
409,104,217622,1,0,3:0:0:0:
347,125,217810,1,0,3:2:0:0:
333,151,217997,1,0,3:0:0:0:
232,5,218185,6,0,P|251:67|244:111,1,80,12|0,0:0|0:0,0:0:0:0:
309,24,218560,1,0,3:2:0:0:
310,15,218747,1,0,3:0:0:0:
171,188,218935,1,8,0:0:0:0:
171,188,219310,2,0,P|215:190|315:240,1,120,0|0,3:0|0:0,0:0:0:0:
309,289,219685,1,8,3:0:0:0:
315,280,219872,1,0,3:0:0:0:
44,314,220060,6,0,P|97:288|204:261,1,160,12|0,3:2|3:0,0:0:0:0:
249,340,220622,1,0,3:0:0:0:
24,190,220810,2,0,P|81:204|113:202,1,80,2|0,3:2|3:0,0:0:0:0:
175,0,221185,2,0,P|164:48|180:161,1,160,12|2,3:2|3:2,0:0:0:0:
294,287,221747,2,0,P|324:261|362:248,1,80,0|0,3:0|3:2,0:0:0:0:
449,288,222122,1,0,3:0:0:0:
265,370,222310,2,0,P|275:311|261:264,1,80,2|0,3:2|3:0,0:0:0:0:
25,237,222685,5,12,3:2:0:0:
118,305,222872,1,0,3:0:0:0:
135,299,223060,1,2,3:2:0:0:
151,292,223247,1,0,3:0:0:0:
49,48,223435,6,0,P|50:103|90:198,1,160,12|0,3:2|3:0,0:0:0:0:
119,203,223997,1,0,3:0:0:0:
416,173,224185,2,0,P|326:162|241:132,1,160,8|2,0:0|3:0,0:0:0:0:
250,130,224747,1,0,3:0:0:0:
291,248,224935,2,0,P|289:302|272:335,1,80,8|0,3:2|3:0,0:0:0:0:
395,37,225310,2,0,P|376:86|380:130,1,80,2|0,3:0|3:0,0:0:0:0:
382,122,225591,1,0,3:0:0:0:
323,78,225685,1,8,3:2:0:0:
323,78,226060,6,0,P|251:85|157:129,1,160,12|0,3:2|0:0,0:0:0:0:
114,196,226622,1,0,3:0:0:0:
39,256,226810,2,0,P|89:260|132:277,1,80,2|8,3:2|3:0,0:0:0:0:
160,355,227185,2,0,P|214:292|295:240,1,160,8|2,3:2|3:2,0:0:0:0:
325,331,227747,6,0,P|380:364|418:367,1,80,0|0,3:0|3:2,0:0:0:0:
210,192,228122,2,0,P|265:159|303:156,2,80,0|2|0,3:0|3:2|0:0,0:0:0:0:
159,365,228685,1,8,3:2:0:0:
79,312,228872,1,0,3:0:0:0:
183,358,229060,1,2,3:2:0:0:
196,359,229247,1,0,3:0:0:0:
58,57,229435,6,0,P|56:123|89:240,1,160,12|0,0:0|3:2,0:0:0:0:
91,231,229997,1,0,3:0:0:0:
204,8,230185,2,0,P|243:17|283:21,2,80,12|0|0,3:2|3:0|3:2,0:0:0:0:
228,154,230747,1,0,0:0:0:0:
228,154,230839,1,0,0:0:0:0:
263,134,230932,1,4,0:0:0:0:
301,142,231024,1,4,0:0:0:0:
320,177,231117,5,8,0:0:0:0:
302,223,231209,1,8,0:0:0:0:
313,271,231302,1,8,0:0:0:0:
356,296,231395,1,8,0:0:0:0:
405,290,231487,1,8,0:0:0:0:
440,254,231580,1,8,0:0:0:0:
444,204,231672,5,8,2:0:0:0:
397,222,231765,1,8,2:0:0:0:
372,265,231858,1,8,0:0:0:0:
367,314,231950,1,8,2:0:0:0:
426,366,232043,6,0,P|348:349|271:369,1,160,12|0,0:0|0:0,0:0:0:0:
283,383,232605,1,0,3:0:0:0:
162,384,232793,5,2,3:2:0:0:
203,315,232980,1,8,3:0:0:0:
56,363,233168,2,0,P|95:313|108:207,1,160,12|2,0:0|3:2,0:0:0:0:
15,77,233730,2,0,P|54:86|94:82,1,80,0|0,3:2|3:2,0:0:0:0:
132,224,234105,2,0,P|170:214|210:219,1,80,0|2,3:0|3:2,0:0:0:0:
220,230,234480,1,0,0:0:0:0:
365,31,234668,1,12,3:2:0:0:
294,55,234855,1,0,3:0:0:0:
438,75,235043,1,2,0:0:0:0:
443,77,235230,2,0,P|462:82|486:79,1,40,0|0,3:0|3:0,0:0:0:0:
319,183,235418,6,0,P|385:165|487:179,1,160,14|2,3:2|3:0,0:0:0:0:
504,249,235980,1,0,3:0:0:0:
268,372,236168,6,0,P|283:325|287:223,1,120,10|0,3:2|0:0,0:0:0:0:
284,252,236543,1,2,3:0:0:0:
272,252,236730,1,0,3:0:0:0:
350,339,236917,1,8,3:0:0:0:
350,339,237293,6,0,P|363:296|457:205,1,160,4|4,3:0|3:0,0:0:0:0:
511,229,237855,1,4,3:0:0:0:
158,105,238043,6,0,P|205:129|347:106,1,200,4|4,3:2|0:0,0:0:0:0:
178,184,238699,2,0,P|273:157|347:91,1,200,4|4,3:2|0:0,0:0:0:0:
263,251,239355,2,0,P|317:168|341:72,1,200,4|4,3:2|0:0,0:0:0:0:
377,245,240011,2,0,P|374:154|324:38,1,200,4|4,3:2|0:0,0:0:0:0:
456,187,240668,1,4,3:2:0:0:
317,143,261668,5,0,0:0:0:0:
150,361,262043,5,8,0:0:0:0:
181,300,262418,1,0,0:0:0:0:
153,238,262793,1,0,0:0:0:0:
50,264,262980,5,8,0:0:0:0:
202,140,263168,1,8,0:0:0:0:
213,202,263543,1,0,0:0:0:0:
68,47,263730,5,8,0:0:0:0:
291,123,263918,1,8,0:0:0:0:
279,48,264105,1,0,3:0:0:0:
358,88,264293,1,0,3:0:0:0:
374,98,264668,6,0,P|366:126|359:203,1,95.9999970703126,12|2,3:2|3:2,0:0:0:0:
376,208,265230,1,0,0:0:0:0:
349,27,265418,2,0,P|328:47|283:110,1,95.9999970703126,8|0,0:3|0:0,0:0:0:0:
203,147,265980,2,0,P|207:114|206:90,1,47.9999985351563,0|0,3:0|0:0,0:0:0:0:
160,50,266355,1,0,3:0:0:0:
34,0,266543,2,0,P|53:43|82:81,2,95.9999970703126,0|8|0,3:0|0:3|0:0,0:0:0:0:
11,7,267480,1,0,3:0:0:0:
71,244,267668,6,0,P|66:197|78:140,1,95.9999970703126,0|0,3:0|0:0,0:0:0:0:
90,139,268230,1,0,0:0:0:0:
215,317,268418,2,0,P|187:278|169:223,1,95.9999970703126,8|0,0:3|0:0,0:0:0:0:
220,177,268980,1,0,3:0:0:0:
453,241,269355,1,0,3:0:0:0:
435,232,269543,2,0,P|426:189|426:169,1,47.9999985351563,0|0,3:0|0:0,0:0:0:0:
467,337,269918,2,0,P|456:363|431:381,1,47.9999985351563,8|0,0:3|0:0,0:0:0:0:
404,365,270293,1,0,0:0:0:0:
331,384,270480,1,0,3:0:0:0:
219,315,270668,6,0,P|259:319|319:295,1,95.9999970703126,0|0,3:0|3:0,0:0:0:0:
320,291,271230,1,0,3:0:0:0:
143,337,271418,2,0,P|155:304|153:227,1,95.9999970703126,8|0,0:3|0:0,0:0:0:0:
108,196,271980,1,0,3:0:0:0:
95,189,272355,1,0,3:0:0:0:
32,189,272543,1,0,3:0:0:0:
2,133,272730,1,0,0:0:0:0:
256,222,272918,2,0,P|236:193|223:149,1,71.9999978027344,8|0,0:3|0:0,0:0:0:0:
226,148,273293,1,0,3:0:0:0:
360,234,273574,1,0,3:0:0:0:
358,243,273668,6,0,P|350:279|353:352,1,95.9999970703126,0|0,3:0|0:0,0:0:0:0:
410,371,274230,1,0,3:0:0:0:
276,303,274418,2,0,P|242:305|210:297,1,47.9999985351563,8|0,0:0|0:0,0:0:0:0:
170,273,274793,1,0,3:0:0:0:
45,346,274980,2,0,P|75:334|139:335,1,95.9999970703126,0|0,3:0|3:0,0:0:0:0:
185,381,275543,1,0,3:0:0:0:
185,381,275730,1,0,0:0:0:0:
101,252,275918,5,8,0:0:0:0:
112,235,276105,1,0,0:0:0:0:
178,240,276293,1,0,0:0:0:0:
17,264,276480,1,8,0:3:0:0:
263,303,276668,6,0,P|273:272|282:222,1,71.9999978027344,12|0,3:2|0:0,0:0:0:0:
342,186,277043,2,0,P|335:154|317:106,1,71.9999978027344,2|0,3:2|0:0,0:0:0:0:
330,39,277418,2,0,P|373:61|423:76,1,95.9999970703126,8|0,0:0|0:0,0:0:0:0:
437,73,277980,1,0,3:0:0:0:
499,172,278168,2,0,P|467:171|447:177,1,47.9999985351563,0|0,0:0|3:0,0:0:0:0:
322,266,278543,2,0,P|360:243|402:233,1,71.9999978027344,0|0,3:0|0:0,0:0:0:0:
431,293,278918,2,0,P|475:292|516:304,1,71.9999978027344,8|0,0:0|0:0,0:0:0:0:
508,370,279293,1,0,0:0:0:0:
508,370,279480,1,0,3:0:0:0:
394,230,279668,6,0,P|397:199|389:171,1,47.9999985351563,0|0,3:0|0:0,0:0:0:0:
282,108,280043,2,0,P|315:119|351:122,1,71.9999978027344,0|0,3:0|0:0,0:0:0:0:
404,70,280418,2,0,P|427:96|456:116,1,71.9999978027344,8|0,0:0|0:0,0:0:0:0:
509,173,280793,1,0,0:0:0:0:
509,173,280980,1,0,3:0:0:0:
422,13,281168,6,0,P|414:40|393:63,1,47.9999985351563,0|0,0:0|3:0,0:0:0:0:
267,124,281543,2,0,P|275:151|296:174,1,47.9999985351563,0|0,3:0|0:0,0:0:0:0:
445,259,281918,1,8,0:3:0:0:
441,239,282105,1,0,3:0:0:0:
366,229,282293,1,0,3:0:0:0:
302,301,282480,1,8,0:3:0:0:
146,280,282668,6,0,P|168:273|192:271,1,47.9999985351563,0|0,3:0|0:0,0:0:0:0:
67,351,283043,2,0,P|71:310|55:268,1,71.9999978027344,0|0,3:0|0:0,0:0:0:0:
107,208,283418,2,0,P|89:170|55:142,1,71.9999978027344,8|0,0:0|0:0,0:0:0:0:
0,185,283793,1,0,0:0:0:0:
0,185,283980,1,0,3:0:0:0:
95,76,284168,6,0,P|125:87|148:90,1,47.9999985351563,0|0,0:0|3:0,0:0:0:0:
341,31,284543,2,0,P|319:60|300:110,1,71.9999978027344,0|0,3:0|0:0,0:0:0:0:
231,113,284918,2,0,P|226:149|229:175,1,47.9999985351563,8|0,0:3|0:0,0:0:0:0:
388,157,285293,2,0,P|388:133|384:109,1,47.9999985351563,0|0,3:0|3:0,0:0:0:0:
397,299,285668,6,0,P|410:272|460:218,1,95.9999970703126,0|0,3:0|0:0,0:0:0:0:
510,262,286230,1,0,3:0:0:0:
344,341,286418,2,0,P|320:341|296:339,1,47.9999985351563,8|0,3:0|0:0,0:0:0:0:
296,348,286793,2,0,P|320:350|344:350,1,47.9999985351563,0|0,3:0|0:0,0:0:0:0:
188,313,287168,2,0,P|166:324|147:338,1,47.9999985351563,0|0,0:0|3:0,0:0:0:0:
142,332,287543,2,0,P|170:314|198:303,1,47.9999985351563,0|0,3:0|0:0,0:0:0:0:
342,265,287918,2,0,P|290:272|241:260,1,95.9999970703126,8|0,0:0|0:0,0:0:0:0:
200,207,288480,1,0,3:0:0:0:
505,142,288668,6,0,P|456:134|377:82,1,128,4|0,3:2|0:0,0:0:0:0:
362,27,289230,1,0,3:0:0:0:
241,258,289418,2,0,P|256:223|275:200,1,64,8|0,0:0|0:0,0:0:0:0:
349,194,289793,1,0,3:0:0:0:
139,158,289980,2,0,P|176:173|222:172,2,64,0|0|0,3:0|0:0|3:0,0:0:0:0:
25,291,290543,6,0,P|71:272|132:267,1,96,0|0,3:0|0:0,0:0:0:0:
195,317,290918,1,8,3:2:0:0:
130,147,291105,2,0,P|153:178|163:224,1,64,0|0,3:0|0:0,0:0:0:0:
116,266,291480,1,0,3:0:0:0:
241,62,291668,6,0,P|198:75|96:54,1,128,4|0,3:2|0:0,0:0:0:0:
79,7,292230,1,0,3:0:0:0:
282,177,292418,2,0,P|297:141|357:70,1,128,8|0,0:0|3:0,0:0:0:0:
62,177,292980,2,0,P|23:185|-3:183,1,64,2|0,3:2|0:0,0:0:0:0:
386,244,293355,2,0,P|433:234|519:240,1,128,6|0,3:2|3:0,0:0:0:0:
315,349,293918,2,0,P|302:316|218:232,1,128,8|0,0:0|0:0,0:0:0:0:
162,253,294480,1,8,3:0:0:0:
345,185,294668,6,0,P|312:222|211:220,1,128,4|0,3:2|0:0,0:0:0:0:
248,222,295230,1,0,3:0:0:0:
444,352,295418,2,0,P|455:305|502:227,1,128,8|0,3:2|0:0,0:0:0:0:
494,236,295980,2,0,L|349:271,1,128,6|0,3:2|0:0,0:0:0:0:
300,256,296543,1,0,0:0:0:0:
361,282,296730,1,8,0:3:0:0:
170,273,296918,2,0,P|207:264|314:272,1,128,8|0,2:3|0:0,0:0:0:0:
306,347,297480,1,0,3:0:0:0:
123,384,297668,6,0,P|139:334|120:188,1,192,0|0,3:0|3:0,0:0:0:0:
116,193,298324,1,0,3:0:0:0:
183,228,298418,2,0,P|236:226|272:212,1,64,8|0,3:2|0:0,0:0:0:0:
24,126,298793,1,8,0:0:0:0:
96,95,298980,1,0,3:0:0:0:
18,134,299355,1,8,0:0:0:0:
98,103,299543,1,8,3:0:0:0:
180,153,299730,1,8,3:0:0:0:
202,278,299918,1,8,3:2:0:0:
152,19,300105,5,4,3:2:0:0:
311,123,300293,1,6,3:2:0:0:
505,112,300480,1,4,3:2:0:0:
187,283,300668,6,0,P|231:276|324:297,1,128,6|0,3:2|0:0,0:0:0:0:
344,355,301230,1,0,3:0:0:0:
173,205,301418,2,0,P|169:268|139:324,1,128,8|0,3:2|3:0,0:0:0:0:
391,78,301980,2,0,P|422:71|454:74,1,64,6|0,3:2|0:0,0:0:0:0:
130,342,302355,2,0,P|66:340|4:323,1,128,4|0,3:2|3:0,0:0:0:0:
249,348,302918,6,0,P|219:375|185:387,1,64,8|0,3:2|0:0,0:0:0:0:
0,163,303293,2,0,P|5:123|23:91,1,64,6|0,3:2|0:0,0:0:0:0:
194,253,303668,5,0,0:0:0:0:
125,285,303855,1,0,3:0:0:0:
62,257,304043,2,0,P|104:261|127:277,1,64,0|0,3:0|0:0,0:0:0:0:
319,299,304418,2,0,P|294:269|266:173,1,128,8|0,0:0|3:0,0:0:0:0:
53,26,304980,6,0,P|77:66|81:96,1,64,2|0,3:2|0:0,0:0:0:0:
308,368,305355,1,6,3:2:0:0:
308,368,305543,2,0,P|313:330|333:293,1,64,0|0,3:0|3:0,0:0:0:0:
331,303,305824,1,0,3:0:0:0:
417,323,305918,2,0,P|394:289|369:206,1,128,8|0,3:2|0:0,0:0:0:0:
418,165,306480,1,0,3:0:0:0:
117,135,306668,6,0,P|179:135|286:220,1,192,2|0,3:2|3:0,0:0:0:0:
281,222,307324,1,0,3:0:0:0:
318,144,307418,2,0,P|334:97|366:56,1,96,8|0,3:2|0:0,0:0:0:0:
390,57,307793,1,0,3:0:0:0:
75,178,307980,2,0,P|43:177|13:167,1,64,2|0,3:2|0:0,0:0:0:0:
278,240,308355,2,0,P|315:239|424:271,1,128,6|0,3:2|3:0,0:0:0:0:
204,276,308918,2,0,P|184:301|157:318,2,64,8|0|0,3:0|0:0|0:0,0:0:0:0:
170,195,309480,1,0,3:0:0:0:
161,201,309574,1,0,3:0:0:0:
218,272,309668,6,0,P|235:232|239:208,1,64,8|0,3:2|3:0,0:0:0:0:
317,150,310043,2,0,P|298:124|271:109,1,64,0|0,0:0|3:0,0:0:0:0:
260,108,310324,1,0,3:0:0:0:
335,71,310418,1,8,3:2:0:0:
446,182,310605,1,0,3:0:0:0:
375,203,310793,2,0,P|412:194|441:195,1,64,0|0,0:0|3:0,0:0:0:0:
431,205,311074,1,0,3:0:0:0:
361,220,311168,2,0,P|317:203|295:192,1,64,8|0,3:2|3:0,0:0:0:0:
132,295,311543,2,0,P|161:281|191:270,1,64,8|0,3:2|3:0,0:0:0:0:
358,131,311918,5,8,3:2:0:0:
335,71,312105,1,0,3:0:0:0:
90,255,312293,5,8,3:2:0:0:
81,187,312480,1,0,3:0:0:0:
329,362,312668,6,0,P|343:310|448:207,1,192,4|0,3:2|3:0,0:0:0:0:
451,215,313324,1,0,3:0:0:0:
512,127,313418,2,0,P|473:133|437:126,1,64,12|0,3:2|0:0,0:0:0:0:
372,89,313793,1,0,0:0:0:0:
372,89,313980,1,8,3:0:0:0:
387,157,314168,1,0,0:0:0:0:
387,157,314355,1,8,3:0:0:0:
279,320,314543,6,0,P|295:270|292:242,1,64,4|0,3:2|3:0,0:0:0:0:
219,104,314918,1,8,3:2:0:0:
265,148,315105,1,0,3:0:0:0:
80,384,315293,6,0,P|130:374|260:302,1,192,4|0,3:2|3:0,0:0:0:0:
292,96,316043,2,0,P|275:144|271:170,1,64,2|0,3:2|3:0,0:0:0:0:
290,377,316418,1,8,3:2:0:0:
270,316,316605,1,0,3:0:0:0:
307,264,316793,1,2,3:2:0:0:
143,279,316980,6,0,P|111:279|80:271,1,64,0|0,3:0|3:2,0:0:0:0:
71,207,317355,1,0,3:0:0:0:
258,308,317543,2,0,P|216:321|188:335,1,64,2|0,3:2|3:0,0:0:0:0:
329,343,317918,1,8,3:2:0:0:
388,320,318105,1,0,3:0:0:0:
258,298,318293,1,2,3:2:0:0:
258,298,318480,1,0,3:0:0:0:
496,234,318668,6,0,P|441:211|354:103,1,192,4|0,3:2|3:0,0:0:0:0:
358,106,319324,1,0,3:0:0:0:
371,198,319418,2,0,P|374:251|365:282,1,64,8|0,3:2|3:0,0:0:0:0:
439,63,319793,2,0,P|442:10|433:-21,1,64,8|0,3:2|3:0,0:0:0:0:
426,77,320168,1,0,3:2:0:0:
480,215,320355,1,8,3:0:0:0:
484,208,320449,1,8,3:0:0:0:
481,157,320543,5,8,3:2:0:0:
449,163,320636,1,8,3:0:0:0:
426,167,320730,1,0,3:0:0:0:
403,171,320824,1,0,3:0:0:0:
381,175,320918,2,0,P|383:202|386:219,1,32,8|0,3:0|3:0,0:0:0:0:
397,343,321105,1,8,3:0:0:0:
431,285,321199,1,8,3:2:0:0:
378,240,321293,6,0,P|326:236|241:258,1,128,14|0,3:2|0:0,0:0:0:0:
204,303,321855,1,0,3:0:0:0:
106,337,322043,1,0,3:2:0:0:
0,256,322230,1,0,3:0:0:0:
215,371,322418,2,0,P|246:367|278:372,2,64,12|0|0,3:2|3:0|0:0,0:0:0:0:
106,337,322980,1,0,3:0:0:0:
125,348,323074,1,0,3:0:0:0:
113,264,323168,1,10,3:2:0:0:
59,228,323355,1,0,3:0:0:0:
204,161,323543,1,10,0:0:0:0:
134,157,323730,5,0,3:0:0:0:
137,167,323824,1,0,3:0:0:0:
148,186,323918,1,8,0:0:0:0:
146,195,324011,1,4,0:0:0:0:
130,230,324105,5,8,3:2:0:0:
174,224,324199,1,8,3:0:0:0:
216,237,324293,1,8,3:2:0:0:
116,241,324480,1,0,3:0:0:0:
3,79,324668,6,0,P|0:32|3:10,1,64,12|0,3:2|3:0,0:0:0:0:
64,122,325043,1,0,3:2:0:0:
64,122,325230,1,0,3:0:0:0:
40,239,325418,2,0,P|81:228|113:229,1,64,12|0,3:2|3:0,0:0:0:0:
175,247,325793,1,0,3:2:0:0:
181,250,325980,1,0,3:0:0:0:
120,289,326168,1,8,3:2:0:0:
114,292,326355,1,0,3:0:0:0:
274,325,326543,2,0,P|258:269|256:196,1,128,0|8,3:0|0:3,0:0:0:0:
260,192,327011,1,8,0:3:0:0:
279,180,327105,1,8,0:3:0:0:
324,182,327199,1,8,0:3:0:0:
366,237,327293,6,0,P|403:252|506:251,1,128,12|0,3:2|0:0,0:0:0:0:
509,187,327855,1,0,3:0:0:0:
393,319,328043,2,0,P|342:325|308:335,1,64,0|8,3:2|3:0,0:0:0:0:
185,251,328418,2,0,P|153:248|122:242,2,64,12|0|0,3:2|3:0|0:0,0:0:0:0:
290,167,328980,5,0,3:0:0:0:
282,188,329074,1,0,3:0:0:0:
283,210,329168,1,0,3:2:0:0:
333,258,329355,1,0,0:0:0:0:
229,142,329543,2,0,P|222:97|226:63,1,64,0|0,3:2|0:0,0:0:0:0:
364,330,329918,2,0,P|329:369|308:385,1,64,12|0,3:2|3:0,0:0:0:0:
251,351,330293,1,0,3:0:0:0:
251,351,330480,2,0,P|225:351|206:355,1,32,0|0,3:0|3:0,0:0:0:0:
511,344,330668,6,0,P|467:332|387:279,1,128,12|2,3:2|3:2,0:0:0:0:
402,272,331230,1,0,3:0:0:0:
219,351,331418,2,0,P|216:295|233:196,1,128,12|2,3:2|3:2,0:0:0:0:
287,194,331980,1,0,3:0:0:0:
136,299,332168,2,0,P|90:312|67:311,1,64,8|0,3:2|3:0,0:0:0:0:
0,226,332543,5,0,3:0:0:0:
0,226,332636,1,0,3:0:0:0:
24,201,332730,1,8,0:0:0:0:
59,201,332824,1,8,3:0:0:0:
94,229,332918,1,8,0:0:0:0:
138,232,333011,1,8,3:0:0:0:
174,206,333105,1,8,0:0:0:0:
189,164,333199,1,8,0:0:0:0:
134,116,333293,6,0,P|180:133|260:126,1,128,6|2,3:2|3:2,0:0:0:0:
277,107,333765,1,0,3:0:0:0:
304,100,333862,1,0,3:0:0:0:
331,106,333960,1,8,3:0:0:0:
355,126,334057,2,0,P|356:173|355:180,1,32,10|0,3:2|3:0,0:0:0:0:
268,42,334252,2,0,P|268:26|270:10,1,32,8|0,3:2|0:0,0:0:0:0:
243,142,334447,5,10,3:2:0:0:
181,115,334544,1,0,3:0:0:0:
167,129,334642,1,0,3:0:0:0:
161,148,334739,1,0,3:0:0:0:
169,177,334836,2,0,P|134:159|89:143,1,64,10|0,3:2|3:0,0:0:0:0:
98,155,335107,1,0,3:0:0:0:
60,179,335197,1,8,0:0:0:0:
21,156,335287,1,8,0:0:0:0:
22,110,335378,2,0,L|26:76,1,32,8|0,3:2|3:0,0:0:0:0:
111,219,335558,5,0,3:0:0:0:
97,262,335649,1,0,3:0:0:0:
84,304,335739,1,8,0:0:0:0:
72,347,335829,1,8,0:0:0:0:
101,380,335920,2,0,P|125:378|140:373,1,32,4|4,0:0|0:0,0:0:0:0:
222,384,336101,2,0,P|232:362|235:346,1,32,0|0,3:0|3:0,0:0:0:0:
321,314,336281,5,8,3:2:0:0:
105,209,336468,1,0,3:0:0:0:
384,165,336656,6,0,P|428:157|514:106,1,143.999995605469,12|2,3:2|3:2,0:0:0:0:
510,84,337218,1,0,3:0:0:0:
311,272,337406,2,0,P|251:254|233:252,1,71.9999978027344,12|0,3:2|3:0,0:0:0:0:
187,289,337781,1,2,3:2:0:0:
186,297,337968,1,0,3:0:0:0:
339,159,338156,2,0,P|373:157|424:164,1,71.9999978027344,8|0,3:2|3:0,0:0:0:0:
331,173,338531,2,0,P|285:191|183:195,1,143.999995605469,6|8,3:2|3:2,0:0:0:0:
181,124,339093,1,0,3:0:0:0:
130,376,339281,6,0,P|130:325|87:227,1,143.999995605469,6|0,3:2|0:0,0:0:0:0:
39,194,339843,1,0,3:0:0:0:
161,261,340031,2,0,P|105:237|90:218,1,71.9999978027344,2|0,3:2|3:0,0:0:0:0:
234,50,340406,2,0,P|217:104|223:213,1,143.999995605469,12|2,3:2|3:2,0:0:0:0:
314,46,340968,6,0,P|266:48|239:41,1,71.9999978027344,0|0,3:0|3:2,0:0:0:0:
182,2,341343,1,0,3:0:0:0:
411,68,341531,2,0,P|390:24|385:-2,1,71.9999978027344,2|0,3:2|3:0,0:0:0:0:
472,158,341906,1,8,3:2:0:0:
415,259,342093,1,0,3:0:0:0:
483,363,342281,1,2,3:2:0:0:
483,353,342468,2,0,P|462:346|446:345,1,35.9999989013672,0|0,3:0|3:0,0:0:0:0:
315,381,342656,6,0,P|356:359|376:332,1,71.9999978027344,12|0,3:2|3:0,0:0:0:0:
251,200,343031,2,0,P|269:268|266:332,1,107.999996704102,2|0,3:2|0:0,0:0:0:0:
190,334,343406,2,0,P|166:364|133:387,1,71.9999978027344,8|0,3:2|3:0,0:0:0:0:
151,276,343781,1,8,3:2:0:0:
158,272,343968,1,0,3:0:0:0:
165,268,344156,6,0,P|189:272|209:279,1,35.9999989013672,0|0,3:0|3:0,0:0:0:0:
113,207,344343,2,0,P|135:198|156:194,1,35.9999989013672,8|8,0:0|0:0,0:0:0:0:
30,232,344531,1,8,3:0:0:0:
45,200,344624,1,8,3:0:0:0:
40,190,344718,1,0,3:0:0:0:
30,184,344812,1,0,3:0:0:0:
30,142,344906,1,8,3:0:0:0:
55,117,344999,1,8,3:0:0:0:
93,115,345093,1,0,3:0:0:0:
327,63,345281,6,0,P|278:78|182:70,1,143.999995605469,4|2,3:2|0:0,0:0:0:0:
136,19,345843,1,0,3:0:0:0:
203,137,346031,2,0,P|199:77|190:56,1,71.9999978027344,0|0,3:2|3:0,0:0:0:0:
190,225,346406,2,0,P|236:201|411:192,1,215.999993408203,12|0,3:2|3:0,0:0:0:0:
403,196,347062,1,0,3:0:0:0:
361,115,347156,1,8,3:2:0:0:
359,281,347343,1,0,3:0:0:0:
431,96,347531,5,8,3:2:0:0:
298,320,347718,1,0,3:0:0:0:
243,278,347906,1,8,0:0:0:0:
231,271,347999,1,8,0:0:0:0:
214,267,348093,1,4,0:0:0:0:
197,269,348187,1,4,0:0:0:0:
180,279,348281,2,0,L|172:318,1,35.9999989013672,0|0,3:0|3:0,0:0:0:0:
108,234,348468,2,0,L|116:273,1,35.9999989013672,0|0,3:0|3:0,0:0:0:0:
175,83,348656,5,12,3:2:0:0:
243,278,348843,1,0,3:0:0:0:
259,207,349031,2,0,P|293:184|326:176,1,71.9999978027344,2|0,3:2|3:0,0:0:0:0:
88,297,349406,6,0,P|40:275|-1:236,1,107.999996704102,8|0,3:2|0:0,0:0:0:0:
6,225,349781,1,2,3:2:0:0:
89,121,349968,1,0,3:0:0:0:
89,121,350062,1,0,3:0:0:0:
21,138,350156,1,10,3:2:0:0:
21,138,350531,2,0,P|62:113|174:109,1,143.999995605469,8|4,0:0|0:0,0:0:0:0:
279,318,351281,6,0,L|261:141,1,143.999995605469,6|0,3:2|0:0,0:0:0:0:
256,103,351843,1,0,3:0:0:0:
355,198,352031,2,0,P|389:172|426:163,1,71.9999978027344,0|0,3:2|3:0,0:0:0:0:
512,316,352406,2,0,P|463:285|357:270,1,143.999995605469,12|0,3:2|0:0,0:0:0:0:
325,315,352968,1,0,3:0:0:0:
187,162,353156,2,0,P|238:178|270:179,1,71.9999978027344,2|0,3:2|0:0,0:0:0:0:
94,265,353531,2,0,P|49:292|24:320,1,71.9999978027344,2|0,3:2|0:0,0:0:0:0:
163,323,353906,1,8,3:2:0:0:
271,169,354093,1,0,3:0:0:0:
203,194,354281,1,0,3:0:0:0:
193,197,354468,1,0,3:0:0:0:
358,258,354656,6,0,P|418:245|442:231,1,71.9999978027344,4|0,3:2|0:0,0:0:0:0:
181,200,355031,2,0,P|147:186|111:182,1,71.9999978027344,2|0,3:2|0:0,0:0:0:0:
38,70,355406,5,8,3:0:0:0:
96,102,355531,1,8,0:3:0:0:
159,79,355656,1,8,0:3:0:0:
222,140,355781,5,8,3:0:0:0:
297,98,355906,1,8,0:3:0:0:
379,128,356031,1,8,0:0:0:0:
382,140,356156,1,12,3:2:0:0:
382,140,356531,2,0,P|396:88|432:52,1,80,2|8,0:3|0:0,0:0:0:0:
501,30,357281,1,4,3:2:0:0:
