osu file format v14

[General]
AudioFilename: audio.mp3
AudioLeadIn: 0
PreviewTime: 75115
Countdown: 0
SampleSet: Soft
StackLeniency: 0.7
Mode: 0
LetterboxInBreaks: 0
WidescreenStoryboard: 0

[Editor]
Bookmarks: 1750,14057,26365,75596,97134,109442,158646,180185
DistanceSpacing: 1
BeatDivisor: 4
GridSize: 16
TimelineZoom: 1

[Metadata]
Title:Better Now
TitleUnicode:Better Now
Artist:Carpool Tunnel
ArtistUnicode:Carpool Tunnel
Creator:Mocaotic
Version:Normal
Source:osu!
Tags:indie rock english featured artist fa mappers' guild mpg
BeatmapID:2195527
BeatmapSetID:1050477

[Difficulty]
HPDrainRate:4
CircleSize:3.5
OverallDifficulty:4
ApproachRate:5
SliderMultiplier:1.1
SliderTickRate:1

[Events]
//Background and Video events
0,0,"pain.jpg",0,0
//Break Periods
//Storyboard Layer 0 (Background)
//Storyboard Layer 1 (Fail)
//Storyboard Layer 2 (Pass)
//Storyboard Layer 3 (Foreground)
//Storyboard Layer 4 (Overlay)
//Storyboard Sound Samples

[TimingPoints]
1760,384.615384615385,4,2,2,60,1,0
1760,-111.111111111111,4,2,2,60,0,0
13683,-111.111111111111,4,2,2,70,0,0
14067,-105.263157894737,4,2,2,65,0,0
25798,-105.263157894737,4,2,2,35,0,0
25990,-105.263157894737,4,2,2,55,0,0
26375,-100,4,2,2,72,0,0
50990,-100,4,2,2,78,0,0
74452,-100,4,2,2,38,0,0
74644,-100,4,2,2,48,0,0
74836,-100,4,2,2,58,0,0
75029,-100,4,2,2,68,0,0
75221,-100,4,2,2,78,0,0
75606,-90.9090909090909,4,2,2,88,0,1
97144,-111.111111111111,4,2,2,65,0,0
108875,-111.111111111111,4,2,2,35,0,0
109067,-111.111111111111,4,2,2,55,0,0
109452,-100,4,2,2,72,0,0
126375,375,4,2,2,82,1,0
128250,392.156862745098,4,2,2,78,1,0
129426,384.615384615385,4,2,2,78,1,0
157502,-100,4,2,2,38,0,0
157695,-100,4,2,2,48,0,0
157887,-100,4,2,2,58,0,0
158079,-100,4,2,2,68,0,0
158272,-100,4,2,2,78,0,0
158656,-90.9090909090909,4,2,2,88,0,1
180195,-95.2380952380952,4,2,2,78,0,0

[Colours]
Combo1 : 222,222,99
Combo2 : 136,53,13
Combo3 : 68,160,18

[HitObjects]
97,44,1760,5,6,3:2:0:0:
194,25,2144,2,0,P|240:51|240:156,1,148.49999546814,10|2,0:2|0:0,0:0:0:0:
217,232,3106,1,2,0:0:0:0:
124,198,3490,2,0,L|68:209,1,49.4999984893799,2|8,0:0|0:2,0:0:0:0:
31,229,3875,2,0,P|18:264|48:336,1,98.9999969787598,2|2,0:0|0:0,0:0:0:0:
112,382,4644,1,2,0:0:0:0:
112,382,4836,6,0,L|178:376,1,49.4999984893799,2|0,3:2|0:0,0:0:0:0:
200,346,5221,2,0,P|217:279|164:205,1,148.49999546814,10|2,0:2|0:0,0:0:0:0:
89,170,6183,1,2,0:0:0:0:
166,108,6567,2,0,L|235:89,1,49.4999984893799,2|8,0:0|0:2,0:0:0:0:
263,100,6952,2,0,P|301:145|298:203,1,98.9999969787598,2|2,0:0|0:0,0:0:0:0:
284,280,7721,1,2,0:0:0:0:
284,280,7913,6,0,L|333:298,1,49.4999984893799,2|0,3:2|0:0,0:0:0:0:
376,314,8298,2,0,P|424:280|439:189,1,148.49999546814,10|2,0:2|0:0,0:0:0:0:
416,99,9260,1,2,0:0:0:0:
329,50,9644,2,0,L|267:50,1,49.4999984893799,2|8,0:0|0:2,0:0:0:0:
231,63,10029,2,0,P|213:117|228:160,1,98.9999969787598,2|2,0:0|3:2,0:0:0:0:
306,221,10798,1,2,0:0:0:0:
306,221,10990,6,0,L|371:213,1,49.4999984893799,2|0,3:2|3:2,0:0:0:0:
404,214,11375,2,0,P|437:255|426:353,1,148.49999546814,10|2,0:2|0:0,0:0:0:0:
338,383,12336,1,2,0:0:0:0:
258,323,12721,2,0,L|255:270,1,49.4999984893799,2|8,3:2|0:2,0:0:0:0:
235,227,13106,2,0,P|183:210|138:222,1,98.9999969787598,2|2,0:0|3:2,0:0:0:0:
105,255,13683,1,0,1:2:0:0:
14,202,14067,6,0,L|11:145,1,52.2499986047745,2|0,3:2|0:0,0:0:0:0:
32,102,14452,1,10,0:2:0:0:
32,102,14644,2,0,P|78:79|130:89,1,104.499997209549,0|2,3:2|0:0,0:0:0:0:
190,172,15413,1,2,0:0:0:0:
288,134,15798,2,0,L|290:63,1,52.2499986047745,2|8,0:0|0:2,0:0:0:0:
307,32,16183,2,0,P|386:16|427:30,1,104.499997209549,2|2,0:0|0:0,0:0:0:0:
453,46,16760,1,8,0:2:0:0:
509,135,17144,6,0,L|502:206,1,52.2499986047745,2|0,3:2|0:0,0:0:0:0:
478,232,17529,1,10,0:2:0:0:
478,232,17721,2,0,P|444:245|368:224,1,104.499997209549,0|2,3:2|0:0,0:0:0:0:
293,173,18490,1,2,0:0:0:0:
218,246,18875,2,0,L|222:308,1,52.2499986047745,2|8,0:0|0:2,0:0:0:0:
247,343,19260,2,0,P|307:356|357:336,1,104.499997209549,2|2,0:0|0:0,0:0:0:0:
391,315,19836,1,8,0:2:0:0:
451,229,20221,6,0,L|454:176,1,52.2499986047745,2|0,3:2|0:0,0:0:0:0:
449,124,20606,2,0,P|378:93|307:121,1,156.749995814324,10|2,0:2|0:0,0:0:0:0:
265,215,21567,1,2,0:0:0:0:
196,293,21952,2,0,L|130:293,1,52.2499986047745,2|8,0:0|0:2,0:0:0:0:
94,275,22336,2,0,P|83:215|97:169,1,104.499997209549,2|2,0:0|0:0,0:0:0:0:
125,131,22913,1,8,0:2:0:0:
223,166,23298,6,0,L|295:169,1,52.2499986047745,2|0,3:2|0:0,0:0:0:0:
327,167,23683,2,0,P|358:125|328:27,1,156.749995814324,10|2,0:2|0:0,0:0:0:0:
230,55,24644,1,2,0:0:0:0:
129,26,25029,1,2,3:2:0:0:
129,26,25221,2,0,P|116:67|121:93,1,52.2499986047745,12|2,0:2|3:2,0:0:0:0:
82,115,25606,2,0,P|95:156|90:182,1,52.2499986047745,2|8,3:0|0:2,0:0:0:0:
84,215,25990,1,8,0:2:0:0:
128,316,26375,6,0,L|250:311,1,110,6|8,3:2|0:2,0:0:0:0:
347,308,27144,2,0,L|351:380,1,55,2|2,0:0|0:0,0:0:0:0:
401,382,27529,2,0,L|474:379,1,55,10|0,0:2|0:0,0:0:0:0:
499,346,27913,2,0,P|514:288|490:227,1,110,2|10,0:0|0:2,0:0:0:0:
469,195,28490,2,0,L|357:190,1,110,2|0,0:0|0:0,0:0:0:0:
303,189,29067,1,8,0:2:0:0:
243,281,29452,5,0,3:2:0:0:
243,281,29644,2,0,L|250:349,2,55,2|10|2,0:0|0:2|3:2,0:0:0:0:
178,191,30413,2,0,L|185:123,2,55,2|10|2,0:0|0:2|0:0,0:0:0:0:
108,277,31183,2,0,P|75:282|46:274,1,55,2|8,0:0|0:2,0:0:0:0:
13,240,31567,2,0,P|7:207|15:178,1,55,2|0,0:0|0:0,0:0:0:0:
47,143,31952,2,0,L|119:147,2,55,2|10|2,0:0|0:2|0:0,0:0:0:0:
8,103,32529,5,0,3:2:0:0:
86,25,32913,1,8,0:2:0:0:
86,25,33106,2,0,L|200:16,1,110,0|0,3:2|0:0,0:0:0:0:
287,81,33875,2,0,P|342:93|402:60,1,110,2|2,0:0|0:0,0:0:0:0:
436,43,34452,1,8,0:2:0:0:
436,43,34644,2,0,P|479:94|480:147,1,110,2|2,0:0|0:0,0:0:0:0:
461,186,35221,1,10,0:2:0:0:
374,254,35606,5,0,3:2:0:0:
299,180,35990,1,8,0:2:0:0:
299,180,36183,2,0,L|292:61,1,110,0|2,3:2|0:0,0:0:0:0:
197,126,36952,2,0,P|141:145|83:130,1,110,2|2,0:0|3:2,0:0:0:0:
57,100,37529,1,8,0:2:0:0:
57,100,37721,2,0,P|66:47|131:4,1,110,2|0,0:0|3:2,0:0:0:0:
161,8,38298,1,10,1:2:0:0:
233,91,38683,5,2,3:2:0:0:
310,13,39067,1,8,0:2:0:0:
310,13,39260,2,0,L|439:4,1,110,2|2,3:2|0:0,0:0:0:0:
470,25,39836,1,8,0:2:0:0:
470,25,40029,1,2,0:0:0:0:
482,134,40413,2,0,L|487:201,1,55,2|8,0:0|0:2,0:0:0:0:
465,240,40798,2,0,P|415:262|363:248,1,110,2|0,0:0|0:0,0:0:0:0:
319,214,41375,1,8,0:2:0:0:
229,278,41760,5,0,3:2:0:0:
229,278,41952,2,0,L|156:288,2,55,2|10|2,0:0|0:2|3:2,0:0:0:0:
319,214,42721,2,0,L|392:224,2,55,2|10|2,0:0|0:2|0:0,0:0:0:0:
262,119,43490,2,0,L|207:111,1,55,0|10,0:0|0:2,0:0:0:0:
152,103,43875,1,2,0:0:0:0:
48,140,44260,2,0,P|34:182|44:254,1,110,2|2,0:0|0:0,0:0:0:0:
69,295,44836,5,0,3:2:0:0:
155,364,45221,2,0,L|275:361,1,110,10|2,0:2|0:0,0:0:0:0:
320,360,45798,1,2,0:0:0:0:
413,302,46183,2,0,P|447:242|440:189,1,110,2|2,0:0|0:0,0:0:0:0:
399,181,46760,1,8,0:2:0:0:
399,181,46952,2,0,P|365:121|372:68,1,110,2|2,0:0|3:2,0:0:0:0:
394,33,47529,1,10,0:2:0:0:
474,107,47913,5,0,3:2:0:0:
399,181,48298,2,0,L|287:165,1,110,10|2,0:2|0:0,0:0:0:0:
238,184,48875,1,2,0:0:0:0:
198,82,49260,2,0,P|148:58|88:82,1,110,2|2,0:0|3:2,0:0:0:0:
60,112,49836,2,0,L|67:185,1,55,10|2,0:2|3:2,0:0:0:0:
39,215,50221,2,0,L|32:288,1,55,2|2,0:0|1:2,0:0:0:0:
70,311,50606,1,10,0:2:0:0:
166,364,50990,6,0,L|239:358,1,55,6|0,3:2|0:0,0:0:0:0:
269,332,51375,2,0,B|319:313|319:313|378:321,1,110,10|0,0:2|3:2,0:0:0:0:
479,353,52144,2,0,P|499:329|509:299,1,55,10|0,0:2|0:0,0:0:0:0:
504,251,52529,1,0,3:2:0:0:
408,196,52913,2,0,B|371:217|371:217|300:208,1,110,10|0,0:2|3:2,0:0:0:0:
221,134,53683,2,0,P|222:97|242:64,1,55,10|2,0:2|3:2,0:0:0:0:
268,42,54067,5,0,3:2:0:0:
375,17,54452,2,0,B|427:24|427:24|491:62,1,110,10|0,0:2|3:2,0:0:0:0:
472,164,55221,2,0,L|446:230,1,55,10|0,0:2|0:0,0:0:0:0:
426,264,55606,1,0,3:2:0:0:
327,214,55990,2,0,B|288:196|288:196|200:205,1,110,10|0,0:2|3:2,0:0:0:0:
158,292,56760,2,0,L|91:287,1,55,10|2,0:2|3:2,0:0:0:0:
57,257,57144,6,0,L|44:190,1,55,0|0,3:2|3:2,0:0:0:0:
35,148,57529,1,10,1:2:0:0:
109,67,57913,1,2,0:0:0:0:
109,67,58106,2,0,P|149:64|178:70,1,55,2|8,0:0|0:2,0:0:0:0:
208,97,58490,1,2,0:0:0:0:
254,196,58875,1,2,0:0:0:0:
254,196,59067,2,0,P|294:199|323:193,1,55,10|2,0:2|0:0,0:0:0:0:
357,171,59452,2,0,L|353:101,2,55,2|2|10,0:0|0:0|0:2,0:0:0:0:
410,194,60029,1,2,3:2:0:0:
410,194,60221,5,0,3:2:0:0:
472,284,60606,1,10,1:2:0:0:
392,360,60990,1,2,0:0:0:0:
392,360,61183,2,0,L|325:361,1,55,2|8,0:0|0:2,0:0:0:0:
282,361,61567,1,2,0:0:0:0:
201,286,61952,1,2,0:0:0:0:
201,286,62144,2,0,P|191:249|194:213,1,55,10|2,0:2|0:0,0:0:0:0:
214,182,62529,2,0,L|290:170,2,55,2|2|10,0:0|1:2|0:2,0:0:0:0:
174,151,63106,1,2,3:2:0:0:
174,151,63298,5,6,3:2:0:0:
65,134,63683,2,0,B|37:185|37:185|41:248,1,110,8|0,0:2|3:2,0:0:0:0:
98,328,64452,2,0,L|157:339,1,55,10|0,0:2|0:0,0:0:0:0:
205,349,64836,1,0,3:2:0:0:
310,316,65221,2,0,B|336:267|336:267|329:197,1,110,10|0,0:2|3:2,0:0:0:0:
245,144,65990,2,0,L|166:134,1,55,10|2,0:2|3:2,0:0:0:0:
136,126,66375,5,0,3:2:0:0:
187,28,66760,2,0,B|222:8|222:8|314:13,1,110,10|0,0:2|3:2,0:0:0:0:
390,62,67529,2,0,L|387:151,1,55,10|0,0:2|0:0,0:0:0:0:
385,171,67913,1,0,3:2:0:0:
301,242,68298,2,0,B|249:245|249:245|184:198,1,110,10|0,0:2|3:2,0:0:0:0:
143,119,69067,2,0,L|65:115,1,55,10|2,0:2|3:2,0:0:0:0:
46,152,69452,6,0,L|21:226,1,55,0|0,3:2|3:2,0:0:0:0:
48,255,69836,1,10,1:2:0:0:
133,332,70221,1,2,0:0:0:0:
133,332,70413,2,0,P|176:342|229:327,1,55,2|8,0:0|0:2,0:0:0:0:
234,314,70798,1,2,0:0:0:0:
329,259,71183,1,2,0:0:0:0:
329,259,71375,2,0,P|372:249|425:264,1,55,10|2,0:2|0:0,0:0:0:0:
425,283,71760,2,0,L|424:360,2,55,2|2|10,0:0|0:0|0:2,0:0:0:0:
465,246,72336,1,2,3:2:0:0:
465,246,72529,5,0,3:2:0:0:
421,145,72913,1,10,1:2:0:0:
310,145,73298,2,0,P|302:174|312:215,2,55,2|2|2,1:2|0:0|1:2,0:0:0:0:
293,98,73875,1,2,0:0:0:0:
293,98,74067,1,12,1:2:0:0:
193,50,74452,2,0,P|164:69|134:99,1,55,10|10,0:2|0:2,0:0:0:0:
107,117,74836,2,0,P|94:148|87:190,1,55,10|10,0:2|0:2,0:0:0:0:
72,219,75221,2,0,P|81:251|99:289,1,55,10|0,0:2|0:0,0:0:0:0:
126,319,75606,5,6,3:2:0:0:
238,274,75990,2,0,L|242:193,1,60.5000018463135,8|0,0:2|0:0,0:0:0:0:
210,160,76375,2,0,P|151:152|89:193,1,121.000003692627,2|8,3:2|0:2,0:0:0:0:
37,174,76952,2,0,P|9:99|42:42,1,121.000003692627,2|0,3:2|3:2,0:0:0:0:
62,18,77529,1,8,0:2:0:0:
180,65,77913,1,0,0:0:0:0:
180,65,78106,2,0,L|185:134,2,60.5000018463135,2|8|2,3:2|0:2|0:2,3:2:0:0:
212,14,78683,5,0,3:2:0:0:
320,66,79067,2,0,P|331:119|300:186,1,121.000003692627,8|0,0:2|3:2,0:0:0:0:
187,203,79836,2,0,L|102:199,1,60.5000018463135,10|0,0:2|3:2,0:0:0:0:
84,243,80221,2,0,P|78:286|90:320,1,60.5000018463135,2|0,0:0|3:2,0:0:0:0:
114,352,80606,1,10,0:2:0:0:
173,341,80798,2,0,B|211:313|211:313|303:310,1,121.000003692627,2|0,0:0|3:2,0:0:0:0:
345,314,81375,1,10,0:2:0:0:
464,296,81760,5,2,3:2:0:0:
417,183,82144,2,0,L|324:188,1,60.5000018463135,8|0,0:2|0:0,0:0:0:0:
309,147,82529,2,0,L|216:142,1,60.5000018463135,0|2,3:2|0:0,0:0:0:0:
200,106,82913,1,8,0:2:0:0:
142,126,83106,2,0,P|100:170|85:250,1,121.000003692627,2|0,3:2|3:2,0:0:0:0:
97,285,83683,1,8,0:2:0:0:
211,323,84067,2,0,L|277:320,1,60.5000018463135,0|2,0:0|3:2,0:0:0:0:
324,290,84452,2,0,P|326:241|312:209,1,60.5000018463135,8|2,0:2|3:2,0:0:0:0:
289,180,84836,6,0,B|262:137|262:137|280:43,1,121.000003692627,0|8,3:2|0:2,0:0:0:0:
378,8,85606,2,0,P|416:5|479:64,1,121.000003692627,0|8,3:2|0:2,0:0:0:0:
488,115,86183,1,2,3:2:0:0:
488,115,86375,1,10,0:0:0:0:
431,219,86760,1,8,0:2:0:0:
431,219,86952,2,0,L|344:210,1,60.5000018463135,10|8,0:2|0:2,0:0:0:0:
319,238,87336,1,8,0:2:0:0:
319,238,87529,1,10,0:2:0:0:
200,215,87913,6,0,P|175:162|198:90,1,121.000003692627,6|8,3:2|0:2,0:0:0:0:
225,55,88490,1,0,0:0:0:0:
285,51,88683,2,0,L|347:48,1,60.5000018463135,2|0,3:2|3:2,0:0:0:0:
405,49,89067,1,8,0:2:0:0:
443,95,89260,2,0,P|462:151|443:207,1,121.000003692627,2|0,3:2|3:2,0:0:0:0:
398,248,89836,1,8,0:2:0:0:
288,194,90221,2,0,P|242:185|172:236,1,121.000003692627,2|8,0:0|0:2,0:0:0:0:
172,280,90798,1,2,0:0:0:0:
208,329,90990,6,0,B|246:362|246:362|358:344,1,121.000003692627,2|8,3:2|0:2,0:0:0:0:
374,336,91567,1,2,0:0:0:0:
460,250,91952,1,2,3:2:0:0:
424,134,92336,1,2,3:2:0:0:
424,134,92529,2,0,P|375:124|341:132,1,60.5000018463135,0|2,0:0|3:2,0:0:0:0:
307,141,92913,1,10,0:2:0:0:
276,258,93298,1,2,0:0:0:0:
276,258,93490,2,0,P|241:298|167:305,1,121.000003692627,2|2,3:2|0:0,0:0:0:0:
119,293,94067,6,0,P|115:209|156:163,1,121.000003692627,2|10,3:2|0:2,0:0:0:0:
184,146,94644,1,0,0:0:0:0:
240,168,94836,2,0,P|307:187|364:160,1,121.000003692627,2|10,3:2|0:2,0:0:0:0:
401,132,95413,1,2,3:2:0:0:
326,46,95798,1,0,3:2:0:0:
326,46,95990,2,0,L|250:47,1,60.5000018463135,8|0,0:2|3:2,0:0:0:0:
216,79,96375,1,10,0:2:0:0:
216,79,96567,2,0,P|136:98|96:73,1,121.000003692627,2|2,1:2|0:0,0:0:0:0:
69,47,97144,5,4,3:2:0:0:
21,134,97529,2,0,L|32:320,1,148.49999546814,10|2,0:2|0:0,0:0:0:0:
36,381,98490,1,2,0:0:0:0:
130,351,98874,2,0,L|187:340,1,49.4999984893799,2|8,0:0|0:2,0:0:0:0:
218,311,99259,2,0,P|221:273|173:212,1,98.9999969787599,2|2,0:0|0:0,0:0:0:0:
154,188,99836,1,8,0:2:0:0:
67,139,100220,6,0,L|73:73,1,49.4999984893799,2|0,3:2|0:0,0:0:0:0:
89,43,100606,2,0,B|166:0|163:77|273:16,1,148.49999546814,10|2,0:2|0:0,0:0:0:0:
331,21,101567,1,2,0:0:0:0:
405,86,101951,2,0,L|412:158,1,49.4999984893799,2|8,0:0|0:2,0:0:0:0:
386,178,102336,2,0,P|332:203|277:185,1,98.9999969787598,2|2,0:0|0:0,0:0:0:0:
250,173,102913,1,8,0:2:0:0:
159,134,103297,6,0,L|109:139,1,49.4999984893799,2|0,3:2|3:2,0:0:0:0:
62,155,103683,2,0,P|36:208|69:294,1,148.49999546814,10|2,0:2|0:0,0:0:0:0:
140,353,104644,1,2,0:0:0:0:
238,352,105028,2,0,L|299:347,1,49.4999984893799,2|8,0:0|0:2,0:0:0:0:
334,333,105413,2,0,P|352:279|337:236,1,98.9999969787598,2|2,0:0|0:0,0:0:0:0:
307,202,105990,1,8,0:2:0:0:
289,101,106374,6,0,L|299:35,1,49.4999984893799,2|0,3:2|0:0,0:0:0:0:
333,19,106759,2,0,P|392:18|448:89,1,148.49999546814,10|2,0:2|0:0,0:0:0:0:
468,180,107720,1,2,0:0:0:0:
411,262,108106,1,2,3:2:0:0:
411,262,108298,2,0,L|333:264,1,49.4999984893799,12|2,0:2|3:2,0:0:0:0:
311,264,108683,2,0,L|264:314,1,49.4999984893799,2|8,3:0|0:2,0:0:0:0:
244,337,109067,1,8,0:2:0:0:
140,301,109452,6,0,P|125:252|155:175,1,110,6|8,3:2|0:2,0:0:0:0:
171,151,110029,2,0,L|298:142,1,110,2|2,3:2|0:0,0:0:0:0:
327,183,110606,1,8,0:2:0:0:
327,183,110798,1,2,0:0:0:0:
339,292,111183,2,0,L|349:362,1,55,2|8,0:0|0:2,0:0:0:0:
389,380,111567,2,0,P|449:378|484:345,1,110,2|0,0:0|0:0,0:0:0:0:
503,293,112144,1,8,0:2:0:0:
438,204,112529,5,0,3:2:0:0:
352,273,112913,2,0,L|220:283,1,110,10|2,0:2|0:0,0:0:0:0:
187,283,113490,1,2,0:0:0:0:
95,221,113875,2,0,P|79:148|114:92,1,110,2|2,0:0|0:0,0:0:0:0:
131,79,114452,1,8,0:2:0:0:
131,79,114644,2,0,P|187:98|257:68,1,110,2|2,0:0|0:0,0:0:0:0:
277,50,115221,1,8,0:2:0:0:
378,93,115606,5,0,3:2:0:0:
317,186,115990,2,0,L|332:327,1,110,10|2,0:2|0:0,0:0:0:0:
335,350,116567,1,2,0:0:0:0:
441,376,116952,2,0,P|479:327|460:241,1,110,2|2,0:0|0:0,0:0:0:0:
445,238,117529,2,0,L|377:234,2,55,10|2|2,0:0|0:0|0:0,0:0:0:0:
492,206,118106,1,2,3:2:0:0:
492,206,118298,2,0,L|488:138,1,55,10|2,0:2|0:0,0:0:0:0:
484,96,118683,5,0,3:2:0:0:
375,76,119067,2,0,L|217:82,1,110,10|2,0:2|0:0,0:0:0:0:
214,58,119644,1,2,0:0:0:0:
120,116,120029,2,0,P|153:182|207:199,1,110,2|2,0:0|0:0,0:0:0:0:
238,198,120606,2,0,L|296:153,2,55,10|2|2,0:0|0:0|0:0,0:0:0:0:
241,259,121183,1,2,3:2:0:0:
241,259,121375,2,0,L|236:326,1,55,10|2,0:2|3:2,0:0:0:0:
223,367,121760,5,2,3:2:0:0:
115,352,122144,1,8,0:2:0:0:
115,352,122336,2,0,P|84:294|97:237,1,110,2|2,3:2|0:0,0:0:0:0:
151,161,123106,2,0,L|285:139,1,110,2|0,0:0|0:0,0:0:0:0:
314,139,123683,1,8,0:2:0:0:
314,139,123875,2,0,P|329:54|293:9,1,110,2|0,0:0|3:2,0:0:0:0:
279,0,124452,1,8,0:2:0:0:
171,23,124836,6,0,B|148:52|148:52|66:63,1,110,2|8,3:2|0:2,0:0:0:0:
27,89,125413,2,0,P|14:145|48:215,1,110,2|0,3:2|0:0,0:0:0:0:
67,234,125990,1,10,1:2:0:0:
167,182,126375,2,0,B|238:174,1,55,12|8,1:2|0:2,0:0:0:0:
278,195,126750,1,8,0:2:0:0:
278,195,126937,2,0,B|323:258,1,55,0|8,3:2|0:2,0:0:0:0:
311,299,127312,1,8,0:2:0:0:
311,299,127500,2,0,L|270:348,1,55,0|8,3:2|0:2,0:0:0:0:
226,367,127875,1,0,3:2:0:0:
130,316,128250,6,0,P|150:257|206:226,1,110,14|2,0:2|0:0,0:0:0:0:
241,225,128838,1,2,0:0:0:0:
333,285,129230,1,2,0:0:0:0:
333,285,129426,2,0,L|450:278,1,110,2|8,0:0|0:2,0:0:0:0:
491,252,130002,1,2,0:0:0:0:
491,252,130195,2,0,P|490:209|480:182,1,55,2|2,0:0|0:0,0:0:0:0:
474,144,130579,2,0,P|475:101|485:74,1,55,10|2,0:2|0:0,0:0:0:0:
501,39,130964,5,0,3:2:0:0:
397,1,131349,2,0,L|262:6,1,110,10|2,0:2|0:0,0:0:0:0:
245,41,131926,1,2,0:0:0:0:
140,6,132310,1,2,0:0:0:0:
140,6,132502,2,0,P|158:78|139:125,1,110,2|8,0:0|0:2,0:0:0:0:
51,163,133272,2,0,P|47:211|69:255,1,55,2|0,0:0|1:2,0:0:0:0:
69,267,133656,1,10,0:2:0:0:
151,339,134041,6,0,L|224:333,1,55,6|0,3:2|0:0,0:0:0:0:
254,309,134426,2,0,B|267:275|267:275|259:200,1,110,10|0,0:2|3:2,0:0:0:0:
298,98,135195,2,0,P|328:92|359:99,1,55,10|0,0:2|0:0,0:0:0:0:
398,125,135580,1,0,3:2:0:0:
473,210,135964,2,0,B|470:256|470:256|421:324,1,110,10|0,0:2|3:2,0:0:0:0:
340,368,136734,2,0,P|303:367|270:347,1,55,10|2,0:2|3:2,0:0:0:0:
243,326,137118,5,0,3:2:0:0:
141,368,137503,2,0,B|97:355|97:355|18:376,1,110,10|0,0:2|3:2,0:0:0:0:
2,266,138272,2,0,L|14:197,1,55,10|0,0:2|0:0,0:0:0:0:
23,157,138657,1,0,3:2:0:0:
127,124,139041,2,0,B|154:157|154:157|168:244,1,110,10|0,0:2|3:2,0:0:0:0:
245,299,139811,2,0,L|313:298,1,55,10|2,0:2|3:2,0:0:0:0:
351,280,140195,6,0,L|355:214,1,55,0|0,3:2|3:2,0:0:0:0:
358,170,140580,1,10,1:2:0:0:
261,131,140964,1,2,0:0:0:0:
261,131,141157,2,0,P|258:91|264:62,1,55,2|8,0:0|0:2,0:0:0:0:
280,25,141541,1,2,0:0:0:0:
383,63,141926,1,2,0:0:0:0:
383,63,142118,2,0,P|386:103|380:132,1,55,10|2,0:2|0:0,0:0:0:0:
412,166,142503,2,0,L|482:162,2,55,2|2|10,0:0|0:0|0:2,0:0:0:0:
369,200,143080,1,2,3:2:0:0:
369,200,143272,5,0,3:2:0:0:
273,145,143657,1,10,1:2:0:0:
219,240,144041,1,2,0:0:0:0:
219,240,144234,2,0,L|149:237,1,55,2|8,0:0|0:2,0:0:0:0:
109,238,144618,1,2,0:0:0:0:
22,181,145002,1,2,0:0:0:0:
22,181,145195,2,0,P|21:142|34:108,1,55,10|2,0:2|0:0,0:0:0:0:
56,80,145580,2,0,L|35:3,2,55,2|2|10,0:0|1:2|0:2,0:0:0:0:
114,98,146157,1,2,3:2:0:0:
114,98,146349,5,6,3:2:0:0:
200,30,146734,2,0,B|241:15|241:15|314:25,1,110,10|0,0:2|3:2,0:0:0:0:
397,85,147503,2,0,L|394:148,1,55,10|0,0:2|0:0,0:0:0:0:
389,194,147887,1,0,3:2:0:0:
292,246,148272,2,0,B|251:251|251:251|173:223,1,110,10|0,0:2|3:2,0:0:0:0:
76,231,149041,2,0,L|66:310,1,55,10|2,0:2|3:2,0:0:0:0:
62,340,149426,5,0,3:2:0:0:
168,368,149811,2,0,B|210:374|210:374|294:349,1,110,10|0,0:2|3:2,0:0:0:0:
322,255,150580,2,0,L|325:166,1,55,10|0,0:2|0:0,0:0:0:0:
326,145,150964,1,0,3:2:0:0:
425,97,151349,2,0,B|455:124|455:124|476:210,1,110,10|0,0:2|3:2,0:0:0:0:
480,301,152118,2,0,L|427:353,1,55,10|2,0:2|3:2,0:0:0:0:
396,372,152502,6,0,L|321:371,1,55,0|0,3:2|3:2,0:0:0:0:
286,365,152887,1,10,1:2:0:0:
202,293,153272,1,2,0:0:0:0:
202,293,153464,2,0,P|203:248|231:201,1,55,2|8,0:0|0:2,0:0:0:0:
238,193,153849,1,2,0:0:0:0:
324,125,154234,1,2,0:0:0:0:
324,125,154426,2,0,P|303:89|278:74,1,55,10|2,0:2|0:0,0:0:0:0:
241,62,154810,2,0,L|237:-2,2,55,2|2|10,0:0|0:0|0:0,0:0:0:0:
197,90,155387,1,2,3:2:0:0:
197,90,155580,5,0,3:2:0:0:
217,197,155964,1,10,1:2:0:0:
316,150,156349,2,0,P|317:120|308:94,2,55,2|2|0,1:2|0:0|1:2,0:0:0:0:
350,201,156926,1,2,0:0:0:0:
350,201,157118,1,12,1:2:0:0:
309,302,157502,2,0,P|278:311|238:294,1,55,10|10,0:2|0:2,0:0:0:0:
211,273,157887,2,0,P|180:264|140:281,1,55,10|10,0:2|0:2,0:0:0:0:
114,302,158272,2,0,P|83:311|43:294,1,55,10|0,0:2|0:2,0:0:0:0:
13,268,158656,5,6,3:2:0:0:
93,178,159040,2,0,L|183:173,1,60.5000018463135,8|0,0:2|0:0,0:0:0:0:
213,169,159425,2,0,B|234:105|186:108|210:43,1,121.000003692627,0|8,3:2|0:2,0:0:0:0:
246,5,160002,2,0,L|378:1,1,121.000003692627,2|0,3:2|3:2,0:0:0:0:
427,2,160579,1,8,0:2:0:0:
451,120,160964,1,0,0:0:0:0:
451,120,161157,2,0,L|520:125,2,60.5000018463135,2|8|2,3:2|0:2|0:2,3:2:0:0:
390,114,161733,5,0,3:2:0:0:
282,168,162117,2,0,P|250:216|259:284,1,121.000003692627,8|0,0:2|3:2,0:0:0:0:
351,350,162886,2,0,L|451:326,1,60.5000018463135,10|0,0:2|3:2,0:0:0:0:
450,292,163271,2,0,P|447:252|423:218,1,60.5000018463135,2|0,0:0|3:2,0:0:0:0:
396,189,163656,1,10,0:2:0:0:
336,179,163848,2,0,B|288:186|288:186|203:268,1,121.000003692627,2|0,0:0|3:2,0:0:0:0:
194,281,164425,1,10,0:2:0:0:
83,231,164810,5,2,3:2:0:0:
74,110,165194,2,0,L|69:17,1,60.5000018463135,8|0,0:2|0:0,0:0:0:0:
117,10,165579,2,0,P|149:3|207:15,1,60.5000018463135,0|0,3:2|0:0,0:0:0:0:
232,28,165963,1,10,0:2:0:0:
233,88,166156,2,0,L|236:224,1,121.000003692627,2|0,3:2|3:2,0:0:0:0:
275,254,166733,1,8,0:2:0:0:
234,367,167117,2,0,P|193:373|165:368,1,60.5000018463135,0|2,0:0|3:2,0:0:0:0:
130,328,167502,2,0,P|89:322|61:327,1,60.5000018463135,8|2,0:2|3:2,0:0:0:0:
17,353,167887,6,0,B|2:316|2:316|12:217,1,121.000003692627,0|8,3:2|0:2,0:0:0:0:
87,142,168656,2,0,P|146:129|196:170,1,121.000003692627,0|8,3:2|3:2,0:0:0:0:
222,220,169233,1,2,3:2:0:0:
222,220,169426,1,10,0:0:0:0:
289,325,169810,1,8,0:2:0:0:
289,325,170002,2,0,L|376:316,1,60.5000018463135,10|8,0:2|0:2,0:0:0:0:
413,316,170386,1,8,0:2:0:0:
413,316,170579,1,10,0:2:0:0:
390,196,170964,6,0,P|332:175|258:200,1,121.000003692627,6|8,3:2|0:2,0:0:0:0:
225,219,171540,1,0,0:0:0:0:
167,202,171733,2,0,P|161:168|165:137,1,60.5000018463135,2|0,3:2|3:2,0:0:0:0:
182,85,172117,1,8,0:2:0:0:
150,33,172310,2,0,P|94:14|38:33,1,121.000003692627,2|0,3:2|3:2,0:0:0:0:
12,88,172886,1,8,0:2:0:0:
56,200,173271,2,0,P|108:241|176:238,1,121.000003692627,2|8,0:0|0:2,0:0:0:0:
221,232,173849,1,2,0:0:0:0:
277,211,174041,6,0,B|314:198|314:198|412:214,1,121.000003692627,2|8,3:2|0:2,0:0:0:0:
450,233,174617,1,2,0:0:0:0:
505,125,175002,1,2,3:2:0:0:
456,19,175387,1,2,3:2:0:0:
456,19,175579,2,0,L|373:17,1,60.5000018463135,0|2,0:0|3:2,0:0:0:0:
335,22,175963,1,10,0:2:0:0:
304,139,176349,1,2,0:0:0:0:
304,139,176541,2,0,P|342:198|410:208,1,121.000003692627,2|2,3:2|0:0,0:0:0:0:
442,240,177117,6,0,P|446:324|405:370,1,121.000003692627,2|10,3:2|0:2,0:0:0:0:
375,383,177694,1,0,0:0:0:0:
328,344,177887,2,0,P|261:325|204:352,1,121.000003692627,2|10,3:2|0:2,0:0:0:0:
168,381,178463,1,2,3:2:0:0:
61,323,178848,1,0,3:2:0:0:
61,323,179040,2,0,L|57:250,1,60.5000018463135,8|0,0:2|3:2,0:0:0:0:
99,220,179425,1,10,0:2:0:0:
99,220,179617,2,0,P|170:197|219:213,1,121.000003692627,2|2,1:2|0:0,0:0:0:0:
259,243,180195,5,6,3:2:0:0:
364,288,180579,2,0,P|422:260|418:157,1,173.24999471283,10|2,0:0|3:2,0:0:0:0:
340,78,181541,2,0,L|334:14,2,57.7499982376099,2|2|2,0:0|0:0|3:2,0:0:0:0:
303,122,182118,1,10,0:0:0:0:
198,74,182502,2,0,P|159:66|123:75,1,57.7499982376099,2|2,0:0|0:0,0:0:0:0:
94,102,182887,2,0,L|91:172,1,57.7499982376099,10|10,0:0|0:0,0:0:0:0:
88,217,183272,5,6,3:2:0:0:
193,262,183656,2,0,B|273:283|283:204|373:223,1,173.24999471283,10|2,0:0|3:2,0:0:0:0:
466,255,184618,2,0,P|485:312|448:379,1,115.49999647522,2|2,0:0|3:2,0:0:0:0:
409,372,185195,1,10,0:0:0:0:
310,312,185579,2,0,L|300:234,1,57.7499982376099,2|2,0:0|0:0,0:0:0:0:
340,210,185964,2,0,L|350:132,1,57.7499982376099,10|10,0:0|0:0,0:0:0:0:
319,101,186349,5,6,3:2:0:0:
215,50,186733,2,0,P|147:70|104:169,1,173.24999471283,10|2,0:0|3:2,0:0:0:0:
169,252,187695,2,0,L|250:258,2,57.7499982376099,2|2|2,0:0|0:0|3:2,0:0:0:0:
115,274,188272,1,10,0:0:0:0:
166,377,188656,2,0,L|250:369,1,57.7499982376099,2|2,0:0|0:0,0:0:0:0:
269,335,189041,2,0,L|353:343,1,57.7499982376099,10|10,0:0|0:0,0:0:0:0:
376,369,189426,5,6,3:2:0:0:
473,307,189810,2,0,P|496:250|470:185,1,115.49999647522,10|10,0:0|0:0,0:0:0:0:
451,150,190387,1,10,0:0:0:0:
354,213,190772,1,10,0:0:0:0:
