osu file format v14

[General]
AudioFilename: audio.mp3
AudioLeadIn: 0
PreviewTime: 4918
Countdown: 0
SampleSet: Soft
StackLeniency: 0.7
Mode: 0
LetterboxInBreaks: 0
WidescreenStoryboard: 0

[Editor]
Bookmarks: 39279,84017,142535,159279
DistanceSpacing: 1.2
BeatDivisor: 4
GridSize: 4
TimelineZoom: 1

[Metadata]
Title:Afterlight
TitleUnicode:Afterlight
Artist:Carpool Tunnel
ArtistUnicode:Carpool Tunnel
Creator:_Epreus
Version:Hard
Source:
Tags:osu! featured artist indie rock squirrelpascals mappers' guild mapper's
BeatmapID:2126008
BeatmapSetID:1001546

[Difficulty]
HPDrainRate:4
CircleSize:4.5
OverallDifficulty:6
ApproachRate:8
SliderMultiplier:1.5
SliderTickRate:1

[Events]
//Background and Video events
0,0,"hong-kong-1990268_1920.jpg",0,0
//Break Periods
2,17497,27361
2,62148,72012
2,106451,116663
//Storyboard Layer 0 (Background)
//Storyboard Layer 1 (Fail)
//Storyboard Layer 2 (Pass)
//Storyboard Layer 3 (Foreground)
//Storyboard Layer 4 (Overlay)
//Storyboard Sound Samples

[TimingPoints]
236,337.078651685393,4,2,1,45,1,0
573,340.909090909091,4,2,1,45,1,0
913,344.827586206897,4,2,1,45,1,0
1257,343.053173241852,4,2,1,45,1,0
1600,348.837209302326,4,2,1,45,1,0
5786,-100,4,2,1,75,0,1
9797,-100,4,2,4,75,0,1
9884,-100,4,2,1,75,0,1
10495,-100,4,2,4,75,0,1
10582,-100,4,2,1,75,0,1
14158,-100,4,2,4,75,0,1
14419,-100,4,2,1,75,0,1
16948,-100,4,2,1,55,0,0
28111,-125,4,2,1,60,0,0
33518,-100,4,2,4,60,0,0
33693,-125,4,2,1,60,0,0
38576,-111.111111111111,4,2,1,75,0,0
39274,-100,4,2,1,75,0,1
61600,-125,4,2,1,60,0,0
72762,-117.647058823529,4,2,1,60,0,0
83925,-100,4,2,1,75,0,1
106251,-100,4,2,1,75,0,0
117413,-117.647058823529,4,2,1,55,0,0
128576,-117.647058823529,4,2,1,55,0,0
139952,344.332855093257,4,2,1,45,1,0
142540,348.837209302326,4,2,1,75,1,0
142540,-100,4,2,1,75,0,1
176202,-100,4,2,1,75,0,0
180214,-100,4,2,1,5,0,0

[Colours]
Combo1 : 255,128,128
Combo2 : 255,255,128
Combo3 : 128,255,255
Combo4 : 128,128,255
Combo5 : 255,0,0

[HitObjects]
46,104,5262,5,0,1:0:0:0:
46,104,5437,2,0,L|134:97,1,75,8|0,0:0|1:0,0:0:0:0:
214,90,5786,6,0,B|223:201|223:201|271:197,1,150,4|8,1:2|0:0,0:0:0:0:
351,190,6309,1,0,0:0:0:0:
268,273,6483,2,0,L|261:198,1,75,0|0,1:0|1:0,0:0:0:0:
351,190,6832,2,0,L|344:115,1,75,8|0,0:0|0:0,0:0:0:0:
336,23,7181,6,0,B|448:13|448:13|453:77,1,150,0|8,1:0|0:0,0:0:0:0:
459,140,7704,1,0,0:0:0:0:
467,228,7879,2,0,L|387:235,1,75,0|0,1:0|1:0,0:0:0:0:
345,311,8227,2,0,B|306:315|306:315|299:235,1,112.5,8|0,0:0|0:0,0:0:0:0:
295,195,8576,6,0,L|207:203,1,75,0|0,1:0|1:0,0:0:0:0:
174,278,8925,2,0,B|134:281|134:281|124:162,1,150,8|0,0:0|1:0,0:0:0:0:
117,82,9448,1,0,1:0:0:0:
117,82,9623,2,0,L|37:89,1,75,8|2,0:0|1:2,0:0:0:0:
124,172,9972,6,0,L|199:165,2,75,2|2|10,0:2|1:2|0:2,0:0:0:0:
34,180,10495,1,2,1:2:0:0:
42,270,10669,6,0,L|48:345,2,75,2|2|10,0:2|1:2|0:2,0:0:0:0:
34,180,11193,1,10,0:0:0:0:
34,180,11280,1,8,0:0:0:0:
34,180,11367,6,0,B|143:170|143:170|140:130,1,150,4|8,1:2|0:0,0:0:0:0:
133,41,11890,1,0,0:0:0:0:
215,124,12065,2,0,L|140:130,1,75,0|0,1:0|1:0,0:0:0:0:
133,41,12413,2,0,L|208:34,1,75,8|0,0:0|0:0,0:0:0:0:
296,26,12762,6,0,B|408:16|408:16|413:72,1,150,0|8,1:0|0:0,0:0:0:0:
419,144,13286,1,0,0:0:0:0:
338,226,13460,2,0,L|331:152,1,75,0|0,1:0|1:0,0:0:0:0:
240,160,13809,2,0,B|246:235|246:235|191:240,1,112.5,8|0,0:0|0:0,0:0:0:0:
167,242,14158,6,0,L|79:250,1,75,2|0,1:2|0:0,0:0:0:0:
99,337,14506,2,0,B|102:376|102:376|238:365,1,150,8|0,0:0|1:0,0:0:0:0:
301,359,15030,1,0,1:0:0:0:
301,359,15204,2,0,L|294:271,1,75,8|2,0:0|0:2,0:0:0:0:
380,201,15553,6,0,L|386:275,2,75,2|2|10,1:2|1:2|0:2,0:0:0:0:
372,112,16076,1,2,0:2:0:0:
283,120,16251,6,0,L|209:125,2,75,2|2|10,1:2|1:2|0:2,0:0:0:0:
372,112,16774,1,10,0:2:0:0:
372,112,16861,1,8,0:0:0:0:
372,112,16948,1,4,1:2:0:0:
388,291,17297,5,8,0:0:0:0:
474,84,28111,6,0,L|347:73,1,120,4|8,1:2|0:0,0:0:0:0:
211,61,28809,1,0,1:0:0:0:
211,61,28983,2,0,L|206:124,1,60,0|8,0:0|0:0,0:0:0:0:
200,192,29332,2,0,L|140:187,1,60,0|0,0:0|1:0,0:0:0:0:
68,181,29681,2,0,L|63:244,1,60,0|8,0:0|0:0,0:0:0:0:
57,312,30030,2,0,B|188:324|188:324|194:264,1,180,0|8,0:0|0:0,0:0:0:0:
199,204,30727,1,0,1:0:0:0:
199,204,30902,6,0,L|326:215,1,120,0|8,1:0|0:0,0:0:0:0:
462,227,31600,2,0,L|467:163,1,60,0|0,1:0|0:0,0:0:0:0:
473,96,31948,2,0,L|350:85,2,120,8|0|8,0:0|1:0|0:0,0:0:0:0:
461,239,32995,2,0,L|341:229,1,120,0|8,1:0|0:0,0:0:0:0:
270,222,33518,1,2,0:0:0:0:
270,222,33693,6,0,L|264:286,1,60,0|0,1:0|1:0,0:0:0:0:
193,276,34041,2,0,B|198:216|198:216|117:209,1,120,8|0,0:0|1:0,0:0:0:0:
67,205,34565,2,0,L|7:199,1,60,0|8,1:0|0:0,0:0:0:0:
19,56,35088,2,0,L|143:67,1,120,0|8,1:0|0:0,0:0:0:0:
282,79,35786,2,0,L|277:139,1,60,0|0,1:0|1:0,0:0:0:0:
271,210,36134,2,0,L|330:215,1,60,8|0,0:0|1:0,0:0:0:0:
402,222,36483,6,0,B|415:78,2,120,0|8|0,1:0|0:0|1:0,0:0:0:0:
390,365,37530,1,8,0:0:0:0:
246,353,37879,6,0,B|103:340,1,120,0|8,1:0|0:0,0:0:0:0:
139,199,38576,2,0,B|145:131|145:131|225:138,1,134.999995880127,8|8,0:0|0:0,0:0:0:0:
392,153,39274,6,0,L|385:232,1,75,4|0,1:2|0:0,0:0:0:0:
378,316,39623,2,0,B|274:307|274:307|279:251,1,150,8|0,0:0|1:0,0:0:0:0:
286,172,40146,2,0,L|131:158,1,150,0|0,1:0|0:0,0:0:0:0:
119,338,40844,1,0,1:0:0:0:
119,338,41018,2,0,L|126:258,1,75,8|0,0:0|0:0,0:0:0:0:
34,250,41367,2,0,B|43:146|43:146|99:151,1,150,0|8,1:0|0:0,0:0:0:0:
179,158,41890,1,0,1:0:0:0:
179,158,42065,6,0,L|192:3,2,150,4|8|0,1:2|0:0|1:0,0:0:0:0:
171,250,42937,2,0,L|250:257,1,75,0|8,0:0|0:0,0:0:0:0:
334,264,43286,2,0,B|378:268|378:268|388:148,1,150,6|2,1:2|1:2,0:0:0:0:
295,156,43809,1,10,0:0:0:0:
303,69,43983,2,0,B|403:77|403:77|466:83,1,150,6|2,1:2|1:2,0:0:0:0:
446,174,44506,2,0,L|439:261,1,75,10|10,0:0|0:0,0:0:0:0:
436,293,44768,1,8,0:0:0:0:
436,293,44855,5,4,1:2:0:0:
257,277,45204,2,0,L|101:264,2,150,8|0|8,0:0|1:0|0:0,0:0:0:0:
265,186,46076,1,0,0:0:0:0:
265,186,46251,2,0,L|156:176,1,75,0|0,1:0|0:0,0:0:0:0:
101,172,46600,1,8,0:0:0:0:
14,164,46774,2,0,B|23:56|23:56|71:60,1,150,0|0,0:0|1:0,0:0:0:0:
155,68,47297,1,8,0:0:0:0:
334,87,47646,6,0,B|441:97|441:97|437:145,2,150,4|8|0,1:2|0:0|1:0,0:0:0:0:
326,179,48518,2,0,L|319:255,1,75,0|8,0:0|0:0,0:0:0:0:
311,342,48867,1,0,1:0:0:0:
399,350,49041,6,0,B|443:354|443:354|454:230,1,150,4|4,1:2|1:2,0:0:0:0:
460,159,49565,1,8,0:0:0:0:
460,159,49652,1,8,0:0:0:0:
460,159,49739,2,0,L|372:151,1,75,4|8,1:2|0:0,0:0:0:0:
392,60,50088,2,0,L|304:53,1,75,8|8,0:0|0:0,0:0:0:0:
229,46,50437,5,4,1:2:0:0:
213,225,50786,2,0,B|105:216|105:216|110:168,1,150,8|0,0:0|1:0,0:0:0:0:
117,85,51309,2,0,L|42:78,1,75,0|8,1:0|0:0,0:0:0:0:
33,170,51658,2,0,L|20:322,1,150,0|0,0:0|1:0,0:0:0:0:
112,329,52181,1,8,0:0:0:0:
112,329,52355,2,0,B|207:337|207:337|213:274,1,150,0|0,0:0|1:0,0:0:0:0:
220,194,52879,1,8,0:0:0:0:
308,202,53053,1,0,1:0:0:0:
300,289,53227,6,0,L|451:303,2,150,4|8|0,1:2|0:0|1:0,0:0:0:0:
308,202,54100,2,0,L|314:127,1,75,0|8,1:0|0:0,0:0:0:0:
322,38,54448,1,6,1:2:0:0:
230,30,54623,6,0,L|155:24,1,75,2|2,0:0|1:2,0:0:0:0:
146,115,54972,2,0,B|137:219|137:219|201:224,1,150,10|0,0:0|0:0,0:0:0:0:
273,231,55495,1,2,1:2:0:0:
361,238,55669,2,0,L|367:164,1,75,10|2,0:0|1:2,0:0:0:0:
375,75,56018,6,0,B|478:84|478:84|474:136,2,150,4|8|0,1:2|0:0|1:0,0:0:0:0:
283,67,56890,1,0,1:0:0:0:
275,159,57065,2,0,L|200:152,1,75,8|0,0:0|1:0,0:0:0:0:
112,144,57413,6,0,B|64:140|64:140|54:256,1,150,0|8,1:0|0:0,0:0:0:0:
234,259,58111,2,0,L|228:335,2,75,0|0|8,1:0|1:0|0:0,0:0:0:0:
242,168,58634,1,8,0:0:0:0:
242,168,58722,1,8,0:0:0:0:
242,168,58809,6,0,L|318:174,1,75,0|0,1:0|1:0,0:0:0:0:
406,182,59158,2,0,B|415:74|415:74|367:70,1,150,8|0,0:0|1:0,0:0:0:0:
284,63,59681,1,0,1:0:0:0:
196,55,59855,2,0,L|121:48,1,75,8|2,0:0|1:2,0:0:0:0:
112,140,60204,6,0,L|187:147,1,75,2|2,0:0|1:2,0:0:0:0:
275,155,60553,2,0,B|266:258|266:258|211:253,1,150,10|2,0:0|1:2,0:0:0:0:
131,246,61076,1,2,1:2:0:0:
123,338,61251,2,0,L|207:345,1,75,10|10,0:0|0:0,0:0:0:0:
242,348,61512,1,8,0:0:0:0:
242,348,61600,6,0,B|334:357|334:357|337:321,1,120,4|8,1:2|0:0,0:0:0:0:
76,82,72762,6,0,L|89:221,1,127.50000243187,4|8,1:2|0:0,0:0:0:0:
101,361,73460,1,0,1:0:0:0:
101,361,73634,2,0,L|173:354,1,63.7500012159348,0|8,1:0|0:0,0:0:0:0:
240,348,73983,2,0,L|235:285,1,63.7500012159348,0|0,0:0|1:0,0:0:0:0:
228,209,74332,2,0,L|300:203,1,63.7500012159348,0|8,1:0|0:0,0:0:0:0:
368,197,74681,2,0,L|355:55,1,127.50000243187,0|0,0:0|1:0,0:0:0:0:
350,0,75204,1,8,0:0:0:0:
198,7,75553,6,0,L|63:19,2,127.50000243187,0|8|0,1:0|0:0|1:0,0:0:0:0:
205,82,76425,1,0,1:0:0:0:
205,82,76600,2,0,L|211:154,1,63.7500012159348,8|0,0:0|0:0,0:0:0:0:
217,222,76948,2,0,L|281:216,2,63.7500012159348,0|0|8,1:0|1:0|0:0,0:0:0:0:
66,235,77646,2,0,L|2:241,2,63.7500012159348,0|0|8,1:0|1:0|0:0,0:0:0:0:
72,311,78169,1,8,0:0:0:0:
72,311,78256,1,8,0:0:0:0:
72,311,78344,6,0,B|164:303|164:303|159:251,1,127.50000243187,0|8,1:0|0:0,0:0:0:0:
154,191,78867,1,0,0:0:0:0:
148,116,79041,2,0,L|84:121,2,63.7500012159348,0|0|8,1:0|1:0|0:0,0:0:0:0:
299,102,79739,2,0,B|395:94|395:94|398:138,1,127.50000243187,0|8,1:0|0:0,0:0:0:0:
404,201,80262,1,0,0:0:0:0:
328,208,80437,2,0,L|257:214,1,63.7500012159348,0|0,1:0|1:0,0:0:0:0:
271,289,80786,2,0,L|334:284,2,63.7500012159348,8|0|0,0:0|0:0|1:0,0:0:0:0:
120,303,81483,6,0,B|64:308|64:308|46:100,2,255.000004863739,8|8|0,0:0|0:0|1:0,0:0:0:0:
271,289,83227,1,0,1:0:0:0:
271,289,83315,1,8,0:0:0:0:
271,289,83402,2,0,L|279:373,2,63.7500012159348,8|8|8,0:0|0:0|0:0,0:0:0:0:
263,198,83925,6,0,L|351:190,1,75,4|0,1:2|0:0,0:0:0:0:
427,183,84274,2,0,B|470:180|470:180|459:48,1,150,8|0,0:0|1:0,0:0:0:0:
369,80,84797,2,0,L|214:94,1,150,0|0,0:0|0:0,0:0:0:0:
39,109,85495,1,0,1:0:0:0:
39,109,85669,2,0,L|118:102,1,75,8|0,0:0|0:0,0:0:0:0:
122,194,86018,2,0,B|126:234|126:234|241:224,1,150,0|8,1:0|0:0,0:0:0:0:
325,216,86541,1,0,1:0:0:0:
333,308,86716,6,0,L|489:294,2,150,4|8|0,1:2|0:0|1:0,0:0:0:0:
325,216,87588,2,0,L|318:137,1,75,0|8,0:0|0:0,0:0:0:0:
311,53,87937,2,0,B|199:63|199:63|203:111,1,150,4|2,1:2|1:2,0:0:0:0:
210,190,88460,1,10,0:0:0:0:
218,278,88634,2,0,B|106:288|106:288|102:240,1,150,6|2,1:2|1:2,0:0:0:0:
95,160,89158,2,0,L|89:85,1,75,10|10,0:0|0:0,0:0:0:0:
85,41,89419,1,8,0:0:0:0:
85,41,89506,5,4,1:2:0:0:
264,25,89855,2,0,L|428:11,2,150,8|0|8,0:0|1:0|0:0,0:0:0:0:
173,33,90727,1,0,0:0:0:0:
181,125,90902,2,0,L|187:200,1,75,0|0,1:0|0:0,0:0:0:0:
195,288,91251,1,8,0:0:0:0:
195,288,91425,2,0,B|200:344|200:344|307:334,1,150,0|0,0:0|1:0,0:0:0:0:
383,332,91948,1,8,0:0:0:0:
364,153,92297,6,0,B|479:143|479:143|484:202,2,150,4|8|0,1:2|0:0|1:0,0:0:0:0:
272,161,93169,2,0,L|265:81,1,75,0|8,0:0|0:0,0:0:0:0:
258,0,93518,1,0,1:2:0:0:
166,5,93693,6,0,L|7:19,1,150,4|4,1:2|1:2,0:0:0:0:
27,110,94216,1,8,0:0:0:0:
27,110,94303,1,8,0:0:0:0:
27,110,94390,2,0,L|35:202,1,75,4|8,1:2|0:0,0:0:0:0:
125,178,94739,2,0,L|133:269,1,75,8|8,0:0|0:0,0:0:0:0:
139,341,95088,5,4,1:2:0:0:
319,325,95437,2,0,B|434:315|434:315|430:271,1,150,8|0,0:0|1:0,0:0:0:0:
423,192,95960,2,0,L|417:116,1,75,0|8,1:0|0:0,0:0:0:0:
325,128,96309,2,0,B|210:138|210:138|206:94,1,150,0|0,0:0|1:0,0:0:0:0:
199,11,96832,1,8,0:0:0:0:
199,11,97006,2,0,B|83:21|83:21|87:65,1,150,0|0,0:0|1:0,0:0:0:0:
94,144,97530,1,8,0:0:0:0:
102,232,97704,1,0,1:0:0:0:
10,240,97879,6,0,L|24:395,2,150,4|8|0,1:2|0:0|1:0,0:0:0:0:
102,232,98751,2,0,L|176:225,1,75,0|8,1:0|0:0,0:0:0:0:
265,218,99100,1,2,1:2:0:0:
273,305,99274,6,0,L|347:299,1,75,0|2,0:0|1:2,0:0:0:0:
436,291,99623,2,0,B|427:183|427:183|383:187,1,150,10|0,0:0|0:0,0:0:0:0:
375,96,100146,1,2,1:2:0:0:
375,96,100320,2,0,L|287:103,1,75,10|2,0:0|1:2,0:0:0:0:
307,194,100669,6,0,B|199:203|199:203|196:160,2,150,4|8|0,1:2|0:0|1:0,0:0:0:0:
315,286,101541,1,0,1:0:0:0:
315,286,101716,2,0,L|223:294,1,75,8|0,0:0|1:0,0:0:0:0:
152,300,102065,6,0,B|104:304|104:304|93:181,1,150,0|8,0:0|0:0,0:0:0:0:
79,21,102762,2,0,L|87:117,2,75,0|0|8,1:0|1:0|0:0,0:0:0:0:
171,13,103286,1,8,0:0:0:0:
171,13,103373,1,8,0:0:0:0:
171,13,103460,6,0,L|254:6,1,75,4|0,1:2|1:0,0:0:0:0:
254,98,103809,2,0,L|338:91,1,75,8|0,0:0|0:0,0:0:0:0:
418,84,104158,1,8,0:0:0:0:
426,172,104332,2,0,B|435:275|435:275|383:280,1,150,0|0,0:0|1:0,0:0:0:0:
299,287,104855,5,8,0:0:0:0:
307,379,105030,2,0,L|223:386,1,75,0|8,0:0|0:0,0:0:0:0:
224,293,105379,2,0,L|208:118,1,150,0|0,1:0|1:0,0:0:0:0:
203,54,105902,1,8,0:0:0:0:
291,46,106076,1,0,1:0:0:0:
299,138,106251,5,4,1:2:0:0:
104,356,117413,6,0,B|65:360|65:360|54:244,2,127.50000243187,4|8|0,1:2|0:0|0:0,0:0:0:0:
180,350,118286,2,0,L|244:344,1,63.7500012159348,0|0,0:0|0:0,0:0:0:0:
237,268,118634,1,8,0:0:0:0:
389,255,118983,1,0,1:0:0:0:
389,255,119158,2,0,L|383:187,1,63.7500012159348,8|0,0:0|0:0,0:0:0:0:
459,185,119506,2,0,L|447:49,1,127.50000243187,0|8,0:0|0:0,0:0:0:0:
296,70,120204,6,0,L|232:76,1,63.7500012159348,0|0,1:0|1:0,0:0:0:0:
157,83,120553,2,0,B|69:90|69:90|73:130,1,127.50000243187,8|0,0:0|0:0,0:0:0:0:
79,206,121076,2,0,L|143:200,2,63.7500012159348,0|0|8,1:0|0:0|0:0,0:0:0:0:
4,212,121600,6,0,L|15:340,1,127.50000243187,0|8,0:0|0:0,0:0:0:0:
90,333,122123,1,0,1:0:0:0:
166,327,122297,1,8,0:3:0:0:
166,327,122384,1,8,0:3:0:0:
166,327,122472,2,0,L|234:321,2,63.7500012159348,4|8|0,0:3|0:0|1:0,0:0:0:0:
159,251,122995,6,0,L|295:239,1,127.50000243187,4|8,1:2|0:0,0:0:0:0:
363,233,123518,1,0,0:0:0:0:
369,309,123693,2,0,L|445:302,2,63.7500012159348,0|0|0,0:0|1:0|0:0,0:0:0:0:
363,233,124216,6,0,L|350:90,1,127.50000243187,8|0,0:0|1:0,0:0:0:0:
345,30,124739,1,8,0:0:0:0:
193,43,125088,2,0,L|199:107,1,63.7500012159348,0|0,0:0|1:0,0:0:0:0:
206,183,125437,2,0,B|110:191|110:191|107:155,1,127.50000243187,8|0,0:0|1:0,0:0:0:0:
101,83,125960,1,0,1:0:0:0:
25,90,126134,2,0,L|36:222,1,127.50000243187,8|0,0:0|0:0,0:0:0:0:
43,293,126658,1,0,1:0:0:0:
118,287,126832,2,0,L|182:281,1,63.7500012159348,0|8,0:0|0:0,0:0:0:0:
189,357,127181,6,0,B|276:349|276:349|273:305,1,127.50000243187,0|8,0:0|0:0,0:0:0:0:
266,234,127704,1,0,1:0:0:0:
342,227,127879,1,8,0:3:0:0:
342,227,127966,1,8,0:3:0:0:
342,227,128053,2,0,L|418:220,1,63.7500012159348,4|8,0:3|0:0,0:0:0:0:
393,70,128576,6,0,L|316:77,1,63.7500012159348,4|0,1:2|0:0,0:0:0:0:
253,82,128925,2,0,L|176:89,1,63.7500012159348,8|0,0:0|1:0,0:0:0:0:
196,163,129274,6,0,L|272:157,1,63.7500012159348,8|4,0:3|0:3,0:0:0:0:
335,151,129623,2,0,L|411:145,1,63.7500012159348,8|0,0:0|1:0,0:0:0:0:
406,221,129972,6,0,L|412:289,1,63.7500012159348,8|0,0:3|1:0,0:0:0:0:
336,292,130320,2,0,L|330:228,1,63.7500012159348,8|0,0:0|1:0,0:0:0:0:
254,235,130669,6,0,L|260:302,1,63.7500012159348,8|0,0:3|1:0,0:0:0:0:
184,305,131018,2,0,L|179:241,1,63.7500012159348,8|0,0:0|1:0,0:0:0:0:
175,201,131280,1,0,0:0:0:0:
175,201,131367,6,0,L|96:208,1,63.7500012159348,4|0,0:3|1:0,0:0:0:0:
105,131,131716,2,0,L|168:126,1,63.7500012159348,8|0,0:0|1:0,0:0:0:0:
244,119,132065,2,0,L|307:114,1,63.7500012159348,4|0,0:3|1:0,0:0:0:0:
301,38,132413,2,0,L|238:43,1,63.7500012159348,8|0,0:0|1:0,0:0:0:0:
162,50,132762,6,0,L|98:56,1,63.7500012159348,8|0,0:3|1:0,0:0:0:0:
105,131,133111,2,0,L|168:126,1,63.7500012159348,8|0,0:0|1:0,0:0:0:0:
244,119,133460,2,0,L|250:182,1,63.7500012159348,4|0,0:3|1:0,0:0:0:0:
326,176,133809,2,0,L|320:112,1,63.7500012159348,8|0,0:0|0:0,0:0:0:0:
396,106,134158,6,0,L|428:103,2,31.8750006079674,0|0|0,1:0|0:0|0:0,0:0:0:0:
402,182,134506,2,0,L|434:179,2,31.8750006079674,8|0|0,0:0|1:0|1:0,0:0:0:0:
409,257,134855,2,0,L|441:254,2,31.8750006079674,0|0|0,1:0|1:0|1:0,0:0:0:0:
416,333,135204,1,8,0:0:0:0:
416,333,135291,1,0,1:0:0:0:
416,333,135379,1,0,1:0:0:0:
409,257,135553,6,0,L|277:269,1,127.50000243187,0|8,1:0|0:0,0:0:0:0:
206,275,136076,1,0,1:0:0:0:
206,275,136163,1,0,0:0:0:0:
206,275,136251,2,0,L|199:203,1,63.7500012159348,0|0,1:0|1:0,0:0:0:0:
276,205,136600,2,0,L|270:133,1,63.7500012159348,8|0,0:0|1:0,0:0:0:0:
264,65,136948,6,0,L|307:61,2,31.8750006079674,0|0|8,1:0|1:0|0:0,0:0:0:0:
188,72,137297,2,0,L|124:77,1,63.7500012159348,0|0,1:0|1:0,0:0:0:0:
131,153,137646,5,8,0:0:0:0:
131,153,137733,1,0,0:0:0:0:
131,153,137820,2,0,L|67:159,2,63.7500012159348,0|0|8,1:0|1:0|0:0,0:0:0:0:
137,229,138344,2,0,B|141:265|141:265|236:256,1,127.50000243187,0|8,1:0|0:0,0:0:0:0:
308,250,138867,1,0,1:0:0:0:
315,326,139041,2,0,L|279:329,2,31.8750006079674,8|0|0,0:0|1:0|1:0,0:0:0:0:
390,319,139390,5,8,0:0:0:0:
390,319,139477,1,8,0:0:0:0:
390,319,139565,2,0,L|474:312,1,63.7500012159348,8|0,0:0|0:0,0:0:0:0:
256,192,139952,12,0,142017,0:0:0:0:
48,293,142540,6,0,L|127:300,1,75,4|0,1:2|1:0,0:0:0:0:
211,307,142888,2,0,B|222:187|222:187|178:184,1,150,8|0,0:0|1:0,0:0:0:0:
102,177,143412,2,0,L|116:18,1,150,0|0,1:0|0:0,0:0:0:0:
295,41,144109,1,0,1:0:0:0:
295,41,144284,2,0,L|374:48,1,75,8|0,0:0|0:0,0:0:0:0:
458,55,144633,2,0,B|450:151|450:151|390:146,1,150,0|8,1:0|0:0,0:0:0:0:
306,139,145156,1,0,1:0:0:0:
306,139,145330,6,0,L|293:290,2,150,4|8|0,1:2|0:0|1:0,0:0:0:0:
215,131,146202,2,0,L|135:124,1,75,0|8,0:0|0:0,0:0:0:0:
131,216,146551,2,0,B|121:323|121:323|169:327,1,150,4|2,1:2|1:2,0:0:0:0:
253,335,147074,1,10,0:0:0:0:
261,243,147249,2,0,B|368:252|368:252|364:300,1,150,6|2,1:2|1:2,0:0:0:0:
457,300,147772,2,0,L|464:217,1,75,10|10,0:0|0:0,0:0:0:0:
467,181,148034,1,8,0:0:0:0:
467,181,148121,5,4,1:2:0:0:
288,165,148470,2,0,B|244:161|244:161|256:26,2,150,8|0|8,0:0|1:0|0:0,0:0:0:0:
379,173,149342,1,0,0:0:0:0:
379,173,149516,2,0,L|373:249,1,75,0|0,1:0|0:0,0:0:0:0:
365,336,149865,1,8,0:0:0:0:
273,328,150040,2,0,B|166:319|166:319|171:259,1,150,0|0,0:0|1:0,0:0:0:0:
177,188,150563,1,8,0:0:0:0:
357,203,150912,6,0,L|515:217,2,150,4|8|0,1:2|0:0|1:0,0:0:0:0:
365,112,151784,2,0,L|285:105,1,75,0|8,0:0|0:0,0:0:0:0:
201,97,152133,1,0,1:0:0:0:
114,90,152307,6,0,B|74:86|74:86|62:218,1,150,4|4,1:2|1:2,0:0:0:0:
56,285,152830,1,8,0:0:0:0:
56,285,152917,1,8,0:0:0:0:
56,285,153005,2,0,L|148:293,1,75,4|8,1:2|0:0,0:0:0:0:
140,204,153353,2,0,L|231:212,1,75,8|8,0:0|0:0,0:0:0:0:
303,219,153702,5,4,1:2:0:0:
482,234,154051,2,0,L|498:55,1,150,8|0,0:0|1:0,0:0:0:0:
404,79,154574,2,0,L|324:72,1,75,0|8,1:0|0:0,0:0:0:0:
320,164,154923,2,0,B|316:208|316:208|209:198,1,150,0|0,0:0|1:0,0:0:0:0:
217,107,155446,1,8,0:0:0:0:
125,99,155621,2,0,B|81:95|81:95|72:202,1,150,0|0,0:0|1:0,0:0:0:0:
64,290,156144,2,0,L|140:297,1,75,8|0,0:0|1:0,0:0:0:0:
227,304,156493,6,0,B|339:314|339:314|344:262,2,150,4|8|0,1:2|0:0|1:0,0:0:0:0:
235,213,157365,2,0,L|242:133,1,75,0|8,1:0|0:0,0:0:0:0:
334,145,157714,1,6,1:2:0:0:
421,153,157888,6,0,L|414:236,1,75,0|2,0:0|1:2,0:0:0:0:
407,316,158237,2,0,B|296:306|296:306|300:254,1,150,10|0,0:0|0:0,0:0:0:0:
207,262,158760,1,2,1:2:0:0:
207,262,158935,2,0,L|132:256,1,75,10|8,0:0|0:0,0:0:0:0:
87,252,159196,1,8,0:0:0:0:
87,252,159284,6,0,L|101:97,2,150,4|8|0,1:2|0:0|1:0,0:0:0:0:
79,344,160156,1,0,1:0:0:0:
167,351,160330,2,0,L|247:358,1,75,8|0,0:0|0:0,0:0:0:0:
251,266,160679,6,0,L|331:273,1,75,0|0,0:0|0:0,0:0:0:0:
414,280,161028,2,0,B|424:165|424:165|388:162,1,150,8|0,0:0|1:0,0:0:0:0:
301,154,161551,1,0,1:0:0:0:
301,154,161726,2,0,L|308:70,1,75,8|0,0:0|1:0,0:0:0:0:
220,71,162074,6,0,B|210:186|210:186|174:183,1,150,4|8,1:2|0:0,0:0:0:0:
86,175,162598,1,0,1:0:0:0:
78,263,162772,2,0,L|158:270,1,75,0|0,1:0|1:0,0:0:0:0:
146,361,163121,2,0,L|226:368,1,75,8|2,0:0|1:2,0:0:0:0:
230,276,163470,5,2,0:0:0:0:
318,284,163644,1,2,1:2:0:0:
310,376,163819,2,0,L|469:390,2,150,10|8|10,0:0|0:0|0:0,0:0:0:0:
221,368,164691,1,2,1:2:0:0:
230,276,164865,6,0,L|238:185,1,75,4|0,1:2|0:0,0:0:0:0:
244,113,165214,2,0,B|364:123|364:123|361:159,1,150,8|0,0:0|1:0,0:0:0:0:
353,243,165737,1,0,1:0:0:0:
445,251,165912,2,0,L|453:159,1,75,8|0,0:0|0:0,0:0:0:0:
459,88,166260,6,0,B|462:58|462:58|342:47,1,150,0|8,1:0|0:0,0:0:0:0:
163,30,166958,2,0,L|239:36,1,75,0|0,1:0|1:0,0:0:0:0:
231,128,167307,2,0,L|75:114,2,150,8|4|8,0:0|1:2|0:0,0:0:0:0:
322,136,168179,1,0,0:0:0:0:
315,224,168353,2,0,L|308:303,1,75,0|0,1:0|0:0,0:0:0:0:
217,291,168702,2,0,L|223:217,1,75,8|0,0:0|1:0,0:0:0:0:
231,128,169051,6,0,B|111:117|111:117|109:147,1,150,0|8,0:0|0:0,0:0:0:0:
101,237,169574,2,0,B|90:357|90:357|120:359,1,150,0|0,0:0|1:0,0:0:0:0:
210,367,170098,2,0,L|290:374,1,75,8|8,0:0|0:0,0:0:0:0:
329,377,170359,1,8,0:0:0:0:
329,377,170446,5,4,1:2:0:0:
337,286,170621,1,0,0:0:0:0:
425,293,170795,2,0,L|505:300,1,75,8|0,0:0|0:0,0:0:0:0:
509,208,171144,6,0,L|434:202,1,75,0|0,1:0|1:0,0:0:0:0:
345,194,171493,2,0,B|306:191|306:191|317:59,1,150,8|0,0:0|1:0,0:0:0:0:
407,87,172016,1,0,1:0:0:0:
315,81,172191,6,0,L|240:75,1,75,8|0,0:0|0:0,0:0:0:0:
152,69,172540,2,0,L|145:144,1,75,0|0,0:0|1:0,0:0:0:0:
137,232,172888,2,0,B|249:242|249:242|245:286,1,150,8|4,0:0|1:2,0:0:0:0:
238,369,173412,5,0,0:0:0:0:
238,369,173586,2,0,L|312:376,1,75,8|0,0:0|0:0,0:0:0:0:
401,384,173935,2,0,B|441:387|441:387|454:244,1,150,0|8,1:0|0:0,0:0:0:0:
359,268,174458,1,0,1:0:0:0:
367,176,174633,6,0,L|376:76,1,75,8|8,0:0|0:0,0:0:0:0:
286,93,174981,2,0,L|280:167,1,75,8|8,0:0|0:0,0:0:0:0:
272,256,175330,6,0,L|196:249,2,75,8|4|4,0:3|0:3|0:3,0:0:0:0:
264,348,175853,1,8,0:3:0:0:
172,340,176028,5,4,1:2:0:0:
256,192,176202,12,0,180214,0:0:0:0:
