osu file format v14

[General]
AudioFilename: audio.mp3
AudioLeadIn: 0
PreviewTime: 83930
Countdown: 0
SampleSet: Normal
StackLeniency: 0.7
Mode: 2
LetterboxInBreaks: 0
WidescreenStoryboard: 1

[Editor]
DistanceSpacing: 1.1
BeatDivisor: 4
GridSize: 32
TimelineZoom: 1

[Metadata]
Title:Afterlight
TitleUnicode:Afterlight
Artist:Carpool Tunnel
ArtistUnicode:Carpool Tunnel
Creator:Du5t
Version:Platter
Source:osu!
Tags:ajamez jemzuu crowley idust idu5t
BeatmapID:2198311
BeatmapSetID:1036890

[Difficulty]
HPDrainRate:4
CircleSize:3.5
OverallDifficulty:8
ApproachRate:8
SliderMultiplier:1.4
SliderTickRate:2

[Events]
//Background and Video events
0,0,"bg.jpg",0,0
//Break Periods
2,106456,113529
//Storyboard Layer 0 (Background)
//Storyboard Layer 1 (Fail)
//Storyboard Layer 2 (Pass)
//Storyboard Layer 3 (Foreground)
//Storyboard Layer 4 (Overlay)
//Storyboard Sound Samples

[TimingPoints]
236,337.078651685393,4,1,11,40,1,0
573,340.909090909091,4,1,11,40,1,0
913,344.827586206897,4,1,11,40,1,0
1257,348.837209302326,4,1,11,40,1,0
1605,348.837209302326,4,1,11,40,1,0
5442,-100,4,1,11,50,0,0
5791,-100,4,1,11,60,0,0
16953,-100,4,1,11,40,0,0
38581,-100,4,1,11,50,0,0
39279,-100,4,1,11,60,0,1
50267,-100,4,1,11,60,0,0
50442,-100,4,1,11,60,0,1
61605,-100,4,1,11,40,0,0
83058,-100,4,1,11,60,0,0
83232,-100,4,1,11,60,0,0
83581,-100,4,1,11,50,0,0
83930,-100,4,1,11,60,0,1
94918,-100,4,1,11,60,0,0
95093,-100,4,1,11,60,0,1
106256,-100,4,1,11,60,0,0
114279,-100,4,1,11,40,0,0
117070,-100,4,1,11,5,0,0
117418,-100,4,1,11,40,0,0
128581,-100,4,1,11,50,0,0
134163,-100,4,1,11,60,0,0
139952,344.332855093257,4,1,11,60,1,0
142190,-100,4,1,11,5,0,0
142535,348.837209302326,4,1,11,60,1,1
153348,-100,4,1,11,60,0,1
153523,-100,4,1,11,60,0,0
153697,-100,4,1,11,60,0,1
164686,-100,4,1,11,60,0,0
164860,-100,4,1,11,60,0,1
176023,-100,4,1,11,60,0,0
177418,-100,4,1,11,40,0,0
178814,-100,4,1,11,30,0,0
180209,-100,4,1,11,15,0,0
181168,-100,4,1,11,10,0,0
182128,-100,4,1,11,5,0,0

[Colours]
Combo1 : 0,0,160
Combo2 : 85,85,255
Combo3 : 255,51,56

[HitObjects]
256,192,236,12,0,4046,0:0:0:0:
281,216,4395,5,0,0:0:0:0:
140,212,4744,1,0,0:0:0:0:
281,216,5093,2,0,L|285:136,1,70,0|0,0:0|0:0,0:0:0:0:
116,136,5442,2,0,L|111:48,1,70,8|0,0:0|0:0,0:0:0:0:
350,310,5791,6,0,L|359:222,1,70,6|0,0:0|0:0,0:0:0:0:
188,247,6139,2,0,P|139:218|206:186,1,140,10|0,0:0|0:0,0:0:0:0:
270,172,6663,1,0,0:0:0:0:
353,169,6837,2,0,L|342:97,1,70,10|0,0:0|0:0,0:0:0:0:
257,88,7186,2,0,L|179:77,1,70,2|0,0:0|0:0,0:0:0:0:
356,304,7535,6,0,P|393:287|330:233,1,140,10|0,0:0|0:0,0:0:0:0:
283,223,8058,1,0,0:0:0:0:
213,216,8232,2,0,L|211:132,1,70,10|0,0:0|0:0,0:0:0:0:
381,131,8581,6,0,L|383:49,1,70,2|0,0:0|0:0,0:0:0:0:
215,44,8930,2,0,P|176:57|194:152,1,140,10|0,0:0|0:0,0:0:0:0:
247,149,9453,1,0,0:0:0:0:
172,161,9628,2,0,L|166:236,1,70,8|0,0:0|0:0,0:0:0:0:
333,268,9977,6,0,L|337:182,1,70,2|0,0:0|0:0,0:0:0:0:
256,168,10325,1,10,0:0:0:0:
335,134,10500,1,0,0:0:0:0:
167,254,10674,2,0,L|160:164,1,70,2|0,0:0|0:0,0:0:0:0:
331,182,11023,2,0,L|339:102,1,70,10|8,0:0|0:0,0:0:0:0:
98,226,11372,6,0,L|17:223,1,70,6|0,0:0|0:0,0:0:0:0:
196,209,11721,2,0,P|228:184|166:127,1,140,10|0,0:0|0:0,0:0:0:0:
108,125,12244,1,0,0:0:0:0:
180,93,12418,2,0,L|185:12,1,70,10|0,0:0|0:0,0:0:0:0:
108,17,12767,2,0,L|97:108,1,70,2|0,0:0|0:0,0:0:0:0:
267,232,13116,6,0,L|116:222,1,140,10|0,0:0|0:0,0:0:0:0:
200,178,13639,1,0,0:0:0:0:
127,178,13814,2,0,L|123:80,1,70,10|0,0:0|0:0,0:0:0:0:
366,236,14163,6,0,L|369:161,1,70,2|0,0:0|0:0,0:0:0:0:
290,168,14511,2,0,L|288:87,1,70,10|0,0:0|0:0,0:0:0:0:
456,281,14860,1,2,0:0:0:0:
492,212,15035,1,2,0:0:0:0:
477,136,15209,1,8,0:0:0:0:
410,97,15384,1,0,0:0:0:0:
239,246,15558,6,0,L|155:244,1,70,2|0,0:0|0:0,0:0:0:0:
246,173,15907,1,10,0:0:0:0:
167,177,16081,1,0,0:0:0:0:
336,206,16256,2,0,L|416:198,1,70,2|0,0:0|0:0,0:0:0:0:
321,129,16605,1,10,0:0:0:0:
404,129,16779,1,8,0:0:0:0:
164,296,16953,6,0,P|117:289|158:230,1,140,6|8,0:0|0:0,0:0:0:0:
289,216,17651,2,0,P|346:209|301:150,1,140,0|8,0:0|0:0,0:0:0:0:
154,157,18174,6,0,P|138:111|211:65,1,140,0|0,0:0|0:0,0:0:0:0:
279,68,18698,1,8,0:0:0:0:
201,62,18872,2,0,P|160:72|168:168,1,140,0|0,0:0|0:0,0:0:0:0:
229,164,19395,2,0,L|154:159,1,70,8|0,0:0|0:0,0:0:0:0:
399,304,19744,6,0,P|439:288|378:237,1,140,2|8,0:0|0:0,0:0:0:0:
254,170,20442,2,0,L|403:160,1,140,0|8,0:0|0:0,0:0:0:0:
311,110,20965,1,0,0:0:0:0:
143,289,21139,6,0,P|98:282|145:225,1,140,2|8,0:0|0:0,0:0:0:0:
355,216,22186,1,8,0:0:0:0:
48,208,22535,6,0,L|48:61,1,140,2|8,0:0|0:0,0:0:0:0:
208,66,23232,2,0,L|66:58,1,140,0|8,0:0|0:0,0:0:0:0:
240,246,23756,6,0,P|285:237|246:171,1,140,0|0,0:0|0:0,0:0:0:0:
187,168,24279,1,8,0:0:0:0:
357,180,24453,2,0,P|413:169|342:86,1,210,0|8,0:0|0:0,0:0:0:0:
270,82,25151,1,0,0:0:0:0:
34,292,25325,6,0,P|17:253|91:202,1,140,2|8,0:0|0:0,0:0:0:0:
231,149,26023,2,0,L|86:139,1,140,0|8,0:0|0:0,0:0:0:0:
166,91,26546,1,0,0:0:0:0:
333,291,26721,6,0,P|375:276|329:217,1,140,2|8,0:0|0:0,0:0:0:0:
106,212,27767,2,0,L|191:200,1,70,8|0,0:0|0:0,0:0:0:0:
416,236,28116,6,0,P|454:216|400:157,1,140,6|8,0:0|0:0,0:0:0:0:
264,153,28814,2,0,P|257:106|327:58,1,140,0|8,0:0|0:0,0:0:0:0:
157,276,29337,6,0,P|115:255|167:197,1,140,0|0,0:0|0:0,0:0:0:0:
226,191,29860,1,8,0:0:0:0:
152,172,30035,2,0,P|87:158|152:68,1,210,0|8,0:0|0:0,0:0:0:0:
214,60,30732,1,0,0:0:0:0:
453,315,30907,6,0,P|493:291|431:239,1,140,2|8,0:0|0:0,0:0:0:0:
297,184,31605,2,0,P|250:181|281:120,1,140,0|8,0:0|0:0,0:0:0:0:
349,117,32128,1,0,0:0:0:0:
179,288,32302,6,0,P|140:280|186:212,1,140,2|8,0:0|0:0,0:0:0:0:
328,207,33000,2,0,P|371:201|388:106,1,140,0|0,0:0|0:0,0:0:0:0:
326,112,33523,1,0,0:0:0:0:
87,227,33698,6,0,P|39:213|88:159,1,140,2|8,0:0|0:0,0:0:0:0:
221,92,34395,2,0,L|76:87,1,140,0|8,0:0|0:0,0:0:0:0:
248,271,34918,6,0,P|288:262|241:195,1,140,0|0,0:0|0:0,0:0:0:0:
191,181,35442,1,8,0:0:0:0:
269,148,35616,2,0,P|310:133|261:75,1,140,0|0,0:0|0:0,0:0:0:0:
195,68,36139,2,0,L|186:147,1,70,8|0,0:0|0:0,0:0:0:0:
428,313,36488,6,0,P|450:277|376:221,1,140,2|8,0:0|0:0,0:0:0:0:
236,177,37186,2,0,P|238:126|336:114,1,140,0|8,0:0|0:0,0:0:0:0:
239,80,37709,1,0,0:0:0:0:
71,287,37884,6,0,P|37:275|87:203,1,140,2|8,0:0|0:0,0:0:0:0:
330,191,38581,2,0,L|342:150,2,35,8|8|10,0:0|0:0|0:0,0:0:0:0:
162,118,38930,2,0,L|148:155,2,35,8|8|10,0:0|0:0|0:0,0:0:0:0:
403,313,39279,6,0,L|250:297,1,140,4|8,0:0|0:0,0:0:0:0:
194,289,39802,1,0,0:0:0:0:
274,244,39977,1,2,0:0:0:0:
191,225,40151,2,0,L|185:127,1,70,2|8,0:0|0:0,0:0:0:0:
354,152,40500,6,0,P|390:139|335:82,1,140,2|0,0:0|0:0,0:0:0:0:
183,52,41023,1,10,0:0:0:0:
103,97,41198,1,0,0:0:0:0:
91,187,41372,1,0,0:0:0:0:
163,241,41546,1,0,0:0:0:0:
333,272,41721,2,0,L|341:181,1,70,10|0,0:0|0:0,0:0:0:0:
100,120,42070,6,0,P|58:131|108:187,1,140,6|8,0:0|0:0,0:0:0:0:
353,64,42767,2,0,P|398:76|354:141,1,140,2|8,0:0|0:0,0:0:0:0:
126,268,43291,6,0,L|291:279,1,140,6|0,0:0|0:0,0:0:0:0:
197,214,43814,1,8,0:0:0:0:
365,218,43988,2,0,P|404:206|345:152,1,140,4|0,0:0|0:0,0:0:0:0:
195,143,44511,2,0,L|191:56,1,70,8|8,0:0|0:0,0:0:0:0:
431,313,44860,6,0,L|437:217,1,70,4|0,0:0|0:0,0:0:0:0:
267,247,45209,2,0,L|176:239,1,70,10|0,0:0|0:0,0:0:0:0:
274,182,45558,2,0,L|356:175,1,70,2|0,0:0|0:0,0:0:0:0:
175,111,45907,2,0,L|258:103,1,70,10|0,0:0|0:0,0:0:0:0:
413,56,46256,6,0,L|248:58,1,140,2|8,0:0|0:0,0:0:0:0:
202,52,46779,1,0,0:0:0:0:
370,288,46953,1,2,0:0:0:0:
428,248,47128,1,0,0:0:0:0:
434,178,47302,1,10,0:0:0:0:
383,129,47477,1,0,0:0:0:0:
143,125,47651,6,0,P|99:141|135:215,1,140,6|8,0:0|0:0,0:0:0:0:
379,248,48349,2,0,P|422:237|366:182,1,140,2|8,0:0|0:0,0:0:0:0:
319,161,48872,1,2,0:0:0:0:
80,241,49046,5,4,0:0:0:0:
157,210,49221,2,0,L|165:169,2,35,8|8|0,0:0|0:0|0:0,0:0:0:0:
71,157,49570,2,0,L|71:108,1,35,8|8,0:0|0:0,0:0:0:0:
105,115,49744,1,0,0:0:0:0:
272,108,49918,1,8,0:0:0:0:
232,124,50006,1,8,0:0:0:0:
203,155,50093,1,8,0:0:0:0:
200,196,50180,1,8,0:0:0:0:
226,228,50267,1,8,0:0:0:0:
465,316,50442,6,0,P|496:293|437:234,1,140,4|10,0:0|0:0,0:0:0:0:
193,123,51139,2,0,L|269:127,2,70,2|2|8,0:0|0:0|0:0,0:0:0:0:
360,280,51663,6,0,L|363:192,1,70,2|0,0:0|0:0,0:0:0:0:
278,207,52011,1,2,0:0:0:0:
363,171,52186,2,0,P|397:147|336:97,1,140,8|0,0:0|0:0,0:0:0:0:
274,97,52709,1,0,0:0:0:0:
436,71,52884,2,0,L|440:157,1,70,10|0,0:0|0:0,0:0:0:0:
196,290,53232,6,0,P|146:283|155:203,1,140,6|8,0:0|0:0,0:0:0:0:
404,226,53930,2,0,P|441:210|394:147,1,140,2|8,0:0|0:0,0:0:0:0:
161,119,54453,5,6,0:0:0:0:
232,117,54628,1,0,0:0:0:0:
301,115,54802,1,0,0:0:0:0:
232,117,54977,1,8,0:0:0:0:
64,282,55151,2,0,P|118:250|209:235,1,140,4|0,0:0|0:0,0:0:0:0:
363,202,55674,2,0,L|367:114,1,70,8|0,0:0|0:0,0:0:0:0:
128,156,56023,6,0,P|92:146|145:86,1,140,6|8,0:0|0:0,0:0:0:0:
286,57,56721,1,2,0:0:0:0:
216,53,56895,1,0,0:0:0:0:
145,49,57070,1,8,0:0:0:0:
315,274,57244,6,0,P|355:256|299:198,1,140,2|0,0:0|0:0,0:0:0:0:
245,192,57767,1,8,0:0:0:0:
392,153,58116,2,0,L|399:63,1,70,2|0,0:0|0:0,0:0:0:0:
312,52,58465,2,0,L|391:43,1,70,8|8,0:0|0:0,0:0:0:0:
139,280,58814,6,0,P|96:266|154:210,1,140,6|8,0:0|0:0,0:0:0:0:
289,206,59511,2,0,P|344:201|328:122,1,140,2|8,0:0|0:0,0:0:0:0:
171,73,60035,6,0,L|245:74,2,70,2|0|0,0:0|0:0|0:0,0:0:0:0:
339,216,60558,2,0,L|348:301,1,70,8|0,0:0|0:0,0:0:0:0:
259,270,60907,2,0,L|251:365,1,70,0|0,0:0|0:0,0:0:0:0:
420,213,61256,2,0,L|427:124,1,70,8|8,0:0|0:0,0:0:0:0:
166,123,61605,6,0,P|116:139|157:212,1,140,6|8,0:0|0:0,0:0:0:0:
311,216,62302,2,0,L|395:217,2,70,0|0|8,0:0|0:0|0:0,0:0:0:0:
142,185,62825,6,0,L|133:268,1,70,0|0,0:0|0:0,0:0:0:0:
218,260,63174,2,0,L|225:346,1,70,0|8,0:0|0:0,0:0:0:0:
50,288,63523,2,0,P|16:273|69:208,1,140,0|0,0:0|0:0,0:0:0:0:
123,204,64046,1,8,0:0:0:0:
382,150,64395,6,0,L|215:139,1,140,2|8,0:0|0:0,0:0:0:0:
391,314,65093,2,0,P|450:311|430:238,1,140,0|8,0:0|0:0,0:0:0:0:
374,234,65616,1,0,0:0:0:0:
206,185,65791,6,0,P|155:185|189:113,1,140,2|8,0:0|0:0,0:0:0:0:
432,86,66488,2,0,L|262:81,1,140,2|8,0:0|0:0,0:0:0:0:
364,51,67011,1,0,0:0:0:0:
123,292,67186,6,0,P|86:283|137:221,1,140,2|8,0:0|0:0,0:0:0:0:
278,179,67884,2,0,L|204:173,2,70,0|0|8,0:0|0:0|0:0,0:0:0:0:
449,91,68407,6,0,L|458:178,1,70,0|0,0:0|0:0,0:0:0:0:
374,166,68756,2,0,L|291:162,1,70,0|8,0:0|0:0,0:0:0:0:
449,279,69279,2,0,L|368:283,2,70,0|0|8,0:0|0:0|0:0,0:0:0:0:
192,171,69977,6,0,L|352:165,1,140,2|8,0:0|0:0,0:0:0:0:
155,306,70674,2,0,P|106:299|149:228,1,140,0|8,0:0|0:0,0:0:0:0:
292,145,71198,2,0,L|145:139,1,140,2|0,0:0|0:0,0:0:0:0:
81,135,71721,1,8,0:0:0:0:
231,247,72070,1,0,0:0:0:0:
68,254,72244,2,0,L|33:177,2,70,8|0|0,0:0|0:0|0:0,0:0:0:0:
312,182,72767,6,0,P|354:169|301:108,1,140,6|8,0:0|0:0,0:0:0:0:
164,61,73465,2,0,L|248:65,2,70,0|0|8,0:0|0:0|0:0,0:0:0:0:
337,289,73988,6,0,P|376:270|321:210,1,140,0|0,0:0|0:0,0:0:0:0:
266,207,74511,1,8,0:0:0:0:
199,202,74686,2,0,L|356:193,1,140,0|0,0:0|0:0,0:0:0:0:
408,192,75209,1,8,0:0:0:0:
148,296,75558,6,0,P|96:281|143:224,1,140,2|8,0:0|0:0,0:0:0:0:
291,209,76256,2,0,P|345:198|322:125,1,140,0|8,0:0|0:0,0:0:0:0:
164,111,76779,6,0,L|158:192,1,70,0|2,0:0|0:0,0:0:0:0:
228,184,77128,1,0,0:0:0:0:
399,313,77302,2,0,P|434:303|386:232,1,140,8|0,0:0|0:0,0:0:0:0:
262,149,78000,2,0,L|352:143,1,70,8|0,0:0|0:0,0:0:0:0:
88,301,78349,6,0,P|41:286|87:225,1,140,2|8,0:0|0:0,0:0:0:0:
228,176,79046,1,0,0:0:0:0:
157,176,79221,2,0,L|145:98,1,70,0|8,0:0|0:0,0:0:0:0:
237,99,79570,2,0,P|269:75|199:27,1,140,0|0,0:0|0:0,0:0:0:0:
148,22,80093,1,8,0:0:0:0:
319,288,80267,6,0,L|326:197,1,70,0|0,0:0|0:0,0:0:0:0:
243,207,80616,2,0,L|162:199,1,70,0|8,0:0|0:0,0:0:0:0:
433,187,81139,6,0,L|441:90,1,70,0|0,0:0|0:0,0:0:0:0:
268,134,81488,2,0,L|265:47,1,70,10|0,0:0|0:0,0:0:0:0:
434,310,81837,2,0,P|467:298|416:238,1,140,2|8,0:0|0:0,0:0:0:0:
257,236,82360,6,0,P|211:223|257:165,1,140,2|8,0:0|0:0,0:0:0:0:
335,147,82884,2,0,L|372:118,2,35,0|0|8,0:0|0:0|0:0,0:0:0:0:
235,120,83232,2,0,L|211:83,2,35,0|0|8,0:0|0:0|0:0,0:0:0:0:
406,73,83581,2,0,L|444:70,2,35,8|8|8,0:0|0:0|0:0,0:0:0:0:
161,278,83930,6,0,L|318:275,1,140,4|8,0:0|0:0,0:0:0:0:
226,230,84453,1,0,0:0:0:0:
301,226,84628,2,0,L|305:152,1,70,2|2,0:0|0:0,0:0:0:0:
227,150,84977,1,8,0:0:0:0:
397,162,85151,6,0,P|432:136|363:89,1,140,2|0,0:0|0:0,0:0:0:0:
212,197,85674,1,10,0:0:0:0:
177,258,85849,1,0,0:0:0:0:
207,320,86023,1,0,0:0:0:0:
273,341,86198,1,0,0:0:0:0:
440,328,86372,2,0,L|446:253,1,70,10|0,0:0|0:0,0:0:0:0:
207,223,86721,6,0,P|166:216|215:155,1,140,6|8,0:0|0:0,0:0:0:0:
444,70,87418,2,0,P|480:117|423:160,1,140,2|8,0:0|0:0,0:0:0:0:
186,263,87942,6,0,L|337:273,1,140,6|0,0:0|0:0,0:0:0:0:
395,277,88465,1,8,0:0:0:0:
226,202,88639,2,0,P|184:189|237:122,1,140,4|0,0:0|0:0,0:0:0:0:
381,91,89163,2,0,L|387:180,1,70,8|8,0:0|0:0,0:0:0:0:
146,273,89511,6,0,L|64:268,1,70,4|0,0:0|0:0,0:0:0:0:
245,253,89860,2,0,L|250:175,1,70,10|0,0:0|0:0,0:0:0:0:
174,172,90209,2,0,L|166:94,1,70,2|0,0:0|0:0,0:0:0:0:
338,117,90558,2,0,L|416:108,1,70,10|0,0:0|0:0,0:0:0:0:
236,303,90907,6,0,P|181:297|226:237,1,140,2|8,0:0|0:0,0:0:0:0:
272,225,91430,1,0,0:0:0:0:
101,218,91605,1,2,0:0:0:0:
27,178,91779,1,0,0:0:0:0:
16,104,91953,1,10,0:0:0:0:
71,51,92128,1,0,0:0:0:0:
309,140,92302,6,0,P|293:71|229:64,1,140,6|8,0:0|0:0,0:0:0:0:
483,322,93000,2,0,P|493:275|427:199,1,140,2|8,0:0|0:0,0:0:0:0:
371,215,93523,1,2,0:0:0:0:
131,224,93698,6,0,L|44:218,1,70,4|8,0:0|0:0,0:0:0:0:
96,216,93959,1,8,0:0:0:0:
130,211,94046,1,0,0:0:0:0:
212,175,94221,2,0,L|268:182,1,35,8|8,0:0|0:0,0:0:0:0:
281,181,94395,2,0,L|205:176,1,70,0|8,0:0|0:0,0:0:0:0:
43,120,94744,2,0,L|34:67,2,35,8|8|8,0:0|0:0|0:0,0:0:0:0:
282,315,95093,6,0,P|322:293|267:236,1,140,4|10,0:0|0:0,0:0:0:0:
119,160,95791,2,0,L|200:163,2,70,2|2|8,0:0|0:0|0:0,0:0:0:0:
291,227,96314,6,0,L|295:144,1,70,2|0,0:0|0:0,0:0:0:0:
210,156,96663,1,2,0:0:0:0:
126,150,96837,2,0,P|90:139|145:90,1,140,8|0,0:0|0:0,0:0:0:0:
215,71,97360,1,0,0:0:0:0:
46,192,97535,2,0,L|42:275,1,70,10|0,0:0|0:0,0:0:0:0:
281,302,97884,6,0,P|276:244|197:222,1,140,6|8,0:0|0:0,0:0:0:0:
466,205,98581,2,0,P|500:175|430:126,1,140,2|8,0:0|0:0,0:0:0:0:
204,140,99105,6,0,P|156:137|134:54,1,140,6|0,0:0|0:0,0:0:0:0:
202,55,99628,1,8,0:0:0:0:
369,262,99802,2,0,L|201:257,1,140,4|0,0:0|0:0,0:0:0:0:
399,201,100325,2,0,L|401:121,1,70,8|0,0:0|0:0,0:0:0:0:
160,183,100674,6,0,P|116:173|170:112,1,140,6|8,0:0|0:0,0:0:0:0:
286,65,101372,2,0,L|213:58,2,70,2|0|8,0:0|0:0|0:0,0:0:0:0:
455,308,101895,6,0,P|488:283|421:231,1,140,2|0,0:0|0:0,0:0:0:0:
368,222,102418,1,8,0:0:0:0:
211,205,102767,2,0,L|209:115,1,70,2|0,0:0|0:0,0:0:0:0:
287,114,103116,2,0,L|377:108,1,70,8|8,0:0|0:0,0:0:0:0:
115,307,103465,6,0,P|78:297|125:223,1,140,6|8,0:0|0:0,0:0:0:0:
350,131,104163,2,0,L|187:124,1,140,10|0,0:0|0:0,0:0:0:0:
288,82,104686,1,2,0:0:0:0:
120,265,104860,6,0,L|116:179,1,70,8|0,0:0|0:0,0:0:0:0:
285,182,105209,2,0,L|296:83,1,70,8|0,0:0|0:0,0:0:0:0:
213,111,105558,1,0,0:0:0:0:
160,176,105732,1,0,0:0:0:0:
190,254,105907,1,8,0:0:0:0:
270,276,106081,1,0,0:0:0:0:
30,274,106256,5,4,0:0:0:0:
256,192,114279,12,0,117070,0:0:0:0:
326,226,117418,6,0,P|371:210|311:161,1,140,4|8,0:0|0:0,0:0:0:0:
181,165,118116,2,0,P|140:162|180:95,1,140,0|0,0:0|0:0,0:0:0:0:
231,91,118639,1,8,0:0:0:0:
62,277,118814,6,0,P|19:257|73:200,1,140,0|8,0:0|0:0,0:0:0:0:
215,137,119511,2,0,L|133:133,2,70,0|0|8,0:0|0:0|0:0,0:0:0:0:
472,305,120209,6,0,P|494:270|425:211,1,140,0|8,0:0|0:0,0:0:0:0:
275,144,120907,1,0,0:0:0:0:
435,128,121256,2,0,L|351:125,1,70,0|8,0:0|0:0,0:0:0:0:
196,288,121605,6,0,P|155:273|208:218,1,140,0|8,0:0|0:0,0:0:0:0:
332,191,122302,2,0,L|348:142,2,35,0|0|8,0:0|0:0|0:0,0:0:0:0:
257,98,122651,2,0,L|345:93,1,70,8|0,0:0|0:0,0:0:0:0:
86,263,123000,6,0,P|48:253|90:190,1,140,4|8,0:0|0:0,0:0:0:0:
226,159,123698,2,0,P|253:116|170:83,1,140,0|0,0:0|0:0,0:0:0:0:
124,76,124221,1,8,0:0:0:0:
291,310,124395,6,0,P|331:290|271:233,1,140,0|8,0:0|0:0,0:0:0:0:
144,176,125093,2,0,L|225:180,2,70,0|0|8,0:0|0:0|0:0,0:0:0:0:
405,275,125791,6,0,P|403:223|317:197,1,140,0|8,0:0|0:0,0:0:0:0:
468,128,126488,1,0,0:0:0:0:
316,116,126837,2,0,L|217:109,1,70,0|8,0:0|0:0,0:0:0:0:
416,289,127186,6,0,P|457:267|403:214,1,140,0|8,0:0|0:0,0:0:0:0:
267,184,127884,2,0,L|251:127,2,35,0|0|8,0:0|0:0|0:0,0:0:0:0:
352,182,128232,2,0,L|362:108,1,70,8|0,0:0|0:0,0:0:0:0:
121,261,128581,6,0,L|35:254,2,70,6|0|8,0:0|0:0|0:0,0:0:0:0:
264,173,129279,1,2,0:0:0:0:
194,170,129453,1,0,0:0:0:0:
123,166,129628,1,10,0:0:0:0:
375,270,129977,6,0,L|447:273,2,70,2|0|8,0:0|0:0|0:0,0:0:0:0:
226,204,130674,2,0,L|218:120,1,70,2|0,0:0|0:0,0:0:0:0:
301,125,131023,2,0,L|311:36,1,70,10|0,0:0|0:0,0:0:0:0:
140,289,131372,6,0,L|57:283,1,70,0|0,0:0|0:0,0:0:0:0:
150,224,131721,2,0,L|3:216,1,140,10|0,0:0|0:0,0:0:0:0:
184,153,132418,2,0,L|254:158,1,70,10|0,0:0|0:0,0:0:0:0:
86,72,132767,6,0,L|81:166,1,70,0|0,0:0|0:0,0:0:0:0:
173,178,133116,2,0,P|172:243|96:253,1,140,10|0,0:0|0:0,0:0:0:0:
178,269,133639,1,0,0:0:0:0:
103,282,133814,2,0,L|97:202,1,70,10|0,0:0|0:0,0:0:0:0:
340,197,134163,6,0,L|383:200,2,35,0|0|0,0:0|0:0|0:0,0:0:0:0:
168,243,134511,2,0,P|132:232|184:170,1,140,10|0,0:0|0:0,0:0:0:0:
201,160,134948,1,0,0:0:0:0:
235,157,135035,1,0,0:0:0:0:
67,177,135209,6,0,P|8:140|51:88,1,140,10|2,0:0|0:0,0:0:0:0:
71,87,135645,1,0,0:0:0:0:
105,85,135732,1,2,0:0:0:0:
275,253,135907,2,0,L|321:245,2,35,10|0|0,0:0|0:0|0:0,0:0:0:0:
196,219,136256,2,0,L|189:176,2,35,2|0|2,0:0|0:0|0:0,0:0:0:0:
271,113,136605,2,0,L|187:100,1,70,10|0,0:0|0:0,0:0:0:0:
440,289,136953,6,0,L|484:286,2,35,2|0|10,0:0|0:0|0:0,0:0:0:0:
366,226,137302,2,0,L|450:218,1,70,2|0,0:0|0:0,0:0:0:0:
262,189,137651,1,10,0:0:0:0:
225,168,137738,1,0,0:0:0:0:
213,127,137825,1,2,0:0:0:0:
234,90,137913,1,0,0:0:0:0:
272,73,138000,1,0,0:0:0:0:
104,273,138174,5,10,0:0:0:0:
181,260,138349,1,2,0:0:0:0:
222,261,138436,2,0,L|229:213,1,35,0|0,0:0|0:0,0:0:0:0:
56,207,138698,6,0,L|51:117,1,70,10|0,0:0|0:0,0:0:0:0:
221,129,139046,2,0,L|226:55,1,70,10|0,0:0|0:0,0:0:0:0:
57,28,139395,1,10,0:0:0:0:
95,27,139482,1,8,0:0:0:0:
133,26,139570,1,10,0:0:0:0:
371,25,139744,1,0,0:0:0:0:
256,192,139952,12,0,142190,0:0:0:0:
190,227,142535,6,0,L|334:219,1,140,4|8,0:0|0:0,0:0:0:0:
254,174,143058,1,0,0:0:0:0:
330,157,143232,1,2,0:0:0:0:
251,141,143407,2,0,L|247:61,1,70,2|8,0:0|0:0,0:0:0:0:
415,294,143755,6,0,P|422:250|336:210,1,140,2|0,0:0|0:0,0:0:0:0:
181,262,144279,1,10,0:0:0:0:
140,196,144453,1,0,0:0:0:0:
157,120,144628,1,0,0:0:0:0:
229,95,144802,1,0,0:0:0:0:
63,55,144976,2,0,L|53:143,1,70,10|0,0:0|0:0,0:0:0:0:
296,295,145325,6,0,P|335:278|281:211,1,140,6|8,0:0|0:0,0:0:0:0:
44,207,146023,2,0,P|25:172|90:115,1,140,2|8,0:0|0:0,0:0:0:0:
329,112,146546,6,0,L|334:200,1,70,6|0,0:0|0:0,0:0:0:0:
257,222,146895,1,0,0:0:0:0:
333,249,147069,1,8,0:0:0:0:
161,280,147244,2,0,L|156:198,1,70,4|0,0:0|0:0,0:0:0:0:
225,196,147593,1,0,0:0:0:0:
56,130,147767,2,0,L|137:125,1,70,8|8,0:0|0:0,0:0:0:0:
369,289,148116,6,0,L|378:212,1,70,4|0,0:0|0:0,0:0:0:0:
209,202,148465,2,0,L|218:127,1,70,10|0,0:0|0:0,0:0:0:0:
299,127,148814,2,0,L|291:47,1,70,2|0,0:0|0:0,0:0:0:0:
121,279,149162,2,0,L|132:192,1,70,10|0,0:0|0:0,0:0:0:0:
300,347,149511,6,0,L|135:339,1,140,2|8,0:0|0:0,0:0:0:0:
90,331,150035,1,0,0:0:0:0:
257,264,150209,2,0,L|261:180,1,70,0|0,0:0|0:0,0:0:0:0:
175,179,150558,2,0,L|89:178,1,70,10|0,0:0|0:0,0:0:0:0:
344,202,150907,6,0,P|382:192|333:127,1,140,6|8,0:0|0:0,0:0:0:0:
92,139,151604,2,0,P|52:124|103:70,1,140,2|8,0:0|0:0,0:0:0:0:
165,63,152128,1,2,0:0:0:0:
403,284,152302,5,4,0:0:0:0:
331,246,152476,2,0,L|303:211,2,35,8|8|0,0:0|0:0|0:0,0:0:0:0:
416,197,152825,2,0,L|439:167,2,35,8|8|0,0:0|0:0|0:0,0:0:0:0:
247,113,153174,1,8,0:0:0:0:
281,111,153261,1,8,0:0:0:0:
315,107,153348,1,8,0:0:0:0:
350,104,153436,1,8,0:0:0:0:
384,100,153523,1,8,0:0:0:0:
145,292,153697,6,0,P|100:278|146:216,1,140,4|10,0:0|0:0,0:0:0:0:
282,135,154395,1,2,0:0:0:0:
212,132,154569,1,2,0:0:0:0:
141,126,154744,1,8,0:0:0:0:
310,300,154918,6,0,P|367:284|316:229,1,140,2|2,0:0|0:0,0:0:0:0:
170,231,155441,1,8,0:0:0:0:
154,155,155616,1,0,0:0:0:0:
187,85,155790,1,0,0:0:0:0:
261,65,155965,1,0,0:0:0:0:
430,60,156139,2,0,L|435:145,1,70,10|0,0:0|0:0,0:0:0:0:
195,272,156488,6,0,P|218:207|298:208,1,140,6|8,0:0|0:0,0:0:0:0:
40,211,157186,2,0,P|14:177|85:115,1,140,2|8,0:0|0:0,0:0:0:0:
306,123,157709,6,0,L|146:108,1,140,6|0,0:0|0:0,0:0:0:0:
236,100,158232,1,8,0:0:0:0:
408,305,158407,2,0,L|488:311,2,70,4|0|0,0:0|0:0|0:0,0:0:0:0:
326,242,158930,2,0,L|401:237,1,70,8|8,0:0|0:0,0:0:0:0:
156,263,159279,6,0,P|114:249|167:192,1,140,6|8,0:0|0:0,0:0:0:0:
296,107,159976,2,0,L|302:26,1,70,2|0,0:0|0:0,0:0:0:0:
231,28,160325,1,8,0:0:0:0:
400,295,160500,6,0,P|449:275|391:237,1,140,2|0,0:0|0:0,0:0:0:0:
311,219,161023,2,0,P|266:214|302:157,1,140,8|0,0:0|0:0,0:0:0:0:
462,71,161721,2,0,L|371:62,1,70,8|0,0:0|0:0,0:0:0:0:
134,280,162069,6,0,P|100:253|162:200,1,140,4|8,0:0|0:0,0:0:0:0:
228,198,162593,1,0,0:0:0:0:
145,151,162767,2,0,L|141:73,1,70,0|0,0:0|0:0,0:0:0:0:
228,47,163116,2,0,L|146:40,1,70,8|0,0:0|0:0,0:0:0:0:
326,281,163465,6,0,L|412:275,1,70,2|0,0:0|0:0,0:0:0:0:
229,202,163814,2,0,L|137:196,1,70,10|0,0:0|0:0,0:0:0:0:
326,151,164162,2,0,L|333:71,1,70,10|0,0:0|0:0,0:0:0:0:
163,93,164511,2,0,L|158:16,1,70,10|2,0:0|0:0,0:0:0:0:
398,284,164860,6,0,L|243:276,1,140,6|8,0:0|0:0,0:0:0:0:
407,173,165558,2,0,L|330:169,2,70,2|0|8,0:0|0:0|0:0,0:0:0:0:
237,230,166081,6,0,P|192:212|241:149,1,140,2|0,0:0|0:0,0:0:0:0:
295,141,166604,1,8,0:0:0:0:
443,67,166953,2,0,L|452:159,1,70,0|0,0:0|0:0,0:0:0:0:
366,192,167302,2,0,L|457:199,1,70,8|0,0:0|0:0,0:0:0:0:
194,294,167651,6,0,P|158:262|223:212,1,140,6|8,0:0|0:0,0:0:0:0:
359,132,168348,2,0,L|368:51,1,70,0|0,0:0|0:0,0:0:0:0:
291,49,168697,2,0,L|201:47,1,70,8|0,0:0|0:0,0:0:0:0:
391,302,169046,5,0,0:0:0:0:
443,235,169221,1,0,0:0:0:0:
424,153,169395,1,8,0:0:0:0:
346,122,169569,1,0,0:0:0:0:
262,118,169744,2,0,L|247:209,1,70,2|0,0:0|0:0,0:0:0:0:
419,96,170093,2,0,L|432:15,1,70,10|8,0:0|0:0,0:0:0:0:
193,307,170441,6,0,P|132:296|151:212,1,140,6|8,0:0|0:0,0:0:0:0:
269,153,171139,2,0,L|113:147,1,140,2|8,0:0|0:0,0:0:0:0:
300,294,171662,6,0,P|336:275|289:208,1,140,2|0,0:0|0:0,0:0:0:0:
226,206,172186,1,8,0:0:0:0:
82,168,172535,2,0,L|78:75,1,70,0|0,0:0|0:0,0:0:0:0:
158,60,172883,2,0,L|74:47,1,70,8|0,0:0|0:0,0:0:0:0:
258,277,173232,5,0,0:0:0:0:
303,205,173407,1,0,0:0:0:0:
277,125,173581,1,8,0:0:0:0:
201,89,173755,1,0,0:0:0:0:
371,288,173930,2,0,L|382:206,1,70,0|0,0:0|0:0,0:0:0:0:
308,170,174279,2,0,L|404:157,1,70,8|0,0:0|0:0,0:0:0:0:
140,223,174628,6,0,L|57:216,3,70,8|8|8|8,0:0|0:0|0:0|0:0,0:0:0:0:
237,260,175325,1,2,0:0:0:0:
272,183,175500,1,2,0:0:0:0:
239,105,175674,1,2,0:0:0:0:
159,77,175848,1,2,0:0:0:0:
399,81,176023,1,14,0:0:0:0:
256,192,176197,12,0,182128,0:0:0:0:
