osu file format v14

[General]
AudioFilename: audio.mp3
AudioLeadIn: 0
PreviewTime: -1
Countdown: 1
SampleSet: Soft
StackLeniency: 0.7
Mode: 0
LetterboxInBreaks: 0
WidescreenStoryboard: 0

[Editor]
Bookmarks: 87,699,1311,1923,2229,2536,2944,3250,3352,3964,4372,4576,4984,5189,5597,6617,7025,7229,7638,7842,8250,8454,8862,9066,9474,10495,13046,39168,47025,47433,49882,50699,51107,51515,51923,52331,52740,53148,53556,53964,54372,54780,55189,55597,56005,56413,56821,57229,57638,58046,58454,58862,59270,59678,60087,60495,60903,61311,61719,62127,62536,62944,63352,63760,64168,64576,64984,65393,65801,66209,66617,67025,67433,67842,68250,68658,69066,69474,69882,70291,70699,71107,71515,71923,72331,72740,73148,73556,73964,74372,74780,75189,75597,76005,76413,76821,77229,77638,78046,78454,78862,79270,79678,80087,80495,80903,81311,81719,82127,82536,82944,83352,83760,84168,84576,84984,85393,85801,86209,86617,87025,87433,87842,88250,88658,89066,89474,89882,90291,90699,91107,91464,91515,91923,92331,92740,93148,93556,93964,94372,94780,95189,95597,96005,96413,96821,97229,97638,98046,98454,98862,99270,99678,100087,100495,100903,101311,101719,102127,102536,102944,103352,103760,104168,104219,104576,104984,105393,105801,106209,106617,107025,107433,107842,108250,108658,109066,109474,109882,110291,110699,111107,111515,111923,112331,112740,113148,113556,113964,114372,114780,115189,115597,116005,116413,116821,117229,117638,118046,118454,118862,119270,119678,120087,120495,120903,121311,121719,122127,122536,122944,123352,123760,124168,124576,124984,125393,125801,126209,126617,127025,127433,127842,128250,128658,129066,129474,129882,130291,130699,131107,131515,131923,132331,132740,133148,133556,133964,134372,134780,135189,135597,136005,136413,136821,137229,137638,138046,138454,138862,139270,139678,140087,140495,140903,141311,141719,142127,142536,142944,143352,143760,166617,170291,170699,171107,171515,171923,172331,172740,173148,173556,173964,174372,174780,175189,175597,176005,176413,176821,177229,177638,178046,178454,178862,179270,179678,180087,180495,180903,181311,181719,182127,182536,182944,183352,183760,184168,184576,184984,185393,185801,186209,186617,187025,187433,187842,188250,188658,189066,189474,189882,190291,190699,191107,191515,191923,192331,192740,193148,193556,193964,194372,194780,195189,195597,196005,202638,207331
DistanceSpacing: 1.7
BeatDivisor: 4
GridSize: 8
TimelineZoom: 2.299999

[Metadata]
Title:Turbo Killer
TitleUnicode:Turbo Killer
Artist:Carpenter Brut
ArtistUnicode:Carpenter Brut
Creator:Arthur Esvael
Version:Destruction
Source:IDK
Tags:Fast click fast BOIIIIIIIIIIIII
BeatmapID:1617636
BeatmapSetID:769300

[Difficulty]
HPDrainRate:2
CircleSize:4
OverallDifficulty:10
ApproachRate:10
SliderMultiplier:1.4
SliderTickRate:1

[Events]
//Background and Video events
0,0,"BG.jpg",0,0
//Break Periods
2,13144,36677
2,143960,149432
2,153756,155963
2,157021,159024
2,160082,162494
2,163552,166167
//Storyboard Layer 0 (Background)
//Storyboard Layer 1 (Fail)
//Storyboard Layer 2 (Pass)
//Storyboard Layer 3 (Foreground)
//Storyboard Layer 4 (Overlay)
//Storyboard Sound Samples

[TimingPoints]
87,204.081632653061,4,2,0,100,1,0
87,-133.333333333333,4,2,0,100,0,0
39168,-66.6666666666667,4,2,0,100,0,0
91515,-133.333333333333,4,2,0,100,0,0
104576,-66.6666666666667,4,2,0,100,0,0
130699,-100,4,2,0,100,0,0
131107,-66.6666666666667,4,2,0,100,0,0
150087,-200,4,2,0,100,0,0
169474,-66.6666666666667,4,2,0,100,0,0
196005,-100,4,2,0,100,0,0

[HitObjects]
76,77,87,6,0,P|206:56|254:127,1,210.000008010865,0|0,1:2|1:2,1:2:0:0:
116,202,699,6,0,P|216:271|307:242,1,210.000008010865,0|0,1:2|1:2,1:2:0:0:
301,72,1311,2,0,P|201:42|105:107,1,210.000008010865,0|0,1:2|1:2,1:2:0:0:
242,167,1923,2,0,B|339:187|257:328|350:347,1,210.000008010865,0|0,1:2|1:2,1:2:0:0:
76,252,2536,6,0,P|86:132|121:90,1,157.500006008148,0|0,1:2|1:2,1:2:0:0:
196,37,2944,6,0,L|271:26,3,52.5000020027161,0|0|0|0,1:2|1:2|1:2|1:2,1:2:0:0:
246,212,3352,2,0,P|361:182|376:89,1,210.000008010865,0|0,1:2|1:2,1:2:0:0:
176,77,3964,6,0,P|121:132|126:275,1,210.000008010865,0|0,1:2|1:2,1:2:0:0:
306,242,4576,2,0,P|316:132|250:62,1,210.000008010865,0|0,1:2|1:2,1:2:0:0:
116,207,5189,6,0,P|186:292|286:300,1,210.000008010865,0|0,1:2|1:2,1:2:0:0:
306,81,5801,2,0,P|221:61|184:68,1,105.000004005432,0|0,1:2|1:2,1:2:0:0:
160,292,6209,2,0,P|256:306|281:297,1,105.000004005432,0|0,1:2|1:2,1:2:0:0:
326,152,6617,6,0,P|236:87|128:95,1,210.000008010865,0|0,1:2|1:2,1:2:0:0:
191,306,7229,2,0,P|265:254|250:308,1,210.000008010865,0|0,1:2|1:2,1:2:0:0:
311,117,7842,6,0,P|193:84|214:29,1,210.000008010865,0|0,1:2|1:2,1:2:0:0:
156,312,8454,2,0,B|286:302|286:302|334:228,1,210.000008010865,0|0,1:2|1:2,1:2:0:0:
201,67,9066,6,2,P|116:91|95:117,1,105.000004005432,2|2,1:2|1:2,1:2:0:0:
216,297,9474,1,0,1:2:0:0:
311,142,9576,1,0,1:2:0:0:
116,142,9678,1,0,1:2:0:0:
316,261,9780,1,0,1:2:0:0:
116,257,9882,2,0,P|165:107|221:86,1,210.000008010865,0|0,1:2|1:2,1:2:0:0:
391,152,10495,6,0,B|286:212|286:212|192:167,1,210.000008010865,0|0,1:2|1:2,1:2:0:0:
200,12,11107,2,0,P|69:56|56:125,1,210.000008010865,0|0,1:2|1:2,1:2:0:0:
296,117,11719,6,0,B|296:247|296:247|207:211,1,210.000008010865,0|0,1:2|1:2,1:2:0:0:
206,47,12331,2,0,P|136:107|132:132,1,105.000004005432,0|0,1:2|1:2,1:2:0:0:
291,312,12740,2,0,P|366:227|374:222,1,105.000004005432,0|0,1:2|1:2,1:2:0:0:
256,192,37127,12,0,39168,1:2:0:0:
114,135,39270,5,4,1:2:0:0:
331,92,39372,1,0,1:2:0:0:
194,276,39474,1,0,1:2:0:0:
378,239,39576,2,0,P|303:177|254:156,1,105.000004005432,0|4,1:2|1:2,1:2:0:0:
95,253,39780,5,0,1:2:0:0:
199,69,39882,1,0,1:2:0:0:
10,111,39984,1,0,1:2:0:0:
218,192,40087,2,0,B|284:173|284:173|331:215,1,105.000004005432,4|0,1:2|1:2,1:2:0:0:
279,26,40291,5,0,1:2:0:0:
104,163,40393,1,0,1:2:0:0:
312,107,40495,1,4,1:2:0:0:
90,83,40597,2,0,P|161:40|227:26,1,105.000004005432,0|0,1:2|1:2,1:2:0:0:
237,262,40801,5,0,1:2:0:0:
388,78,40903,1,4,1:2:0:0:
237,262,41005,1,0,1:2:0:0:
388,78,41107,2,0,L|285:102,1,105.000004005432,0|0,1:2|1:2,1:2:0:0:
86,276,41311,5,4,1:2:0:0:
180,64,41413,1,0,1:2:0:0:
326,258,41515,1,0,1:2:0:0:
76,206,41617,2,0,L|186:178,1,105.000004005432,0|4,1:2|1:2,1:2:0:0:
307,36,41821,5,0,1:2:0:0:
241,267,41923,1,0,1:2:0:0:
392,59,42025,1,0,1:2:0:0:
326,291,42127,2,0,P|331:220|284:158,1,105.000004005432,4|0,1:2|1:2,1:2:0:0:
104,88,42331,5,0,1:2:0:0:
208,352,42433,1,0,1:2:0:0:
189,88,42536,1,4,1:2:0:0:
123,352,42638,1,0,1:2:0:0:
274,88,42740,1,0,1:2:0:0:
38,352,42842,2,0,P|19:258|48:210,1,105.000004005432,0|4,1:2|1:2,1:2:0:0:
351,192,43046,5,0,1:2:0:0:
152,243,43148,1,0,1:2:0:0:
247,79,43250,1,0,1:2:0:0:
264,330,43352,2,0,P|186:304|152:243,1,105.000004005432,4|0,1:2|1:2,1:2:0:0:
333,261,43556,5,0,1:2:0:0:
169,114,43658,1,0,1:2:0:0:
394,114,43760,1,4,1:2:0:0:
162,222,43862,2,0,P|162:127|187:92,1,105.000004005432,0|0,1:2|1:2,1:2:0:0:
264,330,44066,5,0,1:2:0:0:
264,105,44168,1,4,1:2:0:0:
264,330,44270,1,0,1:2:0:0:
264,105,44372,1,0,1:2:0:0:
135,252,44474,1,0,1:2:0:0:
368,209,44576,2,0,P|359:131|325:105,1,105.000004005432,4|0,1:2|1:2,1:2:0:0:
126,71,44780,5,0,1:2:0:0:
281,287,44882,1,0,1:2:0:0:
290,62,44984,1,4,1:2:0:0:
143,278,45087,2,0,P|186:217|238:174,1,105.000004005432,0|0,1:2|1:2,1:2:0:0:
428,209,45291,5,0,1:2:0:0:
221,105,45393,1,4,1:2:0:0:
394,122,45495,1,0,1:2:0:0:
186,19,45597,2,0,P|143:79|135:157,1,105.000004005432,0|0,1:2|1:2,1:2:0:0:
299,278,45801,5,4,1:2:0:0:
160,209,45903,1,0,1:2:0:0:
256,347,46005,1,0,1:2:0:0:
109,269,46107,2,0,P|204:261|221:235,1,105.000004005432,0|4,1:2|1:2,1:2:0:0:
311,61,46311,5,0,1:2:0:0:
106,154,46413,1,0,1:2:0:0:
395,33,46515,1,0,1:2:0:0:
190,117,46617,2,0,L|311:61,1,105.000004005432,4|0,1:2|1:2,1:2:0:0:
395,238,46821,5,0,1:2:0:0:
106,154,46923,1,0,1:2:0:0:
316,330,47025,1,4,1:2:0:0:
290,140,47127,2,0,P|230:105|186:96,1,105.000004005432,0|0,1:2|1:2,1:2:0:0:
91,321,47331,5,0,1:2:0:0:
316,217,47433,1,4,1:2:0:0:
117,235,47536,1,0,1:2:0:0:
342,131,47638,2,0,P|247:131|212:140,1,105.000004005432,0|0,1:2|1:2,1:2:0:0:
281,330,47842,5,4,1:2:0:0:
230,88,47944,1,0,1:2:0:0:
281,330,48046,1,0,1:2:0:0:
230,88,48148,1,0,1:2:0:0:
411,192,48250,1,4,1:2:0:0:
143,235,48352,2,0,P|83:157|100:114,1,105.000004005432,0|0,1:2|1:2,1:2:0:0:
359,105,48556,5,0,1:2:0:0:
204,287,48658,1,4,1:2:0:0:
169,71,48760,1,0,1:2:0:0:
420,226,48862,2,0,P|463:148|446:105,1,105.000004005432,0|0,1:2|1:2,1:2:0:0:
291,301,49066,5,4,1:2:0:0:
162,122,49168,1,0,1:2:0:0:
371,192,49270,1,0,1:2:0:0:
162,260,49372,1,0,1:2:0:0:
299,88,49474,2,0,P|230:62|152:62,1,105.000004005432,4|0,1:2|1:2,1:2:0:0:
91,287,49678,5,0,1:2:0:0:
299,148,49780,1,0,1:2:0:0:
117,114,49882,1,4,1:2:0:0:
264,321,49984,2,0,P|351:295|376:278,1,105.000004005432,0|0,1:2|1:2,1:2:0:0:
152,183,50189,5,0,1:2:0:0:
428,105,50291,1,4,1:2:0:0:
74,122,50393,1,0,1:2:0:0:
359,166,50495,2,0,P|307:243|273:252,1,105.000004005432,0|0,1:2|1:2,1:2:0:0:
256,62,50699,5,4,1:2:0:0:
160,287,50801,1,0,1:2:0:0:
256,62,50903,1,0,1:2:0:0:
160,287,51005,1,0,1:2:0:0:
117,96,51107,1,4,1:2:0:0:
316,166,51209,2,0,P|307:252|281:295,1,105.000004005432,0|0,1:2|1:2,1:2:0:0:
135,174,51413,5,0,1:2:0:0:
376,114,51515,1,4,1:2:0:0:
186,62,51617,1,0,1:2:0:0:
316,269,51719,2,0,P|342:200|325:157,1,105.000004005432,0|0,1:2|1:2,1:2:0:0:
129,301,51923,5,4,1:2:0:0:
272,82,52025,1,0,1:2:0:0:
205,301,52127,1,4,1:2:0:0:
197,82,52229,1,4,1:2:0:0:
281,301,52331,2,0,P|180:259|163:225,1,105.000004005432,4|0,1:2|1:2,1:2:0:0:
407,111,52536,5,0,1:2:0:0:
155,211,52638,1,0,1:2:0:0:
482,150,52740,1,4,1:2:0:0:
230,250,52842,2,0,P|230:158|188:133,1,105.000004005432,0|0,1:2|1:2,1:2:0:0:
104,326,53046,5,0,1:2:0:0:
306,166,53148,1,4,1:2:0:0:
104,326,53250,1,0,1:2:0:0:
306,166,53352,1,0,1:2:0:0:
247,343,53454,1,0,1:2:0:0:
104,141,53556,2,0,P|163:107|214:99,1,105.000004005432,4|0,1:2|1:2,1:2:0:0:
223,341,53760,5,0,1:2:0:0:
141,89,53862,1,0,1:2:0:0:
400,144,53964,1,4,1:2:0:0:
153,305,54066,1,0,1:2:0:0:
208,46,54168,1,0,1:2:0:0:
405,223,54270,1,0,1:2:0:0:
110,238,54372,5,4,1:2:0:0:
287,41,54474,1,0,1:2:0:0:
369,293,54576,1,0,1:2:0:0:
104,158,54678,2,0,P|155:150|205:183,1,105.000004005432,0|4,1:2|1:2,1:2:0:0:
256,343,54882,5,0,1:2:0:0:
348,150,54984,1,0,1:2:0:0:
156,150,55087,1,0,1:2:0:0:
348,343,55189,1,4,1:2:0:0:
155,343,55291,2,0,P|138:309|163:225,1,105.000004005432,0|0,1:2|1:2,1:2:0:0:
373,234,55495,5,0,1:2:0:0:
239,99,55597,1,4,1:2:0:0:
415,175,55699,1,0,1:2:0:0:
230,208,55801,2,0,P|239:116|214:91,1,105.000004005432,0|0,1:2|1:2,1:2:0:0:
121,267,56005,5,4,1:2:0:0:
180,141,56107,1,0,1:2:0:0:
222,276,56209,1,0,1:2:0:0:
180,141,56311,1,0,1:2:0:0:
121,267,56413,2,0,P|197:225|256:217,1,105.000004005432,4|0,1:2|1:2,1:2:0:0:
397,236,56617,5,0,1:2:0:0:
300,50,56719,1,0,1:2:0:0:
326,289,56821,1,4,1:2:0:0:
229,103,56923,2,0,P|158:103|97:139,1,105.000004005432,0|0,1:2|1:2,1:2:0:0:
167,324,57127,5,0,1:2:0:0:
256,192,57229,1,4,1:2:0:0:
97,315,57331,5,0,1:2:0:0:
246,259,57433,1,0,1:2:0:0:
26,271,57536,5,0,1:2:0:0:
183,296,57638,1,4,1:2:0:0:
141,165,57740,2,0,P|70:174|26:139,1,105.000004005432,0|0,1:2|1:2,1:2:0:0:
256,42,57944,5,0,1:2:0:0:
150,244,58046,1,4,1:2:0:0:
344,174,58148,1,0,1:2:0:0:
97,77,58250,2,0,P|79:156|88:200,1,105.000004005432,0|0,1:2|1:2,1:2:0:0:
335,68,58454,5,4,1:2:0:0:
238,280,58556,1,0,1:2:0:0:
176,86,58658,1,0,1:2:0:0:
361,262,58760,2,0,P|361:174|327:128,1,105.000004005432,0|4,1:2|1:2,1:2:0:0:
97,253,58964,5,0,1:2:0:0:
273,130,59066,1,0,1:2:0:0:
88,165,59168,1,0,1:2:0:0:
211,306,59270,2,0,P|256:218|247:183,1,105.000004005432,4|0,1:2|1:2,1:2:0:0:
106,50,59474,5,0,1:2:0:0:
335,165,59576,1,0,1:2:0:0:
106,50,59678,1,4,1:2:0:0:
335,165,59780,1,0,1:2:0:0:
247,15,59882,1,0,1:2:0:0:
167,183,59984,2,0,P|264:156|309:177,1,105.000004005432,0|4,1:2|1:2,1:2:0:0:
247,333,60189,5,0,1:2:0:0:
247,182,60291,1,0,1:2:0:0:
377,257,60393,1,0,1:2:0:0:
246,332,60495,1,4,1:2:0:0:
321,200,60597,1,0,1:2:0:0:
397,333,60699,2,0,P|335:315|300:262,1,105.000004005432,0|0,1:2|1:2,1:2:0:0:
397,86,60903,5,4,1:2:0:0:
211,77,61005,1,0,1:2:0:0:
314,15,61107,1,0,1:2:0:0:
299,174,61209,2,0,P|195:200|176:231,1,105.000004005432,0|4,1:2|1:2,1:2:0:0:
316,330,61413,5,0,1:2:0:0:
100,261,61515,1,0,1:2:0:0:
221,365,61617,1,0,1:2:0:0:
134,166,61719,2,0,P|221:174|256:148,1,105.000004005432,4|0,1:2|1:2,1:2:0:0:
160,36,61923,5,0,1:2:0:0:
307,235,62025,1,0,1:2:0:0:
247,44,62127,1,4,1:2:0:0:
238,295,62229,2,0,P|152:269|143:235,1,105.000004005432,0|0,1:2|1:2,1:2:0:0:
307,122,62433,5,0,1:2:0:0:
117,131,62536,1,4,1:2:0:0:
230,269,62638,1,0,1:2:0:0:
204,36,62740,2,0,P|273:27|325:44,1,105.000004005432,0|0,1:2|1:2,1:2:0:0:
359,252,62944,5,4,1:2:0:0:
117,209,63046,1,0,1:2:0:0:
299,148,63148,1,0,1:2:0:0:
57,105,63250,2,0,P|65:192|91:235,1,105.000004005432,0|4,1:2|1:2,1:2:0:0:
273,70,63454,5,0,1:2:0:0:
204,278,63556,1,0,1:2:0:0:
273,70,63658,1,0,1:2:0:0:
204,278,63760,1,4,1:2:0:0:
385,114,63862,1,0,1:2:0:0:
301,319,63964,2,0,P|214:276|171:293,1,105.000004005432,0|0,1:2|1:2,1:2:0:0:
65,148,64168,5,4,1:2:0:0:
342,192,64270,1,0,1:2:0:0:
57,226,64372,1,0,1:2:0:0:
256,105,64474,2,0,P|186:157|186:200,1,105.000004005432,0|4,1:2|1:2,1:2:0:0:
411,122,64678,5,0,1:2:0:0:
281,252,64780,1,0,1:2:0:0:
472,183,64882,1,0,1:2:0:0:
333,321,64984,2,0,P|351:243|325:200,1,105.000004005432,4|0,1:2|1:2,1:2:0:0:
108,287,65189,5,0,1:2:0:0:
195,157,65291,1,0,1:2:0:0:
48,157,65393,1,4,1:2:0:0:
108,287,65495,2,0,P|204:295|247:269,1,105.000004005432,0|0,1:2|1:2,1:2:0:0:
195,70,65699,5,0,1:2:0:0:
316,235,65801,1,4,1:2:0:0:
264,27,65903,1,0,1:2:0:0:
385,183,66005,2,0,P|316:183|264:243,1,105.000004005432,0|0,1:2|1:2,1:2:0:0:
385,304,66209,5,4,1:2:0:0:
169,226,66311,1,0,1:2:0:0:
256,356,66413,1,0,1:2:0:0:
307,166,66515,2,0,P|234:127|165:127,1,105.000004005432,0|4,1:2|1:2,1:2:0:0:
100,321,66719,5,0,1:2:0:0:
307,166,66821,1,0,1:2:0:0:
57,261,66923,1,0,1:2:0:0:
325,235,67025,2,0,P|394:200|394:131,1,105.000004005432,4|0,1:2|1:2,1:2:0:0:
214,116,67229,5,0,1:2:0:0:
281,301,67331,1,0,1:2:0:0:
373,133,67433,1,4,1:2:0:0:
146,200,67536,2,0,P|172:267|222:276,1,105.000004005432,0|0,1:2|1:2,1:2:0:0:
298,82,67740,5,0,1:2:0:0:
398,259,67842,1,4,1:2:0:0:
188,217,67944,1,0,1:2:0:0:
407,116,68046,2,0,P|356:183|299:177,1,105.000004005432,0|0,1:2|1:2,1:2:0:0:
188,124,68250,5,4,1:2:0:0:
331,242,68352,1,0,1:2:0:0:
331,57,68454,1,0,1:2:0:0:
247,242,68556,1,0,1:2:0:0:
247,57,68658,2,0,P|340:65|365:91,1,105.000004005432,4|0,1:2|1:2,1:2:0:0:
121,225,68862,5,0,1:2:0:0:
348,158,68964,1,0,1:2:0:0:
121,225,69066,1,4,1:2:0:0:
348,158,69168,1,0,1:2:0:0:
172,91,69270,1,0,1:2:0:0:
247,292,69372,2,0,P|306:259|323:208,1,105.000004005432,0|4,1:2|1:2,1:2:0:0:
146,150,69576,5,0,1:2:0:0:
188,326,69678,1,0,1:2:0:0:
230,141,69780,1,0,1:2:0:0:
104,326,69882,2,0,P|138:250|172:225,1,105.000004005432,4|0,1:2|1:2,1:2:0:0:
348,276,70087,5,0,1:2:0:0:
104,200,70189,1,0,1:2:0:0:
298,107,70291,1,4,1:2:0:0:
205,309,70393,2,0,P|197:225|230:192,1,105.000004005432,0|0,1:2|1:2,1:2:0:0:
96,99,70597,5,0,1:2:0:0:
340,192,70699,1,4,1:2:0:0:
163,40,70801,1,0,1:2:0:0:
205,234,70903,2,0,P|197:150|239:124,1,105.000004005432,0|0,1:2|1:2,1:2:0:0:
373,309,71107,5,4,1:2:0:0:
346,74,71209,1,0,1:2:0:0:
183,237,71311,1,0,1:2:0:0:
438,143,71413,2,0,P|365:79|329:70,1,105.000004005432,0|4,1:2|1:2,1:2:0:0:
265,300,71617,5,0,1:2:0:0:
237,46,71719,1,0,1:2:0:0:
364,346,71821,1,0,1:2:0:0:
337,92,71923,2,0,P|346:173|310:210,1,105.000004005432,4|0,1:2|1:2,1:2:0:0:
74,173,72127,5,0,1:2:0:0:
319,173,72229,1,0,1:2:0:0:
74,173,72331,1,4,1:2:0:0:
319,173,72433,1,0,1:2:0:0:
174,300,72536,1,0,1:2:0:0:
192,64,72638,2,0,P|265:64|310:110,1,105.000004005432,0|4,1:2|1:2,1:2:0:0:
292,300,72842,5,0,1:2:0:0:
138,146,72944,1,0,1:2:0:0:
328,137,73046,1,0,1:2:0:0:
138,237,73148,2,0,P|237:246|270:220,1,105.000004005432,4|0,1:2|1:2,1:2:0:0:
246,37,73352,5,0,1:2:0:0:
355,237,73454,1,0,1:2:0:0:
392,28,73556,1,4,1:2:0:0:
210,146,73658,2,0,P|165:210|174:264,1,105.000004005432,0|0,1:2|1:2,1:2:0:0:
346,137,73862,5,0,1:2:0:0:
83,182,73964,1,4,1:2:0:0:
274,291,74066,1,0,1:2:0:0:
210,64,74168,2,0,P|291:48|351:76,1,105.000004005432,0|0,1:2|1:2,1:2:0:0:
401,192,74372,5,4,1:2:0:0:
165,228,74474,1,0,1:2:0:0:
373,110,74576,1,0,1:2:0:0:
219,291,74678,2,0,P|246:228|228:164,1,105.000004005432,0|4,1:2|1:2,1:2:0:0:
92,92,74882,5,0,1:2:0:0:
328,182,74984,1,0,1:2:0:0:
128,28,75087,1,0,1:2:0:0:
292,246,75189,2,0,P|219:228|165:246,1,105.000004005432,4|0,1:2|1:2,1:2:0:0:
354,328,75393,5,0,1:2:0:0:
118,290,75495,1,0,1:2:0:0:
156,54,75597,1,4,1:2:0:0:
392,92,75699,1,0,1:2:0:0:
269,325,75801,5,0,1:2:0:0:
121,205,75903,1,0,1:2:0:0:
241,57,76005,1,4,1:2:0:0:
389,177,76107,1,0,1:2:0:0:
211,289,76209,5,0,1:2:0:0:
157,147,76311,1,0,1:2:0:0:
299,93,76413,1,4,1:2:0:0:
353,235,76515,1,0,1:2:0:0:
185,241,76617,5,0,1:2:0:0:
204,121,76719,1,0,1:2:0:0:
325,140,76821,1,4,1:2:0:0:
301,264,76923,2,0,P|246:210|192:219,1,105.000004005432,0|0,1:2|1:2,1:2:0:0:
237,373,77127,5,0,1:2:0:0:
355,173,77229,1,4,1:2:0:0:
183,291,77331,1,0,1:2:0:0:
299,93,77433,2,0,P|228:64|174:83,1,105.000004005432,0|0,1:2|1:2,1:2:0:0:
265,255,77638,5,4,1:2:0:0:
110,83,77740,1,0,1:2:0:0:
83,319,77842,1,0,1:2:0:0:
256,83,77944,2,4,P|337:83|383:119,1,105.000004005432,4|0,1:2|1:2,1:2:0:0:
165,19,78148,5,0,1:2:0:0:
138,192,78250,1,4,1:2:0:0:
138,192,78301,1,4,1:2:0:0:
138,192,78352,1,4,1:2:0:0:
138,192,78403,1,4,1:2:0:0:
138,192,78454,2,0,P|219:173|274:192,1,105.000004005432,4|0,1:2|1:2,1:2:0:0:
346,328,78658,5,0,1:2:0:0:
392,92,78760,1,0,1:2:0:0:
156,146,78862,1,4,1:2:0:0:
419,228,78964,2,0,P|328:237|283:219,1,105.000004005432,0|0,1:2|1:2,1:2:0:0:
274,28,79168,5,0,1:2:0:0:
165,228,79270,1,4,1:2:0:0:
328,110,79372,1,0,1:2:0:0:
219,309,79474,2,0,P|228:228|183:192,1,105.000004005432,0|0,1:2|1:2,1:2:0:0:
74,74,79678,5,4,1:2:0:0:
346,37,79780,1,0,1:2:0:0:
74,74,79882,1,0,1:2:0:0:
346,37,79984,1,0,1:2:0:0:
180,15,80087,1,4,1:2:0:0:
222,192,80189,2,0,P|281:133|323:141,1,105.000004005432,0|0,1:2|1:2,1:2:0:0:
415,242,80393,5,0,1:2:0:0:
272,309,80495,5,4,1:2:0:0:
323,208,80597,1,0,1:2:0:0:
373,334,80699,2,0,P|272:326|256:292,1,105.000004005432,0|0,1:2|1:2,1:2:0:0:
141,103,80903,5,4,1:2:0:0:
141,262,81005,1,0,1:2:0:0:
220,103,81107,1,0,1:2:0:0:
220,262,81209,2,0,P|256:192|247:147,1,105.000004005432,0|4,1:2|1:2,1:2:0:0:
54,200,81413,5,0,1:2:0:0:
306,91,81515,1,0,1:2:0:0:
45,91,81617,1,0,1:2:0:0:
306,200,81719,2,0,P|214:225|188:259,1,105.000004005432,4|0,1:2|1:2,1:2:0:0:
314,351,81923,5,0,1:2:0:0:
188,124,82025,1,0,1:2:0:0:
407,175,82127,1,4,1:2:0:0:
197,301,82229,2,0,P|146:242|138:192,1,105.000004005432,0|0,1:2|1:2,1:2:0:0:
331,40,82433,5,0,1:2:0:0:
239,225,82536,1,4,1:2:0:0:
348,150,82638,1,0,1:2:0:0:
230,82,82740,2,0,P|247:133|323:133,1,105.000004005432,0|0,1:2|1:2,1:2:0:0:
365,301,82944,5,4,1:2:0:0:
129,301,83046,1,0,1:2:0:0:
365,217,83148,1,0,1:2:0:0:
129,217,83250,2,0,P|180:150|172:91,1,105.000004005432,0|4,1:2|1:2,1:2:0:0:
104,57,83454,5,0,1:2:0:0:
323,57,83556,1,0,1:2:0:0:
129,208,83658,1,0,1:2:0:0:
239,32,83760,2,0,P|331:65|348:105,1,105.000004005432,4|0,1:2|1:2,1:2:0:0:
264,292,83964,5,0,1:2:0:0:
138,133,84066,1,0,1:2:0:0:
390,284,84168,1,4,1:2:0:0:
264,124,84270,2,0,P|205:183|188:225,1,105.000004005432,0|0,1:2|1:2,1:2:0:0:
415,183,84474,5,0,1:2:0:0:
138,292,84576,1,4,1:2:0:0:
239,107,84678,1,0,1:2:0:0:
323,309,84780,2,0,P|247:259|214:267,1,105.000004005432,0|0,1:2|1:2,1:2:0:0:
121,91,84984,5,4,1:2:0:0:
172,200,85087,1,0,1:2:0:0:
172,40,85188,5,0,1:2:0:0:
222,150,85291,1,0,1:2:0:0:
232,8,85393,5,4,1:2:0:0:
288,112,85495,2,0,P|336:168|336:216,1,105.000004005432,0|0,1:2|1:2,1:2:0:0:
155,292,85699,5,0,1:2:0:0:
331,166,85801,1,4,1:2:0:0:
306,326,85903,1,0,1:2:0:0:
163,158,86005,2,0,P|146:65|180:40,1,105.000004005432,0|0,1:2|1:2,1:2:0:0:
348,49,86209,5,4,1:2:0:0:
432,259,86311,1,0,1:2:0:0:
348,49,86413,1,0,1:2:0:0:
432,259,86515,1,0,1:2:0:0:
474,82,86617,1,4,1:2:0:0:
264,175,86719,2,0,P|222:259|239:304,1,105.000004005432,0|0,1:2|1:2,1:2:0:0:
113,91,86923,5,0,1:2:0:0:
256,91,87025,1,4,1:2:0:0:
113,175,87127,1,0,1:2:0:0:
256,175,87229,2,0,P|289:267|264:309,1,105.000004005432,0|0,1:2|1:2,1:2:0:0:
121,309,87433,5,4,1:2:0:0:
188,99,87536,1,0,1:2:0:0:
45,183,87638,1,0,1:2:0:0:
239,242,87740,2,0,P|272:158|256:99,1,105.000004005432,0|4,1:2|1:2,1:2:0:0:
382,318,87944,5,0,1:2:0:0:
373,91,88046,1,0,1:2:0:0:
457,318,88148,1,0,1:2:0:0:
306,91,88250,2,0,P|239:141|222:192,1,105.000004005432,4|0,1:2|1:2,1:2:0:0:
424,208,88454,5,0,1:2:0:0:
239,326,88556,1,0,1:2:0:0:
314,158,88658,1,4,1:2:0:0:
390,334,88760,2,0,P|306:292|264:301,1,105.000004005432,0|0,1:2|1:2,1:2:0:0:
96,250,88964,5,0,1:2:0:0:
247,99,89066,1,4,1:2:0:0:
205,292,89168,1,0,1:2:0:0:
138,141,89270,5,0,1:2:0:0:
289,292,89372,1,0,1:2:0:0:
96,250,89474,2,0,P|188:200|222:200,1,105.000004005432,4|0,1:2|1:2,1:2:0:0:
415,200,89678,5,0,1:2:0:0:
348,99,89780,1,0,1:2:0:0:
348,225,89882,1,4,1:2:0:0:
281,124,89984,2,0,P|239:192|239:242,1,105.000004005432,0|0,1:2|1:2,1:2:0:0:
113,74,90189,5,0,1:2:0:0:
155,259,90291,1,4,1:2:0:0:
281,124,90393,1,0,1:2:0:0:
54,175,90495,2,0,P|71:267|88:292,1,105.000004005432,0|0,1:2|1:2,1:2:0:0:
256,32,90699,5,0,1:2:0:0:
382,242,90801,1,0,1:2:0:0:
146,99,90903,1,0,1:2:0:0:
407,91,91005,2,0,P|356:158|314:158,1,105.000004005432,0|4,1:2|1:2,1:2:0:0:
155,208,91209,5,0,1:2:0:0:
306,57,91311,2,0,L|323:124,1,52.5000020027161,0|0,1:2|1:2,1:2:0:0:
272,292,91413,2,0,L|298:225,1,52.5000020027161,0|0,1:2|1:2,1:2:0:0:
197,65,91515,6,0,B|256:124|256:124|256:200|256:200|308:252,1,210.000008010865,8|4,1:2|1:2,1:2:0:0:
113,158,92127,1,2,1:2:0:0:
407,133,92331,6,0,B|348:175|348:175|247:175|247:175|197:192,1,210.000008010865,8|4,1:2|1:2,1:2:0:0:
331,49,92944,1,2,1:2:0:0:
323,292,93148,6,0,B|247:192|247:192|149:166,1,210.000008010865,8|4,1:2|1:2,1:2:0:0:
155,309,93760,1,2,1:2:0:0:
272,107,93964,6,0,P|348:107|272:150,1,210.000008010865,8|4,1:2|1:2,1:2:0:0:
121,57,94576,1,2,1:2:0:0:
348,183,94780,6,0,B|281:192|281:192|205:250|205:250|138:259,1,210.000008010865,8|4,1:2|1:2,1:2:0:0:
365,309,95393,1,2,1:2:0:0:
121,91,95597,6,0,P|227:73|205:133,1,210.000008010865,8|4,1:2|1:2,1:2:0:0:
96,234,96209,1,2,1:2:0:0:
424,32,96413,6,0,B|348:133|348:133|348:242,1,210.000008010865,8|4,1:2|1:2,1:2:0:0:
180,57,97025,1,2,1:2:0:0:
54,326,97229,6,0,B|121:267|197:385|269:322,1,210.000008010865,8|4,1:2|1:2,1:2:0:0:
407,192,97842,1,2,1:2:0:0:
172,65,98046,6,0,P|155:141|205:74,1,210.000008010865,8|4,1:2|1:2,1:2:0:0:
180,107,98658,1,2,1:2:0:0:
356,309,98862,6,0,B|356:242|356:242|323:150|323:150|324:86,1,210.000008010865,8|4,1:2|1:2,1:2:0:0:
188,292,99474,1,2,1:2:0:0:
138,74,99678,6,8,B|247:91|247:91|331:175,1,210.000008010865,8|12,1:2|1:2,1:2:0:0:
138,259,100291,1,2,1:2:0:0:
373,284,100495,6,2,B|365:150|365:150|289:91,1,210.000008010865,10|6,1:2|1:2,1:2:0:0:
474,242,101107,1,2,1:2:0:0:
121,225,101311,6,0,P|138:150|155:234,1,210.000008010865,8|4,1:2|1:2,1:2:0:0:
146,192,101923,1,2,1:2:0:0:
348,82,102127,6,8,B|356:158|356:158|256:183|289:268,1,210.000008010865,8|4,1:2|1:2,1:2:0:0:
424,242,102740,1,2,1:2:0:0:
138,82,102944,6,0,B|146:192|146:192|230:276,1,210.000008010865,8|4,1:2|1:2,1:2:0:0:
298,57,103556,1,2,1:2:0:0:
121,99,103760,6,0,P|230:107|250:207,1,210.000008010865,8|4,1:2|1:2,1:2:0:0:
96,217,104372,1,2,1:2:0:0:
373,57,104576,5,4,1:2:0:0:
298,267,104678,1,0,1:2:0:0:
239,99,104780,1,0,1:2:0:0:
415,158,104882,2,0,P|415:234|390:276,1,105.000004005432,0|4,1:2|1:2,1:2:0:0:
138,133,105087,5,0,1:2:0:0:
138,292,105189,1,0,1:2:0:0:
222,133,105291,1,0,1:2:0:0:
222,292,105393,2,0,P|272:225|272:175,1,105.000004005432,4|0,1:2|1:2,1:2:0:0:
239,32,105597,5,0,1:2:0:0:
398,192,105699,1,0,1:2:0:0:
239,32,105801,1,4,1:2:0:0:
398,192,105903,1,0,1:2:0:0:
398,32,106005,1,0,1:2:0:0:
239,158,106107,2,0,P|256:234|289:242,1,105.000004005432,0|4,1:2|1:2,1:2:0:0:
104,74,106311,5,0,1:2:0:0:
155,276,106413,1,0,1:2:0:0:
180,57,106515,1,0,1:2:0:0:
79,284,106617,2,0,P|79:208|104:175,1,105.000004005432,4|0,1:2|1:2,1:2:0:0:
348,166,106821,5,0,1:2:0:0:
214,334,106923,1,0,1:2:0:0:
398,292,107025,1,4,1:2:0:0:
172,234,107127,2,0,P|180:175|222:124,1,105.000004005432,0|0,1:2|1:2,1:2:0:0:
373,49,107331,5,0,1:2:0:0:
298,326,107433,1,4,1:2:0:0:
298,49,107536,1,0,1:2:0:0:
373,326,107638,2,0,P|382:250|348:208,1,105.000004005432,0|0,1:2|1:2,1:2:0:0:
96,124,107842,5,4,1:2:0:0:
256,192,107944,1,0,1:2:0:0:
96,250,108046,1,0,1:2:0:0:
256,192,108148,1,0,1:2:0:0:
96,124,108250,1,4,1:2:0:0:
256,192,108352,2,0,P|331:200|382:150,1,105.000004005432,0|0,1:2|1:2,1:2:0:0:
272,49,108556,5,0,1:2:0:0:
272,284,108658,1,4,1:2:0:0:
348,49,108760,1,0,1:2:0:0:
348,284,108862,2,0,P|289:217|306:166,1,105.000004005432,0|0,1:2|1:2,1:2:0:0:
432,124,109066,5,4,1:2:0:0:
214,192,109168,1,0,1:2:0:0:
432,217,109270,1,0,1:2:0:0:
214,99,109372,2,0,P|129:124|104:158,1,105.000004005432,0|4,1:2|1:2,1:2:0:0:
214,309,109576,5,0,1:2:0:0:
340,116,109678,1,0,1:2:0:0:
323,318,109780,1,0,1:2:0:0:
197,124,109882,2,0,P|239:158|222:225,1,105.000004005432,4|0,1:2|1:2,1:2:0:0:
71,99,110087,5,0,1:2:0:0:
306,166,110189,1,0,1:2:0:0:
71,208,110291,1,4,1:2:0:0:
214,49,110393,2,0,P|272:49|323:74,1,105.000004005432,0|0,1:2|1:2,1:2:0:0:
172,301,110597,5,0,1:2:0:0:
407,301,110699,1,4,1:2:0:0:
172,301,110801,1,0,1:2:0:0:
407,301,110903,1,0,1:2:0:0:
264,368,111005,1,0,1:2:0:0:
356,175,111107,2,0,P|289:158|239:175,1,105.000004005432,4|0,1:2|1:2,1:2:0:0:
62,242,111311,5,0,1:2:0:0:
214,65,111413,1,0,1:2:0:0:
54,82,111515,1,4,1:2:0:0:
222,242,111617,2,0,P|272:166|264:133,1,105.000004005432,0|0,1:2|1:2,1:2:0:0:
407,326,111821,5,0,1:2:0:0:
323,91,111923,1,4,1:2:0:0:
323,326,112025,1,0,1:2:0:0:
407,91,112127,2,0,P|323:40|298:57,1,105.000004005432,0|0,1:2|1:2,1:2:0:0:
129,250,112331,5,4,1:2:0:0:
256,74,112433,1,0,1:2:0:0:
289,259,112536,1,0,1:2:0:0:
79,107,112638,2,0,P|155:74|180:74,1,105.000004005432,0|4,1:2|1:2,1:2:0:0:
172,301,112842,5,0,1:2:0:0:
356,124,112944,1,0,1:2:0:0:
172,175,113046,1,0,1:2:0:0:
340,318,113148,2,0,P|356:242|331:200,1,105.000004005432,4|0,1:2|1:2,1:2:0:0:
247,57,113352,5,0,1:2:0:0:
104,166,113454,1,0,1:2:0:0:
247,57,113556,1,4,1:2:0:0:
104,166,113658,1,0,1:2:0:0:
121,32,113760,1,0,1:2:0:0:
239,208,113862,2,0,P|272:242|340:217,1,105.000004005432,0|4,1:2|1:2,1:2:0:0:
314,74,114066,5,0,1:2:0:0:
197,284,114168,1,0,1:2:0:0:
382,107,114270,1,0,1:2:0:0:
264,318,114372,2,0,P|289:234|247:192,1,105.000004005432,4|0,1:2|1:2,1:2:0:0:
113,141,114576,5,0,1:2:0:0:
314,141,114678,1,0,1:2:0:0:
205,284,114780,1,4,1:2:0:0:
205,57,114882,2,0,P|281:57|323:91,1,105.000004005432,0|0,1:2|1:2,1:2:0:0:
201,285,115087,5,0,1:2:0:0:
201,97,115189,1,4,1:2:0:0:
364,192,115291,1,0,1:2:0:0:
129,192,115393,2,0,P|230:192|264:225,1,105.000004005432,0|0,1:2|1:2,1:2:0:0:
373,326,115597,5,4,1:2:0:0:
298,57,115699,1,0,1:2:0:0:
272,276,115801,1,0,1:2:0:0:
382,32,115903,2,0,P|281:23|247:57,1,105.000004005432,0|4,1:2|1:2,1:2:0:0:
88,150,116107,5,0,1:2:0:0:
348,150,116209,1,0,1:2:0:0:
88,74,116311,1,0,1:2:0:0:
348,217,116413,2,0,P|306:259|214:259,1,105.000004005432,4|0,1:2|1:2,1:2:0:0:
222,57,116617,5,0,1:2:0:0:
163,284,116719,1,0,1:2:0:0:
272,166,116821,1,4,1:2:0:0:
104,175,116923,2,0,P|146:234|197:250,1,105.000004005432,0|0,1:2|1:2,1:2:0:0:
390,91,117127,5,0,1:2:0:0:
281,292,117229,1,4,1:2:0:0:
390,91,117331,1,0,1:2:0:0:
281,292,117433,1,0,1:2:0:0:
272,65,117536,1,0,1:2:0:0:
390,301,117638,2,0,P|323:276|272:276,1,105.000004005432,4|0,1:2|1:2,1:2:0:0:
88,91,117842,5,0,1:2:0:0:
180,292,117944,1,0,1:2:0:0:
230,124,118046,1,4,1:2:0:0:
45,208,118148,2,0,P|71:276|121:284,1,105.000004005432,0|0,1:2|1:2,1:2:0:0:
319,81,118352,5,0,1:2:0:0:
319,302,118454,1,4,1:2:0:0:
127,190,118556,1,0,1:2:0:0:
388,115,118658,5,0,1:2:0:0:
254,344,118760,1,0,1:2:0:0:
123,115,118862,1,4,1:2:0:0:
438,192,118964,5,0,1:2:0:0:
163,350,119066,1,0,1:2:0:0:
163,32,119168,1,0,1:2:0:0:
422,287,119270,5,4,1:2:0:0:
89,287,119372,1,0,1:2:0:0:
256,0,119474,2,0,P|296:48|296:104,1,105.000004005432,0|0,1:2|1:2,1:2:0:0:
96,158,119678,5,4,1:2:0:0:
323,250,119780,1,0,1:2:0:0:
239,91,119882,1,0,1:2:0:0:
155,284,119984,2,0,P|205:225|272:225,1,105.000004005432,0|4,1:2|1:2,1:2:0:0:
398,57,120189,5,0,1:2:0:0:
398,259,120291,1,0,1:2:0:0:
323,57,120393,1,0,1:2:0:0:
323,259,120495,2,0,P|382:175|373:133,1,105.000004005432,4|0,1:2|1:2,1:2:0:0:
96,124,120699,5,0,1:2:0:0:
272,124,120801,1,0,1:2:0:0:
96,124,120903,1,4,1:2:0:0:
272,124,121005,1,0,1:2:0:0:
180,40,121107,1,0,1:2:0:0:
180,225,121209,2,0,P|239:301|281:292,1,105.000004005432,0|4,1:2|1:2,1:2:0:0:
365,91,121413,5,0,1:2:0:0:
155,141,121515,1,0,1:2:0:0:
331,259,121617,1,0,1:2:0:0:
256,49,121719,2,0,P|172:57|121:74,1,105.000004005432,4|0,1:2|1:2,1:2:0:0:
440,166,121923,5,0,1:2:0:0:
214,133,122025,1,0,1:2:0:0:
440,242,122127,1,4,1:2:0:0:
205,57,122229,2,0,P|298:65|340:99,1,105.000004005432,0|0,1:2|1:2,1:2:0:0:
129,259,122433,5,0,1:2:0:0:
331,141,122536,1,4,1:2:0:0:
306,326,122638,1,0,1:2:0:0:
163,107,122740,2,0,P|129:158|138:217,1,105.000004005432,0|0,1:2|1:2,1:2:0:0:
306,200,122944,5,4,1:2:0:0:
113,74,123046,1,0,1:2:0:0:
281,57,123148,1,0,1:2:0:0:
138,217,123250,2,0,P|180:259|239:259,1,105.000004005432,0|4,1:2|1:2,1:2:0:0:
340,99,123454,5,0,1:2:0:0:
340,309,123556,1,0,1:2:0:0:
264,99,123658,1,0,1:2:0:0:
264,309,123760,1,4,1:2:0:0:
188,99,123862,1,0,1:2:0:0:
188,309,123964,2,0,P|163:225|188:175,1,105.000004005432,0|0,1:2|1:2,1:2:0:0:
382,192,124168,5,4,1:2:0:0:
247,49,124270,1,0,1:2:0:0:
424,49,124372,1,0,1:2:0:0:
230,141,124474,2,0,P|172:217|188:259,1,105.000004005432,0|4,1:2|1:2,1:2:0:0:
365,292,124678,5,0,1:2:0:0:
188,301,124780,1,0,1:2:0:0:
272,116,124882,1,0,1:2:0:0:
365,292,124984,2,0,P|272:292|239:267,1,105.000004005432,4|0,1:2|1:2,1:2:0:0:
407,107,125189,5,0,1:2:0:0:
180,225,125291,1,0,1:2:0:0:
449,40,125393,1,4,1:2:0:0:
222,150,125495,2,0,P|256:217|306:217,1,105.000004005432,0|0,1:2|1:2,1:2:0:0:
120,56,125699,5,0,1:2:0:0:
312,152,125801,1,4,1:2:0:0:
136,24,125903,1,0,1:2:0:0:
296,184,126005,2,0,P|336:240|328:296,1,105.000004005432,0|0,1:2|1:2,1:2:0:0:
129,183,126209,5,4,1:2:0:0:
323,343,126311,1,0,1:2:0:0:
256,124,126413,1,0,1:2:0:0:
146,292,126515,2,0,P|222:267|239:225,1,105.000004005432,0|4,1:2|1:2,1:2:0:0:
138,57,126719,5,0,1:2:0:0:
407,150,126821,1,0,1:2:0:0:
138,57,126923,1,0,1:2:0:0:
407,150,127025,1,4,1:2:0:0:
146,208,127127,1,0,1:2:0:0:
331,40,127229,2,0,P|356:107|331:175,1,105.000004005432,0|0,1:2|1:2,1:2:0:0:
88,116,127433,5,4,1:2:0:0:
331,259,127536,1,0,1:2:0:0:
45,175,127638,1,0,1:2:0:0:
356,192,127740,2,0,P|298:107|264:107,1,105.000004005432,0|4,1:2|1:2,1:2:0:0:
201,285,127944,5,0,1:2:0:0:
201,97,128046,1,0,1:2:0:0:
364,192,128148,1,0,1:2:0:0:
107,260,128250,1,4,1:2:0:0:
201,97,128352,1,0,1:2:0:0:
294,259,128454,5,0,1:2:0:0:
39,192,128556,1,0,1:2:0:0:
201,97,128658,1,4,1:2:0:0:
201,285,128760,2,0,P|264:267|306:225,1,105.000004005432,0|0,1:2|1:2,1:2:0:0:
96,107,128964,5,0,1:2:0:0:
390,166,129066,1,4,1:2:0:0:
96,107,129168,1,0,1:2:0:0:
289,242,129270,2,0,P|314:141|289:107,1,105.000004005432,0|0,1:2|1:2,1:2:0:0:
104,225,129474,5,4,1:2:0:0:
256,74,129576,1,0,1:2:0:0:
264,284,129678,1,0,1:2:0:0:
104,74,129780,2,0,P|180:91|205:116,1,105.000004005432,0|4,1:2|1:2,1:2:0:0:
390,91,129984,5,0,1:2:0:0:
398,301,130087,1,0,1:2:0:0:
323,91,130189,1,0,1:2:0:0:
466,301,130291,1,4,1:2:0:0:
256,91,130393,1,4,1:2:0:0:
289,309,130495,6,8,L|222:259,1,52.5000020027161,8|8,1:2|1:2,1:2:0:0:
155,116,130597,2,0,L|197:183,1,52.5000020027161,0|0,1:2|1:2,1:2:0:0:
373,208,130699,2,0,P|306:141|356:234,1,280,4|4,1:2|1:2,1:2:0:0:
96,225,131209,5,0,1:2:0:0:
256,74,131311,1,0,1:2:0:0:
180,259,131413,1,0,1:2:0:0:
88,91,131515,2,0,P|155:65|197:82,1,105.000004005432,4|0,1:2|1:2,1:2:0:0:
323,234,131719,5,0,1:2:0:0:
79,166,131821,1,0,1:2:0:0:
340,166,131923,1,4,1:2:0:0:
79,234,132025,2,0,P|155:276|205:267,1,105.000004005432,0|0,1:2|1:2,1:2:0:0:
222,65,132229,5,0,1:2:0:0:
256,259,132331,1,4,1:2:0:0:
222,65,132433,1,0,1:2:0:0:
256,259,132536,1,0,1:2:0:0:
96,91,132638,1,0,1:2:0:0:
348,234,132740,2,0,P|340:158|306:124,1,105.000004005432,4|0,1:2|1:2,1:2:0:0:
88,217,132944,5,0,1:2:0:0:
340,166,133046,1,0,1:2:0:0:
155,57,133148,1,4,1:2:0:0:
205,309,133250,2,0,P|239:234|281:225,1,105.000004005432,0|0,1:2|1:2,1:2:0:0:
373,57,133454,5,0,1:2:0:0:
155,158,133556,1,4,1:2:0:0:
407,124,133658,1,0,1:2:0:0:
180,225,133760,2,0,P|239:259|289:259,1,105.000004005432,0|0,1:2|1:2,1:2:0:0:
128,80,133964,5,4,1:2:0:0:
352,272,134066,1,0,1:2:0:0:
328,24,134168,1,0,1:2:0:0:
112,184,134270,2,0,P|192:192|216:232,1,105.000004005432,0|4,1:2|1:2,1:2:0:0:
272,336,134474,5,0,1:2:0:0:
336,144,134576,1,0,1:2:0:0:
272,336,134678,1,0,1:2:0:0:
336,144,134780,1,4,1:2:0:0:
176,272,134882,1,0,1:2:0:0:
400,248,134984,2,0,P|416:176|408:128,1,105.000004005432,0|0,1:2|1:2,1:2:0:0:
120,168,135189,5,4,1:2:0:0:
216,30,135291,1,0,1:2:0:0:
353,126,135393,1,0,1:2:0:0:
256,264,135495,2,0,P|168:280|128:264,1,105.000004005432,0|4,1:2|1:2,1:2:0:0:
382,217,135699,5,0,1:2:0:0:
163,124,135801,1,0,1:2:0:0:
197,309,135903,1,0,1:2:0:0:
281,65,136005,2,0,P|323:82|331:157,1,105.000004005432,4|0,1:2|1:2,1:2:0:0:
71,133,136209,5,0,1:2:0:0:
256,191,136311,1,0,1:2:0:0:
71,275,136413,1,4,1:2:0:0:
256,191,136515,2,0,P|289:123|272:73,1,105.000004005432,0|0,1:2|1:2,1:2:0:0:
155,284,136719,5,0,1:2:0:0:
205,48,136821,1,4,1:2:0:0:
230,284,136923,1,0,1:2:0:0:
138,48,137025,2,0,P|154:132|188:157,1,105.000004005432,0|0,1:2|1:2,1:2:0:0:
457,65,137229,5,4,1:2:0:0:
314,301,137331,1,0,1:2:0:0:
373,65,137433,1,0,1:2:0:0:
398,301,137536,1,0,1:2:0:0:
289,65,137638,1,4,1:2:0:0:
482,301,137740,2,0,P|456:225|406:183,1,105.000004005432,0|0,1:2|1:2,1:2:0:0:
113,225,137944,5,0,1:2:0:0:
298,141,138046,1,4,1:2:0:0:
146,91,138148,1,0,1:2:0:0:
247,275,138250,2,0,P|238:182|204:157,1,105.000004005432,0|0,1:2|1:2,1:2:0:0:
113,309,138454,5,4,1:2:0:0:
365,124,138556,1,0,1:2:0:0:
172,359,138658,1,0,1:2:0:0:
306,74,138760,2,0,P|247:107|230:166,1,105.000004005432,0|4,1:2|1:2,1:2:0:0:
373,309,138964,5,0,1:2:0:0:
138,217,139066,1,0,1:2:0:0:
373,200,139168,1,0,1:2:0:0:
138,107,139270,2,0,P|104:166|112:216,1,105.000004005432,4|0,1:2|1:2,1:2:0:0:
323,82,139474,5,0,1:2:0:0:
205,292,139576,1,0,1:2:0:0:
239,65,139678,1,4,1:2:0:0:
281,326,139780,2,0,P|339:284|356:242,1,105.000004005432,0|0,1:2|1:2,1:2:0:0:
104,191,139984,5,0,1:2:0:0:
323,191,140087,1,4,1:2:0:0:
104,191,140189,1,0,1:2:0:0:
323,191,140291,1,0,1:2:0:0:
96,301,140393,1,0,1:2:0:0:
272,116,140495,2,0,P|339:141|381:183,1,105.000004005432,4|0,1:2|1:2,1:2:0:0:
155,99,140699,5,0,1:2:0:0:
247,275,140801,1,0,1:2:0:0:
340,99,140903,1,4,1:2:0:0:
432,284,141005,2,0,P|374:338|305:326,1,105.000004005432,0|0,1:2|1:2,1:2:0:0:
256,99,141209,5,0,1:2:0:0:
113,275,141311,1,4,1:2:0:0:
71,82,141413,1,0,1:2:0:0:
289,267,141515,2,0,P|314:216|297:149,1,105.000004005432,0|0,1:2|1:2,1:2:0:0:
88,191,141719,5,4,1:2:0:0:
331,65,141821,1,0,1:2:0:0:
205,292,141923,1,0,1:2:0:0:
146,158,142025,2,0,P|238:141|280:158,1,105.000004005432,0|4,1:2|1:2,1:2:0:0:
390,292,142229,5,0,1:2:0:0:
382,107,142331,1,0,1:2:0:0:
289,292,142433,1,0,1:2:0:0:
281,107,142535,1,4,1:2:0:0:
457,326,142638,1,0,1:2:0:0:
180,225,142740,2,0,P|112:166|104:115,1,105.000004005432,0|0,1:2|1:2,1:2:0:0:
298,40,142944,5,4,1:2:0:0:
230,284,143046,1,4,1:2:0:0:
407,175,143148,1,4,1:2:0:0:
155,107,143250,2,4,P|146:182|171:208,1,105.000004005432,4|4,1:2|1:2,1:2:0:0:
373,91,143454,5,4,1:2:0:0:
340,309,143556,1,4,1:2:0:0:
239,124,143658,1,4,1:2:0:0:
474,225,143760,1,4,1:2:0:0:
160,96,149882,5,4,1:2:0:0:
352,288,150087,2,0,B|424:200|352:128|352:128|384:232|280:264|280:264|200:192|224:88|224:88|160:104|128:48|128:48|32:72|56:144|56:144|120:128|160:168|160:168|120:208|168:264|168:264|96:248|48:296|48:296|56:336|56:336,1,1190,0|0,1:2|1:2,1:2:0:0:
96,160,156413,6,0,P|176:128|232:152,1,140,0|0,1:2|1:2,1:2:0:0:
336,248,159474,5,0,1:2:0:0:
144,104,159882,1,0,1:2:0:0:
128,256,162944,5,0,1:2:0:0:
208,96,163148,2,0,L|288:112,1,70,0|0,1:2|1:2,1:2:0:0:
280,144,166617,5,0,1:2:0:0:
80,240,167229,5,0,1:2:0:0:
256,104,167842,5,0,1:2:0:0:
320,304,168454,5,0,1:2:0:0:
128,144,169066,5,0,1:2:0:0:
352,232,169270,1,0,1:2:0:0:
256,80,169474,5,0,1:2:0:0:
184,232,169576,1,0,1:2:0:0:
352,136,169678,1,0,1:2:0:0:
112,208,169780,2,0,P|104:144|128:96,1,105.000004005432,0|4,1:2|1:2,1:2:0:0:
256,292,169984,5,0,1:2:0:0:
256,91,170087,1,0,1:2:0:0:
229,288,170189,1,0,1:2:0:0:
281,94,170292,1,4,1:2:0:0:
205,279,170393,1,0,1:2:0:0:
306,99,170495,2,0,P|381:108|415:141,1,105.000004005432,0|0,1:2|1:2,1:2:0:0:
121,200,170699,5,4,1:2:0:0:
356,225,170801,1,0,1:2:0:0:
155,82,170903,1,0,1:2:0:0:
323,317,171005,2,0,P|230:309|206:269,1,105.000004005432,0|4,1:2|1:2,1:2:0:0:
256,57,171209,5,0,1:2:0:0:
138,267,171311,1,0,1:2:0:0:
306,166,171413,1,0,1:2:0:0:
88,158,171515,2,0,P|172:200|197:242,1,105.000004005432,4|0,1:2|1:2,1:2:0:0:
381,250,171719,5,0,1:2:0:0:
205,116,171821,1,0,1:2:0:0:
205,292,171923,1,4,1:2:0:0:
356,116,172025,2,0,P|289:57|239:49,1,105.000004005432,0|0,1:2|1:2,1:2:0:0:
88,108,172229,5,0,1:2:0:0:
272,259,172331,1,4,1:2:0:0:
79,192,172433,1,0,1:2:0:0:
264,343,172536,2,0,P|323:301|348:250,1,105.000004005432,0|0,1:2|1:2,1:2:0:0:
200,72,172740,5,4,1:2:0:0:
424,208,172842,1,0,1:2:0:0:
200,72,172944,1,0,1:2:0:0:
424,208,173046,1,0,1:2:0:0:
344,24,173148,1,4,1:2:0:0:
280,232,173250,2,0,P|240:168|192:144,1,105.000004005432,0|0,1:2|1:2,1:2:0:0:
96,326,173454,5,0,1:2:0:0:
256,133,173556,1,4,1:2:0:0:
272,326,173658,1,0,1:2:0:0:
79,175,173760,2,0,P|104:107|155:65,1,105.000004005432,0|0,1:2|1:2,1:2:0:0:
390,99,173964,5,4,1:2:0:0:
222,259,174066,1,0,1:2:0:0:
314,49,174168,1,0,1:2:0:0:
306,276,174270,2,0,P|306:192|272:141,1,105.000004005432,0|4,1:2|1:2,1:2:0:0:
104,91,174474,5,0,1:2:0:0:
256,292,174576,1,0,1:2:0:0:
247,99,174678,1,0,1:2:0:0:
88,276,174780,2,0,P|155:234|197:225,1,105.000004005432,4|0,1:2|1:2,1:2:0:0:
356,57,174984,5,0,1:2:0:0:
289,259,175087,1,0,1:2:0:0:
356,57,175189,1,4,1:2:0:0:
289,259,175291,1,0,1:2:0:0:
188,57,175393,1,0,1:2:0:0:
382,309,175495,2,0,P|306:326|235:308,1,105.000004005432,0|4,1:2|1:2,1:2:0:0:
104,150,175699,5,0,1:2:0:0:
373,192,175801,1,0,1:2:0:0:
155,301,175903,1,0,1:2:0:0:
247,107,176005,2,0,P|314:99|373:107,1,105.000004005432,4|0,1:2|1:2,1:2:0:0:
289,309,176209,5,0,1:2:0:0:
180,107,176311,1,0,1:2:0:0:
222,334,176413,1,4,1:2:0:0:
113,133,176515,2,0,P|96:208|129:234,1,105.000004005432,0|0,1:2|1:2,1:2:0:0:
382,107,176719,5,0,1:2:0:0:
205,267,176821,1,4,1:2:0:0:
264,74,176923,1,0,1:2:0:0:
398,250,177025,2,0,P|340:309|298:318,1,105.000004005432,0|0,1:2|1:2,1:2:0:0:
146,82,177229,5,4,1:2:0:0:
356,150,177331,1,0,1:2:0:0:
129,208,177433,1,0,1:2:0:0:
356,150,177536,1,0,1:2:0:0:
146,82,177638,1,4,1:2:0:0:
314,250,177740,2,0,P|247:276|205:250,1,105.000004005432,0|0,1:2|1:2,1:2:0:0:
256,91,177944,5,0,1:2:0:0:
172,276,178046,1,4,1:2:0:0:
323,124,178148,1,0,1:2:0:0:
239,309,178250,2,0,P|264:234|239:192,1,105.000004005432,0|0,1:2|1:2,1:2:0:0:
79,192,178454,5,4,1:2:0:0:
247,40,178556,1,0,1:2:0:0:
264,242,178658,1,0,1:2:0:0:
71,107,178760,2,0,P|155:74|205:74,1,105.000004005432,0|4,1:2|1:2,1:2:0:0:
348,82,178964,5,0,1:2:0:0:
356,309,179066,1,0,1:2:0:0:
348,82,179168,1,0,1:2:0:0:
356,309,179270,1,4,1:2:0:0:
214,133,179372,1,0,1:2:0:0:
407,234,179474,2,0,P|407:158|390:124,1,105.000004005432,0|0,1:2|1:2,1:2:0:0:
129,259,179678,5,4,1:2:0:0:
205,74,179780,1,0,1:2:0:0:
62,141,179882,1,0,1:2:0:0:
289,225,179984,2,0,P|298:150|256:91,1,105.000004005432,0|4,1:2|1:2,1:2:0:0:
424,334,180189,5,0,1:2:0:0:
356,107,180291,1,0,1:2:0:0:
289,334,180393,1,0,1:2:0:0:
214,107,180495,2,0,P|138:124|121:150,1,105.000004005432,4|0,1:2|1:2,1:2:0:0:
180,301,180699,5,0,1:2:0:0:
407,200,180801,1,0,1:2:0:0:
163,208,180903,1,4,1:2:0:0:
163,208,181005,2,0,P|239:166|256:107,1,105.000004005432,0|0,1:2|1:2,1:2:0:0:
398,65,181209,5,0,1:2:0:0:
155,107,181311,1,4,1:2:0:0:
340,225,181413,1,0,1:2:0:0:
256,49,181515,2,0,P|222:99|214:166,1,105.000004005432,0|0,1:2|1:2,1:2:0:0:
281,318,181719,5,4,1:2:0:0:
222,133,181821,1,0,1:2:0:0:
331,292,181923,1,0,1:2:0:0:
172,150,182025,1,0,1:2:0:0:
373,259,182127,1,4,1:2:0:0:
113,175,182229,2,0,P|121:259|172:284,1,105.000004005432,0|0,1:2|1:2,1:2:0:0:
340,99,182433,5,4,1:2:0:0:
197,301,182536,1,4,1:2:0:0:
205,74,182638,1,4,1:2:0:0:
306,301,182740,2,0,P|256:225|214:225,1,105.000004005432,0|0,1:2|1:2,1:2:0:0:
71,284,182944,5,4,1:2:0:0:
256,133,183046,1,0,1:2:0:0:
138,318,183148,1,0,1:2:0:0:
197,82,183250,2,0,P|113:82|96:107,1,105.000004005432,0|4,1:2|1:2,1:2:0:0:
214,242,183454,5,0,1:2:0:0:
415,133,183556,1,0,1:2:0:0:
247,32,183658,1,0,1:2:0:0:
306,267,183760,2,0,P|323:183|306:141,1,105.000004005432,4|0,1:2|1:2,1:2:0:0:
129,229,183964,5,0,1:2:0:0:
379,234,184066,1,0,1:2:0:0:
180,83,184168,1,4,1:2:0:0:
252,323,184270,1,0,1:2:0:0:
331,91,184372,2,0,P|247:107|205:133,1,105.000004005432,0|0,1:2|1:2,1:2:0:0:
163,301,184576,5,4,1:2:0:0:
390,208,184678,1,0,1:2:0:0:
163,99,184780,1,0,1:2:0:0:
340,32,184882,2,0,P|390:99|398:141,1,105.000004005432,0|4,1:2|1:2,1:2:0:0:
205,250,185087,5,0,1:2:0:0:
264,40,185189,1,0,1:2:0:0:
306,259,185291,1,0,1:2:0:0:
104,158,185393,2,0,P|180:133|222:141,1,105.000004005432,4|0,1:2|1:2,1:2:0:0:
390,150,185597,5,0,1:2:0:0:
88,267,185699,1,0,1:2:0:0:
180,65,185801,1,4,1:2:0:0:
365,242,185903,2,0,P|314:301|272:309,1,105.000004005432,0|0,1:2|1:2,1:2:0:0:
289,82,186107,5,0,1:2:0:0:
113,200,186209,1,4,1:2:0:0:
289,82,186311,1,0,1:2:0:0:
113,200,186413,1,0,1:2:0:0:
298,234,186515,1,0,1:2:0:0:
71,124,186617,2,0,P|45:192|62:250,1,105.000004005432,4|0,1:2|1:2,1:2:0:0:
356,141,186821,5,0,1:2:0:0:
188,292,186923,1,0,1:2:0:0:
222,91,187025,1,4,1:2:0:0:
314,309,187127,2,0,P|239:343|188:334,1,105.000004005432,0|0,1:2|1:2,1:2:0:0:
113,107,187331,5,0,1:2:0:0:
239,250,187433,1,4,1:2:0:0:
172,57,187536,1,0,1:2:0:0:
289,192,187638,2,0,P|256:158|256:74,1,105.000004005432,0|0,1:2|1:2,1:2:0:0:
96,267,187842,5,4,1:2:0:0:
356,242,187944,1,0,1:2:0:0:
96,267,188046,1,0,1:2:0:0:
356,242,188148,1,0,1:2:0:0:
88,175,188250,1,4,1:2:0:0:
289,318,188352,2,0,P|272:225|239:192,1,105.000004005432,0|0,1:2|1:2,1:2:0:0:
155,65,188556,5,0,1:2:0:0:
407,166,188658,1,4,1:2:0:0:
129,116,188760,1,0,1:2:0:0:
390,225,188862,2,0,P|323:267|272:250,1,105.000004005432,0|0,1:2|1:2,1:2:0:0:
289,74,189066,5,4,1:2:0:0:
155,276,189168,1,0,1:2:0:0:
365,150,189270,1,0,1:2:0:0:
113,158,189372,2,0,P|194:168|238:218,1,105.000004005432,0|4,1:2|1:2,1:2:0:0:
390,57,189576,5,0,1:2:0:0:
264,292,189678,1,0,1:2:0:0:
247,57,189780,1,0,1:2:0:0:
415,208,189882,2,0,P|398:284|356:326,1,105.000004005432,4|0,1:2|1:2,1:2:0:0:
155,158,190087,5,0,1:2:0:0:
407,107,190189,1,0,1:2:0:0:
272,242,190291,1,4,1:2:0:0:
314,49,190393,2,0,P|222:32|188:49,1,105.000004005432,0|0,1:2|1:2,1:2:0:0:
167,255,190597,5,0,1:2:0:0:
244,83,190699,1,4,1:2:0:0:
354,235,190801,1,0,1:2:0:0:
126,204,190903,5,0,1:2:0:0:
308,73,191005,1,0,1:2:0:0:
331,297,191107,1,4,1:2:0:0:
113,127,191209,5,0,1:2:0:0:
382,99,191311,1,0,1:2:0:0:
271,346,191413,1,0,1:2:0:0:
188,74,191515,2,0,P|239:91|264:158,1,105.000004005432,4|0,1:2|1:2,1:2:0:0:
37,259,191719,5,0,1:2:0:0:
314,217,191821,1,0,1:2:0:0:
121,133,191923,1,4,1:2:0:0:
155,318,192025,2,0,P|214:250|222:200,1,105.000004005432,0|0,1:2|1:2,1:2:0:0:
222,74,192229,5,0,1:2:0:0:
424,192,192331,1,4,1:2:0:0:
155,200,192433,1,0,1:2:0:0:
356,82,192536,2,0,P|373:175|348:208,1,105.000004005432,0|0,1:2|1:2,1:2:0:0:
205,23,192740,5,4,1:2:0:0:
306,301,192842,1,0,1:2:0:0:
432,74,192944,1,0,1:2:0:0:
163,133,193046,2,4,P|155:234|188:267,1,105.000004005432,0|4,1:2|1:2,1:2:0:0:
390,242,193250,5,0,1:2:0:0:
256,99,193352,1,0,1:2:0:0:
390,242,193454,1,0,1:2:0:0:
256,99,193556,1,4,1:2:0:0:
222,267,193658,1,0,1:2:0:0:
390,116,193760,2,0,P|356:57|289:40,1,105.000004005432,0|0,1:2|1:2,1:2:0:0:
129,175,193964,5,4,1:2:0:0:
348,267,194066,1,0,1:2:0:0:
155,107,194168,1,0,1:2:0:0:
373,200,194270,2,0,P|323:208|247:192,1,105.000004005432,0|4,1:2|1:2,1:2:0:0:
306,49,194474,5,0,1:2:0:0:
146,242,194576,1,0,1:2:0:0:
373,99,194678,1,0,1:2:0:0:
88,175,194780,2,0,P|104:107|146:57,1,105.000004005432,4|0,1:2|1:2,1:2:0:0:
298,250,194984,5,0,1:2:0:0:
222,65,195087,1,0,1:2:0:0:
356,217,195189,1,4,1:2:0:0:
155,91,195291,1,0,1:2:0:0:
415,183,195393,1,0,1:2:0:0:
88,124,195495,2,0,P|104:200|138:225,1,105.000004005432,0|4,1:2|1:2,1:2:0:0:
348,57,195699,5,0,1:2:0:0:
188,301,195801,1,0,1:2:0:0:
222,40,195903,1,0,1:2:0:0:
222,40,196005,2,0,P|289:99|289:158,1,140,0|0,1:2|1:2,1:2:0:0:
88,175,196413,5,0,1:2:0:0:
289,259,196617,1,0,1:2:0:0:
239,82,196821,2,0,P|155:99|138:158,1,140,0|0,1:2|1:2,1:2:0:0:
390,166,197229,5,0,1:2:0:0:
155,242,197433,1,0,1:2:0:0:
356,57,197638,1,0,1:2:0:0:
239,292,197842,5,0,1:2:0:0:
230,57,198046,1,0,1:2:0:0:
331,259,198250,1,0,1:2:0:0:
113,183,198454,6,4,P|188:141|264:141,1,140,4|4,1:2|1:2,1:2:0:0:
407,267,198862,2,4,B|323:284|323:284|254:249,1,140,4|4,1:2|1:2,1:2:0:0:
96,91,199270,5,0,1:2:0:0:
390,91,199474,1,0,1:2:0:0:
96,192,199678,1,0,1:2:0:0:
390,192,199882,1,0,1:2:0:0:
96,292,200087,1,0,1:2:0:0:
390,292,200291,1,0,1:2:0:0:
230,74,200495,6,0,P|155:150|163:201,1,140,0|0,1:2|1:2,1:2:0:0:
356,91,200903,2,0,P|314:158|230:158,1,140,0|0,1:2|1:2,1:2:0:0:
138,292,201311,1,0,1:2:0:0:
390,225,201515,5,0,1:2:0:0:
214,91,201719,2,0,P|138:141|152:208,1,140,0|0,1:2|1:2,1:2:0:0:
365,82,202127,1,0,1:2:0:0:
222,301,202331,1,0,1:2:0:0:
272,32,202536,1,0,1:2:0:0:
256,192,202561,12,0,206107,1:2:0:0:
