osu file format v14

[General]
AudioFilename: audio.mp3
AudioLeadIn: 0
PreviewTime: 7204
Countdown: 0
SampleSet: Normal
StackLeniency: 0
Mode: 0
LetterboxInBreaks: 0
WidescreenStoryboard: 1

[Editor]
Bookmarks: 8746,13232,17718,22204,26690,31176,35662,40148,44634,49120,53606,58092
DistanceSpacing: 3.2
BeatDivisor: 4
GridSize: 16
TimelineZoom: 2.100001

[Metadata]
Title:Anarchy Road (short ver.)
TitleUnicode:Anarchy Road (short ver.)
Artist:Carpenter Brut
ArtistUnicode:Carpenter Brut
Creator:TequilaWolf
Version:tjen
Source:
Tags:
BeatmapID:1975587
BeatmapSetID:946125

[Difficulty]
HPDrainRate:7
CircleSize:4
OverallDifficulty:8.5
ApproachRate:7
SliderMultiplier:2.5
SliderTickRate:1

[Events]
//Background and Video events
0,0,"lklklklklklkl.jpg",0,0
//Break Periods
//Storyboard Layer 0 (Background)
//Storyboard Layer 1 (Fail)
//Storyboard Layer 2 (Pass)
//Storyboard Layer 3 (Foreground)
//Storyboard Sound Samples

[TimingPoints]
2018,560.747663551402,4,1,0,50,1,0
6363,-100,4,1,0,5,0,0
6503,-40,4,1,0,50,0,0
7555,-40,4,1,0,5,0,0
7625,-40,4,1,0,50,0,0
8746,-100,4,1,0,50,0,0
9588,-25,4,1,0,50,0,0
9868,-50,4,1,0,50,0,0
12111,-33.3333333333333,4,1,0,50,0,0
14074,-25,4,1,0,50,0,0
14494,-50,4,1,0,50,0,0
16317,-133.333333333333,4,1,0,50,0,0
16597,-33.3333333333333,4,1,0,50,0,0
19961,-66.6666666666667,4,1,0,50,0,0
20242,-25,4,1,0,50,0,0
21644,-50,4,1,0,50,0,0
23606,-25,4,1,0,50,0,0
24447,-100,4,1,0,50,0,0
26831,-33.3333333333333,4,1,0,50,0,0
27251,-25,4,1,0,50,0,0
29494,-66.6666666666667,4,1,0,50,0,0
29775,-33.3333333333333,4,1,0,50,0,0
33560,-66.6666666666667,4,1,0,50,0,0
33840,-25,4,1,0,50,0,0
36223,-50,4,1,0,50,0,0
37625,-33.3333333333333,4,1,0,50,0,0
38046,-66.6666666666667,4,1,0,50,0,0
38466,-25,4,1,0,50,0,0
38606,-50,4,1,0,50,0,0
40429,-100,4,1,0,50,0,0
40569,-50,4,1,0,50,0,0
40709,-25,4,1,0,50,0,0
42251,-50,4,1,0,50,0,0
43232,-33.3333333333333,4,1,0,50,0,0
44214,-25,4,1,0,50,0,0
45195,-33.3333333333333,4,1,0,50,0,0
45475,-66.6666666666667,4,1,0,50,0,0
45756,-25,4,1,0,50,0,0
47718,-50,4,1,0,50,0,0
47999,-100,4,1,0,50,0,0
49401,-25,4,1,0,50,0,0
51223,-33.3333333333333,4,1,0,50,0,0
51644,-66.6666666666667,4,1,0,50,0,0
51924,-33.3333333333333,4,1,0,50,0,0
53326,-25,4,1,0,50,0,0
54307,-50,4,1,0,50,0,0
54588,-33.3333333333333,4,1,0,50,0,0
54728,-25,4,1,0,50,0,0
55849,-66.6666666666667,4,1,0,50,0,0
56130,-33.3333333333333,4,1,0,50,0,0
57111,-25,4,1,0,50,0,0
57391,-66.6666666666667,4,1,0,50,0,0
57672,-33.3333333333333,4,1,0,50,0,0
60335,-25,4,1,0,50,0,0
60616,-66.6666666666667,4,1,0,50,0,0
60896,-25,4,1,0,50,0,0
61176,-50,4,1,0,50,0,0
61457,-25,4,1,0,50,0,0
62578,-100,4,1,0,50,0,0

[Colours]
Combo1 : 255,0,255
Combo2 : 150,45,255
Combo3 : 255,0,255
Combo4 : 150,45,255

[HitObjects]
256,192,4260,12,0,6363,0:0:0:0:
0,192,6503,6,0,L|176:192,2,156.25
156,192,6924,5,0,0:0:0:0:
468,192,7064,6,0,L|148:192,1,312.5
288,192,7485,2,0,L|368:192,1,78.125
128,192,7625,2,0,L|320:192,1,156.25
208,192,7905,6,0,L|51:192,1,156.25
512,192,8186,1,0,0:0:0:0:
0,192,8326,5,0,0:0:0:0:
432,192,8466,1,0,0:0:0:0:
80,192,8606,5,0,0:0:0:0:
512,96,8746,5,8,0:0:0:0:
80,96,8887,1,0,0:0:0:0:
0,96,9027,5,0,0:0:0:0:
432,96,9168,5,0,0:0:0:0:
160,96,9307,1,0,0:0:0:0:
0,96,9447,1,0,0:0:0:0:
336,96,9588,6,0,L|86:96,1,250
144,96,9868,2,10,L|272:96,1,125
208,96,10078,5,0,0:0:0:0:
83,96,10148,5,0,0:0:0:0:
304,96,10289,1,0,0:0:0:0:
512,96,10429,1,0,0:0:0:0:
32,96,10569,5,0,0:0:0:0:
125,96,10709,2,2,L|0:96,1,125
432,96,10989,1,8,0:0:0:0:
288,96,11130,5,0,0:0:0:0:
512,96,11270,5,0,0:0:0:0:
352,96,11410,5,0,0:0:0:0:
192,96,11550,1,0,0:0:0:0:
352,96,11690,1,0,0:0:0:0:
192,96,11830,5,2,0:0:0:0:
32,96,11970,1,0,0:0:0:0:
299,96,12111,6,8,L|112:96,1,187.500007152558
384,96,12391,1,0,0:0:0:0:
512,96,12532,1,0,0:0:0:0:
272,96,12672,2,0,L|464:96,1,187.500007152558
0,96,12952,1,2,0:0:0:0:
432,96,13092,5,0,0:0:0:0:
512,288,13232,5,8,0:0:0:0:
256,288,13373,5,0,0:0:0:0:
384,288,13513,1,0,0:0:0:0:
256,288,13653,5,0,0:0:0:0:
96,288,13793,2,0,L|288:288,1,187.500007152558
0,288,14074,2,0,L|128:288,2,125
416,288,14354,1,8,0:0:0:0:
160,288,14494,6,0,L|35:288,1,125
464,288,14775,1,0,0:0:0:0:
160,288,14915,1,0,0:0:0:0:
464,288,15055,5,0,0:0:0:0:
96,288,15195,5,0,0:0:0:0:
336,288,15335,1,0,0:0:0:0:
512,288,15475,1,8,0:0:0:0:
256,288,15616,5,0,0:0:0:0:
432,288,15756,1,0,0:0:0:0:
16,288,15896,5,0,0:0:0:0:
368,288,16036,2,0,L|224:288,1,125
160,288,16317,6,0,L|224:288,1,46.8750017881394
112,288,16597,2,10,L|320:288,1,187.500007152558
432,288,16877,1,0,0:0:0:0:
0,288,17018,1,0,0:0:0:0:
128,288,17158,5,0,0:0:0:0:
512,288,17298,1,0,0:0:0:0:
384,288,17438,5,0,0:0:0:0:
256,288,17578,1,0,0:0:0:0:
512,192,17718,5,10,0:0:0:0:
96,192,17859,6,0,L|283:192,1,187.500007152558
240,192,18139,1,0,0:0:0:0:
368,192,18279,2,0,L|144:192,1,187.500007152558
96,192,18560,1,0,0:0:0:0:
240,192,18700,5,0,0:0:0:0:
384,192,18840,1,10,0:0:0:0:
0,192,18980,1,0,0:0:0:0:
512,192,19120,5,0,0:0:0:0:
64,192,19260,5,0,0:0:0:0:
208,192,19400,5,0,0:0:0:0:
512,192,19540,1,0,0:0:0:0:
0,192,19680,5,0,0:0:0:0:
256,192,19821,1,0,0:0:0:0:
0,192,19961,6,10,L|144:192,1,93.7500035762788
368,192,20242,6,0,L|96:192,1,250
224,192,20522,1,0,0:0:0:0:
144,192,20662,5,0,0:0:0:0:
464,192,20803,1,0,0:0:0:0:
416,192,20943,1,0,0:0:0:0:
48,192,21083,5,8,0:0:0:0:
96,192,21223,5,0,0:0:0:0:
512,192,21363,1,0,0:0:0:0:
384,192,21433,5,0,0:0:0:0:
288,192,21503,1,0,0:0:0:0:
336,192,21644,2,0,L|461:192,1,125
400,192,21924,1,0,0:0:0:0:
112,192,22064,5,0,0:0:0:0:
256,96,22204,5,8,0:0:0:0:
512,96,22345,1,0,0:0:0:0:
0,96,22485,5,0,0:0:0:0:
432,192,22625,1,0,0:0:0:0:
0,192,22766,5,0,0:0:0:0:
512,192,22906,5,0,0:0:0:0:
160,96,23046,5,0,0:0:0:0:
160,192,23186,5,0,0:0:0:0:
352,192,23326,1,8,0:0:0:0:
352,96,23466,5,0,0:0:0:0:
96,192,23606,2,0,L|352:192,1,250
256,192,23887,2,0,L|6:192,1,250
118,96,24167,6,0,L|368:96,1,250
176,96,24447,2,8,L|256:96,1,62.5
80,96,24728,1,0,0:0:0:0:
224,96,24868,5,0,0:0:0:0:
368,96,25008,1,0,0:0:0:0:
288,192,25148,1,0,0:0:0:0:
144,192,25288,1,0,0:0:0:0:
0,192,25428,5,0,0:0:0:0:
512,192,25569,5,8,0:0:0:0:
176,192,25709,1,0,0:0:0:0:
432,192,25849,1,0,0:0:0:0:
96,192,25989,5,0,0:0:0:0:
512,96,26130,1,0,0:0:0:0:
0,192,26270,5,0,0:0:0:0:
448,192,26410,5,0,0:0:0:0:
64,96,26550,1,0,0:0:0:0:
480,288,26690,5,8,0:0:0:0:
112,288,26831,2,0,L|320:288,1,187.500007152558
496,288,27111,1,0,0:0:0:0:
112,288,27251,2,0,L|384:288,1,250
0,96,27532,1,0,0:0:0:0:
176,96,27672,5,0,0:0:0:0:
352,96,27812,5,8,0:0:0:0:
512,96,27952,1,0,0:0:0:0:
496,96,28092,1,0,0:0:0:0:
16,96,28232,1,0,0:0:0:0:
32,96,28303,5,0,0:0:0:0:
128,96,28373,1,8,0:0:0:0:
128,288,28513,1,0,0:0:0:0:
512,288,28653,1,0,0:0:0:0:
384,288,28793,5,0,0:0:0:0:
240,96,28933,5,0,0:0:0:0:
384,96,29074,2,0,L|112:96,2,250
160,96,29494,2,8,L|256:96,1,93.7500035762788
208,96,29775,2,0,L|0:96,1,187.500007152558
4,288,30055,6,0,L|192:288,1,187.500007152558
448,288,30335,1,0,0:0:0:0:
96,288,30475,1,0,0:0:0:0:
320,288,30616,1,8,0:0:0:0:
192,288,30756,5,0,0:0:0:0:
512,96,30896,1,0,0:0:0:0:
80,96,31036,5,0,0:0:0:0:
256,192,31176,5,0,0:0:0:0:
432,288,31317,5,0,0:0:0:0:
400,288,31457,5,0,0:0:0:0:
224,192,31598,1,0,0:0:0:0:
512,192,31737,1,8,0:0:0:0:
176,288,31878,5,0,0:0:0:0:
48,288,32018,5,0,0:0:0:0:
464,288,32158,5,0,0:0:0:0:
320,288,32298,5,0,0:0:0:0:
176,288,32438,1,0,0:0:0:0:
32,288,32578,1,0,0:0:0:0:
512,288,32718,1,0,0:0:0:0:
80,288,32858,5,8,0:0:0:0:
224,288,32998,1,0,0:0:0:0:
368,288,33138,5,0,0:0:0:0:
368,192,33279,2,0,L|160:192,1,187.500007152558
224,192,33560,2,0,L|320:192,1,93.7500035762788
272,192,33840,2,0,L|0:192,1,250
112,192,34120,1,0,0:0:0:0:
384,192,34260,5,0,0:0:0:0:
0,192,34401,1,0,0:0:0:0:
272,192,34541,5,0,0:0:0:0:
272,288,34681,1,0,0:0:0:0:
368,288,34821,5,0,0:0:0:0:
368,192,34961,1,0,0:0:0:0:
0,192,35102,1,8,0:0:0:0:
512,288,35242,5,0,0:0:0:0:
512,192,35382,1,0,0:0:0:0:
368,192,35522,5,0,0:0:0:0:
32,96,35662,2,0,L|320:96,1,250
160,96,35943,2,0,L|448:96,1,250
288,96,36223,2,8,L|112:96,1,125
384,96,36433,1,0,0:0:0:0:
464,96,36503,5,0,0:0:0:0:
256,96,36644,5,0,0:0:0:0:
96,96,36784,1,0,0:0:0:0:
512,96,36924,5,0,0:0:0:0:
80,96,37064,1,0,0:0:0:0:
224,96,37204,1,0,0:0:0:0:
368,96,37345,5,8,0:0:0:0:
224,96,37485,5,0,0:0:0:0:
128,96,37625,2,0,L|368:96,1,187.500007152558
315,96,37905,1,0,0:0:0:0:
224,96,38046,2,0,L|64:96,1,93.7500035762788
16,96,38326,1,0,0:0:0:0:
224,96,38466,6,8,L|352:96,1,125
349,96,38606,2,0,L|286:96,1,62.5
144,96,38746,5,0,0:0:0:0:
512,96,38887,1,0,0:0:0:0:
64,96,39027,1,0,0:0:0:0:
512,96,39167,6,0,L|368:96,1,125
64,96,39447,5,0,0:0:0:0:
144,96,39588,5,8,0:0:0:0:
387,96,39728,1,0,0:0:0:0:
48,96,39868,5,0,0:0:0:0:
480,96,40008,5,0,0:0:0:0:
32,192,40148,5,0,0:0:0:0:
496,192,40289,5,0,0:0:0:0:
176,192,40429,2,0,L|128:192,1,31.25
0,192,40569,2,0,L|96:192,1,62.5
187,192,40709,6,8,L|-37:192,1,125
0,192,40849,5,0,0:0:0:0:
512,192,40989,1,0,0:0:0:0:
80,192,41130,1,0,0:0:0:0:
304,192,41270,5,0,0:0:0:0:
224,192,41410,1,0,0:0:0:0:
464,192,41550,5,0,0:0:0:0:
144,192,41690,5,0,0:0:0:0:
480,192,41831,1,8,0:0:0:0:
256,192,41971,2,0,L|0:192,1,250
189,192,42251,2,0,L|64:192,1,125
64,192,42532,1,0,0:0:0:0:
384,192,42672,5,0,0:0:0:0:
512,192,42812,5,0,0:0:0:0:
144,192,42952,1,8,0:0:0:0:
272,192,43092,1,0,0:0:0:0:
176,192,43232,6,0,L|384:192,1,187.500007152558
272,192,43513,2,0,L|64:192,1,187.500007152558
448,192,43793,1,0,0:0:0:0:
368,192,43933,5,0,0:0:0:0:
288,192,44074,1,8,0:0:0:0:
80,192,44214,6,0,L|208:192,1,125
448,192,44354,5,0,0:0:0:0:
32,192,44494,1,0,0:0:0:0:
448,288,44634,5,0,0:0:0:0:
176,288,44775,1,0,0:0:0:0:
272,288,44915,1,0,0:0:0:0:
0,288,45056,5,0,0:0:0:0:
320,288,45195,2,8,L|507:288,1,187.500007152558
416,288,45475,2,0,L|304:288,1,93.7500035762788
0,288,45756,6,0,L|304:288,1,250
0,288,46036,1,0,0:0:0:0:
320,288,46176,1,0,0:0:0:0:
128,288,46317,1,8,0:0:0:0:
448,288,46457,5,0,0:0:0:0:
320,288,46597,1,0,0:0:0:0:
176,288,46737,5,0,0:0:0:0:
96,288,46807,1,0,0:0:0:0:
16,288,46877,5,0,0:0:0:0:
96,288,47018,1,0,0:0:0:0:
512,288,47158,1,0,0:0:0:0:
256,288,47298,2,0,L|6:288,1,250
6,288,47578,5,0,0:0:0:0:
256,288,47718,6,0,L|416:288,1,125
256,288,47999,2,0,L|163:288,1,62.5
381,288,48279,1,0,0:0:0:0:
0,288,48419,1,0,0:0:0:0:
128,288,48560,5,8,0:0:0:0:
256,288,48700,1,0,0:0:0:0:
512,288,48840,1,0,0:0:0:0:
384,288,48980,5,0,0:0:0:0:
48,96,49120,5,0,0:0:0:0:
304,192,49260,1,0,0:0:0:0:
128,192,49401,2,0,L|416:192,1,250
496,288,49681,5,8,0:0:0:0:
144,288,49821,1,0,0:0:0:0:
400,96,49961,1,0,0:0:0:0:
128,192,50102,5,0,0:0:0:0:
432,96,50242,2,0,L|288:96,1,125
384,192,50382,2,0,L|509:192,1,125
48,192,50522,5,0,0:0:0:0:
176,288,50662,5,0,0:0:0:0:
176,96,50803,1,8,0:0:0:0:
512,288,50943,1,0,0:0:0:0:
512,96,51084,5,0,0:0:0:0:
288,192,51223,6,0,L|480:192,1,187.500007152558
0,288,51503,1,0,0:0:0:0:
192,288,51644,2,0,L|288:288,1,93.7500035762788
240,288,51924,2,8,L|32:288,1,187.500007152558
160,96,52204,5,0,0:0:0:0:
304,96,52345,1,0,0:0:0:0:
448,96,52485,5,0,0:0:0:0:
400,96,52555,1,0,0:0:0:0:
304,96,52625,5,0,0:0:0:0:
368,192,52765,5,0,0:0:0:0:
128,192,52905,1,0,0:0:0:0:
240,192,53046,5,8,0:0:0:0:
0,192,53186,5,0,0:0:0:0:
288,192,53326,2,0,L|16:192,1,250
160,192,53606,5,0,0:0:0:0:
464,288,53746,1,0,0:0:0:0:
80,288,53887,1,0,0:0:0:0:
80,192,54027,5,0,0:0:0:0:
272,96,54167,1,8,0:0:0:0:
64,96,54307,2,0,L|192:96,1,125
448,192,54588,2,0,L|352:192,1,93.7500035762788
16,192,54728,2,0,L|272:192,1,250
480,192,55008,5,0,0:0:0:0:
480,288,55148,5,0,0:0:0:0:
48,288,55289,1,8,0:0:0:0:
304,192,55429,1,0,0:0:0:0:
512,96,55569,2,0,L|256:96,1,250
176,96,55849,2,0,L|224:96,1,46.8750017881394
112,96,55989,6,0,L|176:96,1,46.8750017881394
320,96,56130,2,0,L|224:96,1,93.7500035762788
336,288,56270,1,0,0:0:0:0:
80,96,56410,1,8,0:0:0:0:
464,192,56550,5,0,0:0:0:0:
16,288,56690,1,0,0:0:0:0:
16,192,56831,5,0,0:0:0:0:
464,192,56971,1,0,0:0:0:0:
128,288,57111,2,0,L|378:288,1,250
272,288,57391,2,0,L|144:288,1,93.7500035762788
128,288,57672,2,0,L|352:288,1,187.500007152558
315,288,57952,1,0,0:0:0:0:
384,96,58092,5,0,0:0:0:0:
240,96,58232,1,0,0:0:0:0:
192,288,58373,5,0,0:0:0:0:
48,288,58513,5,0,0:0:0:0:
144,96,58653,5,8,0:0:0:0:
0,96,58793,1,0,0:0:0:0:
192,288,58934,1,0,0:0:0:0:
336,288,59074,5,0,0:0:0:0:
64,192,59214,1,0,0:0:0:0:
176,192,59284,5,0,0:0:0:0:
256,192,59354,1,0,0:0:0:0:
384,192,59494,1,0,0:0:0:0:
256,96,59634,5,0,0:0:0:0:
128,192,59775,5,8,0:0:0:0:
256,288,59915,1,0,0:0:0:0:
0,96,60055,1,0,0:0:0:0:
512,288,60195,5,0,0:0:0:0:
96,96,60335,6,0,L|384:96,1,250
272,192,60616,6,0,L|160:192,1,93.7500035762788
367,192,60826,1,0,0:0:0:0:
96,192,60896,2,8,L|368:192,1,250
16,192,61106,1,0,0:0:0:0:
304,192,61176,6,0,L|118:192,1,125
64,288,61457,2,0,B|16:288|16:288|192:288,1,125
208,288,61597,6,0,B|131:288|131:288|179:288,1,125
48,288,61737,5,0,0:0:0:0:
48,288,61807,1,0,0:0:0:0:
240,288,61877,6,0,L|112:288,1,125
368,96,62018,2,0,L|493:96,1,125
301,96,62158,5,0,0:0:0:0:
301,96,62228,1,0,0:0:0:0:
432,96,62298,6,0,B|384:96|384:96|461:96,1,125
346,96,62438,6,0,B|269:96|269:96|317:96,1,125
