osu file format v14

[General]
AudioFilename: Carpenter Brut - Anarchy Road.mp3
AudioLeadIn: 0
PreviewTime: 152285
Countdown: 0
SampleSet: Normal
StackLeniency: 0.7
Mode: 0
LetterboxInBreaks: 1
WidescreenStoryboard: 1

[Editor]
Bookmarks: 85555
DistanceSpacing: 2
BeatDivisor: 4
GridSize: 32
TimelineZoom: 2.5

[Metadata]
Title:Anarchy Road
TitleUnicode:Anarchy Road
Artist:Carpenter Brut
ArtistUnicode:Carpenter Brut
Creator:Voyen
Version:2070
Source:
Tags:
BeatmapID:762207
BeatmapSetID:345086

[Difficulty]
HPDrainRate:5
CircleSize:4
OverallDifficulty:9.5
ApproachRate:9.8
SliderMultiplier:1.7
SliderTickRate:2

[Events]
//Background and Video events
0,0,"background.jpg",0,0
//Break Periods
2,107904,116197
//Storyboard Layer 0 (Background)
//Storyboard Layer 1 (Fail)
//Storyboard Layer 2 (Pass)
//Storyboard Layer 3 (Foreground)
//Storyboard Sound Samples

[TimingPoints]
17985,280.373831775701,4,1,0,100,1,0
17985,-200,4,2,0,100,0,0
35368,-133.333333333333,4,1,0,100,0,0
35928,-66.6666666666667,4,1,0,100,0,0
40695,-100,4,1,0,100,0,0
44900,-66.6666666666667,4,1,0,100,0,0
49667,-100,4,1,0,100,0,0
53872,-200,4,2,0,100,0,0
69573,-133.333333333333,4,2,0,100,0,0
70695,-133.333333333333,4,1,0,100,0,0
71816,-66.6666666666667,4,1,0,100,0,1
76583,-100,4,1,0,100,0,1
80788,-66.6666666666667,4,1,0,100,0,1
85555,-100,4,1,0,100,0,1
89760,-66.6666666666667,4,1,0,100,0,1
94527,-100,4,1,0,100,0,1
98732,-66.6666666666667,4,1,0,100,0,1
103499,-100,4,1,0,100,0,1
107704,-100,4,1,0,100,0,0
116676,1121.4953271028,4,1,0,100,1,0
116676,-200,4,2,0,100,0,0
152003,280.373831775701,4,1,0,100,1,0
152563,-50,4,1,0,100,0,1
157330,-100,4,1,0,100,0,1
161535,-50,4,1,0,100,0,1
166302,-100,4,1,0,100,0,1
170507,-50,4,1,0,100,0,1
175274,-100,4,1,0,100,0,1
179479,-50,4,1,0,100,0,1
184245,-100,4,1,0,100,0,1
188451,-50,4,1,0,100,0,1
206395,-50,4,1,0,100,0,0

[HitObjects]
122,183,17985,5,0,0:0:0:0:
122,183,18545,2,0,B|151:192|175:187|175:187|215:204|215:204|248:199|292:216,1,170
295,74,19386,1,0,0:0:0:0:
180,302,19667,2,0,P|120:284|70:223,1,127.500004863739
71,208,20227,6,0,L|159:185,1,85
154,2,20788,2,0,L|101:148,1,127.500004863739
122,155,21349,2,0,L|210:132,1,85
324,177,21910,2,0,L|355:260,1,85
227,329,22470,6,0,P|181:331|135:302,1,85
54,217,23031,2,0,B|67:191|67:191|113:202|166:180,1,127.5
193,170,23592,2,0,P|225:142|242:93,1,85
111,7,24153,2,0,P|136:40|144:81,1,85
12,258,24713,2,0,L|58:180,1,85
126,240,25274,2,0,B|135:263|160:269|160:269|251:286,1,127.5
269,268,25835,2,0,P|302:221|307:190,1,85
128,94,26396,2,0,L|208:139,1,85
362,337,26956,6,0,L|287:295,1,85
176,254,27517,2,0,P|259:248|298:209,1,127.5
284,188,28078,2,0,L|334:111,1,85
465,61,28639,2,0,L|418:132,1,85
439,257,29199,5,0,0:0:0:0:
321,197,29480,1,0,0:0:0:0:
439,257,29760,2,0,L|331:331,1,127.5
311,351,30321,2,0,L|241:303,1,85
78,309,30882,2,0,L|148:261,1,85
168,148,31442,6,0,P|198:119|203:60,1,85
29,106,32003,2,0,L|98:163,1,85
128,299,32564,1,0,0:0:0:0:
196,198,32844,1,0,0:0:0:0:
128,299,33125,2,0,B|151:321|151:321|256:353,1,127.5
260,322,33685,6,0,L|289:289,1,42.5
385,287,33966,2,0,L|414:254,1,42.5
400,159,34246,2,0,B|377:137|377:137|272:105,1,127.5
268,136,34807,2,0,L|239:169,1,42.5
143,171,35087,2,0,L|114:204,1,42.5
279,274,35368,6,0,B|252:245|197:230|197:230|171:181|193:104,1,223.125008511544
193,104,35928,6,0,P|263:138|334:142,1,127.500004863739
433,80,36209,1,0,0:0:0:0:
300,258,36349,1,0,0:0:0:0:
405,254,36489,1,0,0:0:0:0:
205,150,36629,1,0,0:0:0:0:
205,276,36770,1,0,0:0:0:0:
401,99,36910,1,0,0:0:0:0:
282,53,37050,5,0,0:0:0:0:
125,183,37190,1,0,0:0:0:0:
279,213,37330,1,0,0:0:0:0:
170,77,37470,1,0,0:0:0:0:
168,270,37611,1,0,0:0:0:0:
244,69,37751,1,0,0:0:0:0:
115,150,37891,1,0,0:0:0:0:
296,215,38031,1,0,0:0:0:0:
346,53,38171,6,0,L|459:135,1,127.500004863739
430,272,38452,1,0,0:0:0:0:
252,158,38592,1,0,0:0:0:0:
134,291,38732,1,0,0:0:0:0:
304,292,38872,1,0,0:0:0:0:
132,197,39013,1,0,0:0:0:0:
229,65,39153,1,0,0:0:0:0:
285,194,39293,5,0,0:0:0:0:
79,105,39433,1,0,0:0:0:0:
121,236,39573,1,0,0:0:0:0:
254,101,39713,1,0,0:0:0:0:
395,259,39854,1,0,0:0:0:0:
395,123,39994,1,0,0:0:0:0:
165,250,40134,1,0,0:0:0:0:
269,90,40274,1,0,0:0:0:0:
269,90,40344,1,0,0:0:0:0:
269,90,40414,6,0,L|251:229,1,127.500004863739
405,175,40695,1,0,0:0:0:0:
226,144,40835,2,0,P|175:145|120:174,1,85
211,312,41115,1,0,0:0:0:0:
381,301,41256,2,0,L|452:244,1,85
286,112,41536,6,0,L|352:165,1,85
238,228,41816,1,0,0:0:0:0:
121,190,41956,1,0,0:0:0:0:
238,122,42097,2,0,P|259:84|261:38,1,85
322,172,42377,2,0,P|354:143|372:100,1,85
391,273,42657,6,0,L|272:308,2,85
425,157,43078,1,0,0:0:0:0:
230,172,43218,2,0,B|191:165|166:202|121:190,1,85
224,303,43499,2,0,P|276:311|327:308,1,85
401,193,43779,5,0,0:0:0:0:
324,96,43919,1,0,0:0:0:0:
197,133,44059,2,0,L|147:216,1,85
429,146,44340,1,0,0:0:0:0:
313,100,44480,1,0,0:0:0:0:
222,196,44620,2,0,L|220:292,1,85
368,245,44900,6,0,P|414:206|441:142,1,127.500004863739
287,107,45181,1,0,0:0:0:0:
139,277,45321,1,0,0:0:0:0:
292,246,45461,1,0,0:0:0:0:
173,148,45601,1,0,0:0:0:0:
283,338,45742,1,0,0:0:0:0:
390,193,45882,1,0,0:0:0:0:
234,171,46022,5,0,0:0:0:0:
305,282,46162,1,0,0:0:0:0:
366,72,46302,1,0,0:0:0:0:
286,134,46442,1,0,0:0:0:0:
418,197,46583,1,0,0:0:0:0:
326,2,46723,1,0,0:0:0:0:
271,191,46863,1,0,0:0:0:0:
271,191,47003,1,0,0:0:0:0:
271,191,47143,6,0,L|131:246,1,127.500004863739
45,152,47424,1,0,0:0:0:0:
165,53,47564,1,0,0:0:0:0:
193,205,47704,1,0,0:0:0:0:
68,267,47844,1,0,0:0:0:0:
80,151,47985,1,0,0:0:0:0:
155,302,48125,1,0,0:0:0:0:
168,66,48265,5,0,0:0:0:0:
245,146,48405,1,0,0:0:0:0:
104,153,48545,1,0,0:0:0:0:
215,5,48685,1,0,0:0:0:0:
287,161,48826,1,0,0:0:0:0:
175,111,48966,1,0,0:0:0:0:
297,286,49106,1,0,0:0:0:0:
333,115,49246,1,0,0:0:0:0:
333,115,49316,1,0,0:0:0:0:
333,115,49386,6,0,B|351:162|385:168|385:168|421:180|424:219,1,127.500004863739
330,290,49667,2,0,L|233:313,1,85
135,224,49947,1,0,0:0:0:0:
288,156,50087,2,0,L|301:72,2,85
118,102,50508,6,0,L|103:202,1,85
352,284,50788,2,0,P|297:289|248:284,1,85
144,224,51069,1,0,0:0:0:0:
300,211,51209,1,0,0:0:0:0:
333,59,51349,2,0,P|365:102|378:164,1,85
442,294,51629,6,0,L|337:303,1,85
224,258,51910,1,0,0:0:0:0:
389,213,52050,1,0,0:0:0:0:
370,112,52190,2,0,L|283:172,1,85
163,189,52470,1,0,0:0:0:0:
283,68,52611,1,0,0:0:0:0:
336,298,52751,6,0,B|303:288|289:262|289:262|287:223,1,85
283,68,53031,1,0,0:0:0:0:
138,130,53171,2,0,L|111:231,1,85
235,201,53452,1,0,0:0:0:0:
391,286,53592,2,0,L|369:203,1,85
391,122,53802,1,0,0:0:0:0:
391,122,53872,6,0,B|357:74|288:61|288:61|197:138|65:141,1,340
42,273,55274,1,0,0:0:0:0:
42,273,55555,2,0,L|111:195,1,85
274,171,56115,2,0,L|183:274,1,127.5
196,298,56676,2,0,P|231:330|241:370,1,85
351,224,57237,2,0,L|259:243,1,85
171,105,57798,1,0,0:0:0:0:
140,134,58078,1,0,0:0:0:0:
109,163,58358,6,0,B|109:197|109:197|47:276,1,127.5
70,295,58919,2,0,L|159:322,1,85
314,262,59480,2,0,L|232:237,1,85
150,117,60041,1,0,0:0:0:0:
150,117,60321,6,0,P|234:129|322:114,1,170
212,98,61162,2,0,L|179:192,1,85
224,298,61723,2,0,P|245:312|277:320,1,42.5
316,245,62003,2,0,P|340:250|373:247,1,42.5
384,163,62284,2,0,P|409:160|438:145,1,42.5
419,62,62564,2,0,P|441:50|464:27,1,42.5
343,22,62844,6,0,P|256:65|237:91,1,127.5
250,117,63405,2,0,L|290:202,1,85
218,304,63966,2,0,L|258:389,1,85
361,296,64527,1,0,0:0:0:0:
192,287,64807,6,0,P|138:274|92:201,1,127.5
111,191,65368,2,0,P|86:172|27:173,1,85
0,68,65928,1,0,0:0:0:0:
106,2,66209,2,0,B|145:19|145:19|197:28,1,85
226,128,66770,2,0,B|267:135|267:135|306:152,1,85
340,261,67330,6,0,P|401:221|419:170,1,127.5
433,142,67891,2,0,L|486:225,1,85
425,379,68452,2,0,L|379:307,1,85
241,283,69013,1,0,0:0:0:0:
207,151,69293,2,0,L|243:111,1,42.5
314,77,69573,6,0,B|377:99|405:162|405:162|411:228|361:285,1,255.000009727478
239,199,70414,2,0,P|209:179|155:171,1,63.7500024318696
80,178,70695,1,0,0:0:0:0:
302,51,70975,1,0,0:0:0:0:
354,278,71115,1,0,0:0:0:0:
354,278,71396,1,0,0:0:0:0:
115,219,71536,1,0,0:0:0:0:
452,184,71676,1,0,0:0:0:0:
137,313,71816,6,0,P|90:293|65:214,1,127.500004863739
93,58,72097,1,0,0:0:0:0:
148,228,72237,1,0,0:0:0:0:
208,109,72377,1,0,0:0:0:0:
330,306,72517,1,0,0:0:0:0:
154,202,72657,1,0,0:0:0:0:
305,177,72798,1,0,0:0:0:0:
219,296,72938,5,0,0:0:0:0:
212,156,73078,1,0,0:0:0:0:
359,226,73218,1,0,0:0:0:0:
135,226,73358,1,0,0:0:0:0:
419,164,73499,1,0,0:0:0:0:
356,288,73639,1,0,0:0:0:0:
278,121,73779,1,0,0:0:0:0:
177,231,73919,1,0,0:0:0:0:
370,212,74059,6,0,P|432:186|466:129,1,127.500004863739
358,99,74340,1,0,0:0:0:0:
193,248,74480,1,0,0:0:0:0:
367,261,74620,1,0,0:0:0:0:
208,154,74760,1,0,0:0:0:0:
200,295,74900,1,0,0:0:0:0:
434,137,75041,1,0,0:0:0:0:
415,299,75181,5,0,0:0:0:0:
134,153,75321,1,0,0:0:0:0:
336,151,75461,1,0,0:0:0:0:
212,244,75601,1,0,0:0:0:0:
200,63,75742,1,0,0:0:0:0:
302,107,75882,1,0,0:0:0:0:
383,50,76022,1,0,0:0:0:0:
503,176,76162,1,0,0:0:0:0:
503,176,76232,1,0,0:0:0:0:
503,176,76302,6,0,L|346:168,1,127.500004863739
238,85,76583,2,0,L|152:122,1,85
105,237,76863,1,0,0:0:0:0:
208,314,77003,1,0,0:0:0:0:
240,206,77143,1,0,0:0:0:0:
351,250,77284,1,0,0:0:0:0:
435,81,77424,6,0,P|403:107|386:147,1,85
297,55,77704,2,0,P|275:90|273:133,1,85
314,280,77985,1,0,0:0:0:0:
121,170,78125,1,0,0:0:0:0:
225,306,78265,2,0,L|216:221,1,85
314,42,78545,6,0,L|323:127,1,85
469,262,78826,2,0,P|433:289|367:310,1,85
217,282,79106,1,0,0:0:0:0:
316,167,79246,1,0,0:0:0:0:
468,184,79386,2,0,P|475:139|508:78,1,85
258,73,79667,6,0,B|236:80|236:80|187:82|187:82|167:88,1,85
100,252,79947,2,0,B|121:244|121:244|170:242|170:242|191:237,1,85
334,273,80227,1,0,0:0:0:0:
334,273,80368,1,0,0:0:0:0:
389,176,80508,1,0,0:0:0:0:
350,70,80648,1,0,0:0:0:0:
245,33,80788,6,0,L|142:160,1,127.500004863739
12,173,81069,1,0,0:0:0:0:
159,271,81209,1,0,0:0:0:0:
94,116,81349,1,0,0:0:0:0:
159,271,81489,1,0,0:0:0:0:
223,127,81629,1,0,0:0:0:0:
60,160,81770,1,0,0:0:0:0:
253,267,81910,5,0,0:0:0:0:
256,139,82050,1,0,0:0:0:0:
142,191,82190,1,0,0:0:0:0:
357,93,82330,1,0,0:0:0:0:
323,245,82470,1,0,0:0:0:0:
150,168,82611,1,0,0:0:0:0:
413,160,82751,1,0,0:0:0:0:
294,290,82891,1,0,0:0:0:0:
281,63,83031,6,0,P|208:56|152:78,1,127.500004863739
232,200,83312,1,0,0:0:0:0:
426,151,83452,1,0,0:0:0:0:
283,106,83592,1,0,0:0:0:0:
386,293,83732,1,0,0:0:0:0:
155,239,83872,1,0,0:0:0:0:
244,324,84013,1,0,0:0:0:0:
274,105,84153,5,0,0:0:0:0:
322,211,84293,1,0,0:0:0:0:
83,178,84433,1,0,0:0:0:0:
252,294,84573,1,0,0:0:0:0:
193,190,84713,1,0,0:0:0:0:
110,288,84854,1,0,0:0:0:0:
371,189,84994,1,0,0:0:0:0:
293,299,85134,1,0,0:0:0:0:
119,70,85274,6,0,L|144:231,1,127.500004863739
267,51,85555,2,0,L|253:134,1,85
212,274,85835,1,0,0:0:0:0:
358,238,85975,1,0,0:0:0:0:
212,274,86115,2,0,L|128:250,1,85
220,99,86396,6,0,P|263:81|319:86,1,85
397,179,86676,2,0,P|358:196|316:196,1,85
117,163,86956,1,0,0:0:0:0:
183,265,87097,1,0,0:0:0:0:
74,257,87237,1,0,0:0:0:0:
271,206,87377,1,0,0:0:0:0:
359,72,87517,6,0,L|430:155,1,85
400,292,87798,2,0,P|361:309|319:309,1,85
316,168,88078,2,0,P|273:170|233:157,1,85
290,44,88358,1,0,0:0:0:0:
126,202,88499,1,0,0:0:0:0:
270,252,88639,5,0,0:0:0:0:
373,319,88779,1,0,0:0:0:0:
391,200,88919,2,0,P|428:176|449:121,1,85
332,82,89199,1,0,0:0:0:0:
207,116,89340,2,0,P|170:140|149:195,1,85
266,234,89620,1,0,0:0:0:0:
151,175,89760,6,0,L|107:310,1,127.500004863739
268,292,90041,1,0,0:0:0:0:
93,222,90181,1,0,0:0:0:0:
313,152,90321,1,0,0:0:0:0:
124,146,90461,1,0,0:0:0:0:
294,254,90601,1,0,0:0:0:0:
182,75,90742,1,0,0:0:0:0:
294,322,90882,5,0,0:0:0:0:
395,191,91022,1,0,0:0:0:0:
154,277,91162,1,0,0:0:0:0:
313,287,91302,1,0,0:0:0:0:
230,206,91442,1,0,0:0:0:0:
224,325,91583,1,0,0:0:0:0:
292,147,91723,1,0,0:0:0:0:
367,262,91863,1,0,0:0:0:0:
163,198,92003,6,0,B|118:189|88:218|25:205,1,127.500004863739
5,68,92284,1,0,0:0:0:0:
170,116,92424,1,0,0:0:0:0:
48,200,92564,1,0,0:0:0:0:
146,293,92704,1,0,0:0:0:0:
144,143,92844,1,0,0:0:0:0:
40,274,92985,1,0,0:0:0:0:
259,218,93125,5,0,0:0:0:0:
424,263,93265,1,0,0:0:0:0:
356,144,93405,1,0,0:0:0:0:
314,285,93545,1,0,0:0:0:0:
449,106,93685,1,0,0:0:0:0:
505,233,93826,1,0,0:0:0:0:
263,162,93966,1,0,0:0:0:0:
366,267,94106,1,0,0:0:0:0:
453,62,94246,6,0,P|399:89|339:164,1,127.500004863739
313,296,94527,2,0,P|269:327|213:336,1,85
69,274,94807,1,0,0:0:0:0:
230,190,94947,1,0,0:0:0:0:
108,166,95087,2,0,P|74:123|62:68,1,85
303,52,95368,6,0,L|214:63,1,85
383,159,95648,2,0,L|467:148,1,85
444,284,95928,1,0,0:0:0:0:
286,199,96069,1,0,0:0:0:0:
277,315,96209,1,0,0:0:0:0:
217,130,96349,1,0,0:0:0:0:
396,85,96489,6,0,B|374:91|364:105|364:105|343:157,1,85
265,323,96770,2,0,B|235:287|235:287|227:271|232:249,1,85
247,108,97050,1,0,0:0:0:0:
142,182,97190,1,0,0:0:0:0:
344,118,97330,1,0,0:0:0:0:
265,253,97470,1,0,0:0:0:0:
213,91,97611,5,0,0:0:0:0:
72,118,97751,2,0,L|116:215,1,85
315,147,98031,1,0,0:0:0:0:
191,220,98171,2,0,L|265:296,1,85
397,140,98452,2,0,P|336:139|291:161,1,85
50,278,98732,6,0,B|58:257|58:257|122:205|122:205|142:159,1,127.500004863739
178,70,99013,1,0,0:0:0:0:
367,96,99153,1,0,0:0:0:0:
231,157,99293,1,0,0:0:0:0:
374,182,99433,1,0,0:0:0:0:
260,47,99573,1,0,0:0:0:0:
325,253,99713,1,0,0:0:0:0:
414,113,99854,5,0,0:0:0:0:
196,114,99994,1,0,0:0:0:0:
329,175,100134,1,0,0:0:0:0:
277,57,100274,1,0,0:0:0:0:
496,111,100414,1,0,0:0:0:0:
397,274,100555,1,0,0:0:0:0:
241,158,100695,1,0,0:0:0:0:
393,88,100835,1,0,0:0:0:0:
327,245,100975,6,0,L|194:304,1,127.500004863739
52,236,101256,1,0,0:0:0:0:
295,334,101396,1,0,0:0:0:0:
201,223,101536,1,0,0:0:0:0:
126,321,101676,1,0,0:0:0:0:
331,202,101816,1,0,0:0:0:0:
126,321,101956,1,0,0:0:0:0:
187,139,102097,5,0,0:0:0:0:
257,302,102237,1,0,0:0:0:0:
324,174,102377,1,0,0:0:0:0:
114,203,102517,1,0,0:0:0:0:
243,262,102657,1,0,0:0:0:0:
422,104,102798,1,0,0:0:0:0:
510,243,102938,1,0,0:0:0:0:
356,263,103078,1,0,0:0:0:0:
422,104,103218,6,0,P|356:82|290:81,1,127.500004863739
106,86,103499,2,0,L|131:181,1,85
267,222,103779,1,0,0:0:0:0:
367,163,103919,1,0,0:0:0:0:
267,222,104059,1,0,0:0:0:0:
295,109,104199,1,0,0:0:0:0:
191,56,104340,6,0,P|146:66|109:89,1,85
193,181,104620,2,0,P|154:205|127:240,1,85
366,300,104900,2,0,L|285:238,1,85
470,165,105181,2,0,L|388:139,1,85
111,92,105461,6,0,B|158:107|158:107|210:109,1,85
323,98,105742,1,0,0:0:0:0:
197,188,105882,1,0,0:0:0:0:
331,243,106022,2,0,B|366:244|366:244|413:259,1,85
464,164,106302,1,0,0:0:0:0:
269,325,106442,1,0,0:0:0:0:
157,232,106583,6,0,P|121:189|114:143,1,85
332,142,106863,2,0,P|368:185|375:231,1,85
252,330,107143,1,0,0:0:0:0:
401,147,107284,1,0,0:0:0:0:
216,157,107424,1,0,0:0:0:0:
407,310,107564,1,0,0:0:0:0:
304,115,107704,5,0,0:0:0:0:
281,306,116676,6,0,B|164:313|105:269|105:269|185:257|238:198,1,318.75
301,230,121161,6,0,P|335:211|208:98,1,318.75
278,145,125647,6,0,B|224:186|224:186|194:221|198:273,1,148.75
295,257,127890,2,0,B|339:239|400:268|446:247,1,148.75
417,179,130133,6,0,B|363:185|294:124|294:124|231:107|231:107|159:110|114:140,1,318.75
85,201,134619,6,0,B|64:236|84:272|84:272|150:212|234:213,1,233.75
283,153,137984,2,0,L|275:86,1,63.75
358,85,139105,6,0,P|387:119|349:304,1,233.75
315,229,142470,2,0,P|301:208|255:180,1,63.75
297,112,143591,6,0,B|220:80|151:135|151:135|112:216,1,233.75
160,273,146956,2,0,L|241:295,1,63.75
255,212,148077,6,0,B|270:165|255:109|255:109|274:144|297:164,1,170
256,192,150601,12,0,152283,0:0:0:0:
188,66,152563,6,0,P|114:120|97:221,1,170
179,318,152844,1,0,0:0:0:0:
411,91,152984,1,0,0:0:0:0:
370,291,153124,1,0,0:0:0:0:
225,110,153264,1,0,0:0:0:0:
424,190,153404,1,0,0:0:0:0:
180,266,153545,1,0,0:0:0:0:
410,324,153685,5,0,0:0:0:0:
317,103,153825,1,0,0:0:0:0:
138,238,153965,1,0,0:0:0:0:
403,236,154105,1,0,0:0:0:0:
182,121,154245,1,0,0:0:0:0:
119,314,154386,1,0,0:0:0:0:
352,305,154526,1,0,0:0:0:0:
204,122,154666,1,0,0:0:0:0:
343,197,154806,6,0,B|381:184|407:185|407:185|437:144|453:82,1,170
282,55,155087,1,0,0:0:0:0:
88,204,155227,1,0,0:0:0:0:
341,156,155367,1,0,0:0:0:0:
147,305,155507,1,0,0:0:0:0:
400,257,155647,1,0,0:0:0:0:
29,103,155788,1,0,0:0:0:0:
194,103,155928,5,0,0:0:0:0:
185,323,156068,1,0,0:0:0:0:
269,94,156208,1,0,0:0:0:0:
335,303,156348,1,0,0:0:0:0:
87,218,156488,1,0,0:0:0:0:
340,102,156629,1,0,0:0:0:0:
209,293,156769,1,0,0:0:0:0:
97,90,156909,1,0,0:0:0:0:
400,268,157049,6,0,L|285:133,1,170
118,45,157330,2,0,L|177:114,1,85
135,235,157610,1,0,0:0:0:0:
265,224,157750,1,0,0:0:0:0:
134,204,157890,2,0,L|48:183,1,85
0,50,158171,6,0,L|82:70,1,85
199,3,158451,1,0,0:0:0:0:
199,3,158591,1,0,0:0:0:0:
282,104,158731,2,0,P|315:133|371:150,1,85
512,136,159012,2,0,P|479:107|423:90,1,85
251,112,159292,6,0,L|293:203,1,85
255,315,159573,1,0,0:0:0:0:
316,197,159713,1,0,0:0:0:0:
444,260,159853,1,0,0:0:0:0:
241,235,159993,1,0,0:0:0:0:
217,87,160133,2,0,L|132:122,1,85
69,197,160344,1,0,0:0:0:0:
69,197,160414,6,0,P|86:240|75:294,1,85
171,378,160694,2,0,P|200:347|212:307,1,85
160,167,160974,1,0,0:0:0:0:
244,213,161115,1,0,0:0:0:0:
70,186,161255,1,0,0:0:0:0:
236,47,161395,1,0,0:0:0:0:
236,47,161465,1,0,0:0:0:0:
236,47,161535,6,0,B|216:80|216:80|193:179|193:179|177:214,1,170
301,311,161816,1,0,0:0:0:0:
400,135,161956,1,0,0:0:0:0:
185,177,162096,1,0,0:0:0:0:
391,273,162236,1,0,0:0:0:0:
247,107,162376,1,0,0:0:0:0:
258,302,162517,1,0,0:0:0:0:
391,159,162657,5,0,0:0:0:0:
121,203,162797,1,0,0:0:0:0:
299,309,162937,1,0,0:0:0:0:
278,119,163077,1,0,0:0:0:0:
392,172,163217,1,0,0:0:0:0:
149,162,163358,1,0,0:0:0:0:
339,28,163498,1,0,0:0:0:0:
238,261,163638,1,0,0:0:0:0:
164,86,163778,6,0,P|92:107|79:198,1,170
214,313,164059,1,0,0:0:0:0:
149,162,164199,1,0,0:0:0:0:
300,97,164339,1,0,0:0:0:0:
149,162,164479,1,0,0:0:0:0:
282,289,164619,1,0,0:0:0:0:
333,157,164760,1,0,0:0:0:0:
157,106,164900,5,0,0:0:0:0:
201,320,165040,1,0,0:0:0:0:
296,147,165180,1,0,0:0:0:0:
106,165,165320,1,0,0:0:0:0:
392,112,165460,1,0,0:0:0:0:
317,304,165601,1,0,0:0:0:0:
152,84,165741,1,0,0:0:0:0:
289,106,165881,1,0,0:0:0:0:
85,315,166021,6,0,L|215:184,1,170
392,112,166302,6,0,L|329:175,1,85
315,293,166582,1,0,0:0:0:0:
302,162,166722,1,0,0:0:0:0:
285,282,166862,1,0,0:0:0:0:
202,117,167003,1,0,0:0:0:0:
87,162,167143,6,0,P|70:207|44:241,1,85
162,329,167423,2,0,P|197:352|237:366,1,85
346,272,167703,1,0,0:0:0:0:
204,232,167844,1,0,0:0:0:0:
402,209,167984,1,0,0:0:0:0:
252,338,168124,1,0,0:0:0:0:
298,174,168264,6,0,L|238:97,1,85
73,99,168545,2,0,L|149:135,1,85
265,18,168825,1,0,0:0:0:0:
331,109,168965,1,0,0:0:0:0:
397,0,169105,1,0,0:0:0:0:
463,91,169245,1,0,0:0:0:0:
371,181,169386,6,0,P|361:237|368:272,1,85
407,383,169666,1,0,0:0:0:0:
279,242,169806,1,0,0:0:0:0:
143,209,169946,2,0,P|173:250|204:273,1,85
299,147,170227,1,0,0:0:0:0:
216,3,170367,1,0,0:0:0:0:
213,178,170507,6,0,B|185:166|147:165|147:165|97:200|27:199,1,170
72,63,170788,1,0,0:0:0:0:
170,304,170928,1,0,0:0:0:0:
256,131,171068,1,0,0:0:0:0:
58,182,171208,1,0,0:0:0:0:
171,62,171348,1,0,0:0:0:0:
172,296,171488,1,0,0:0:0:0:
312,173,171629,5,0,0:0:0:0:
67,169,171769,1,0,0:0:0:0:
227,87,171909,1,0,0:0:0:0:
190,289,172049,1,0,0:0:0:0:
112,179,172189,1,0,0:0:0:0:
350,104,172330,1,0,0:0:0:0:
174,301,172470,1,0,0:0:0:0:
341,329,172610,1,0,0:0:0:0:
341,329,172680,1,0,0:0:0:0:
341,329,172750,6,0,L|452:196,1,170
411,73,173031,1,0,0:0:0:0:
200,86,173171,1,0,0:0:0:0:
279,272,173311,1,0,0:0:0:0:
300,75,173451,1,0,0:0:0:0:
84,214,173591,1,0,0:0:0:0:
379,228,173731,1,0,0:0:0:0:
127,95,173872,5,0,0:0:0:0:
238,296,174012,1,0,0:0:0:0:
375,123,174152,1,0,0:0:0:0:
90,222,174292,1,0,0:0:0:0:
396,283,174432,1,0,0:0:0:0:
348,111,174573,1,0,0:0:0:0:
215,327,174713,1,0,0:0:0:0:
402,218,174853,1,0,0:0:0:0:
300,83,174993,6,0,P|216:65|107:77,1,170
0,195,175274,2,0,P|42:197|84:191,1,85
213,117,175554,1,0,0:0:0:0:
213,117,175694,1,0,0:0:0:0:
293,210,175834,1,0,0:0:0:0:
220,307,175974,1,0,0:0:0:0:
213,117,176115,6,0,L|299:88,1,85
418,177,176395,1,0,0:0:0:0:
423,41,176535,1,0,0:0:0:0:
304,225,176675,2,0,P|259:226|215:213,1,85
111,142,176956,1,0,0:0:0:0:
281,339,177096,1,0,0:0:0:0:
383,217,177236,6,0,L|343:127,1,85
204,55,177517,1,0,0:0:0:0:
249,229,177657,1,0,0:0:0:0:
116,152,177797,1,0,0:0:0:0:
304,134,177937,1,0,0:0:0:0:
161,225,178077,2,0,P|135:272|139:310,1,85
229,356,178288,1,0,0:0:0:0:
229,356,178358,6,0,L|286:283,1,85
458,180,178638,2,0,L|405:246,1,85
412,383,178918,1,0,0:0:0:0:
376,237,179059,1,0,0:0:0:0:
285,361,179199,1,0,0:0:0:0:
183,261,179339,1,0,0:0:0:0:
183,261,179409,1,0,0:0:0:0:
183,261,179479,6,0,L|273:112,1,170
423,65,179760,1,0,0:0:0:0:
130,122,179900,1,0,0:0:0:0:
367,205,180040,1,0,0:0:0:0:
83,260,180180,1,0,0:0:0:0:
160,120,180320,1,0,0:0:0:0:
241,317,180460,1,0,0:0:0:0:
310,46,180601,5,0,0:0:0:0:
169,212,180741,1,0,0:0:0:0:
371,216,180881,1,0,0:0:0:0:
68,209,181021,1,0,0:0:0:0:
196,113,181161,1,0,0:0:0:0:
260,325,181302,1,0,0:0:0:0:
383,161,181442,1,0,0:0:0:0:
124,210,181582,1,0,0:0:0:0:
425,324,181722,6,0,L|300:197,1,170
110,141,182003,1,0,0:0:0:0:
360,93,182143,1,0,0:0:0:0:
189,293,182283,1,0,0:0:0:0:
457,284,182423,1,0,0:0:0:0:
266,107,182563,1,0,0:0:0:0:
318,323,182703,1,0,0:0:0:0:
416,72,182844,5,0,0:0:0:0:
167,145,182984,1,0,0:0:0:0:
408,186,183124,1,0,0:0:0:0:
170,3,183264,1,0,0:0:0:0:
125,136,183404,1,0,0:0:0:0:
343,3,183545,1,0,0:0:0:0:
403,136,183685,1,0,0:0:0:0:
155,80,183825,1,0,0:0:0:0:
269,199,183965,6,0,B|311:217|311:217|351:281|351:281|405:308,1,170
482,227,184245,1,0,0:0:0:0:
267,289,184386,1,0,0:0:0:0:
170,201,184526,1,0,0:0:0:0:
138,323,184666,1,0,0:0:0:0:
109,107,184806,2,0,L|138:199,1,85
71,372,185087,6,0,L|45:290,1,85
4,160,185367,1,0,0:0:0:0:
63,53,185507,1,0,0:0:0:0:
177,240,185647,1,0,0:0:0:0:
62,265,185788,1,0,0:0:0:0:
164,125,185928,2,0,P|216:117|265:118,1,85
437,127,186208,5,0,0:0:0:0:
346,256,186348,1,0,0:0:0:0:
191,279,186488,2,0,L|86:253,1,85
324,65,186769,1,0,0:0:0:0:
337,222,186909,1,0,0:0:0:0:
233,339,187049,2,0,L|135:386,1,85
0,269,187330,6,0,L|76:231,1,85
188,77,187610,1,0,0:0:0:0:
159,260,187750,1,0,0:0:0:0:
32,165,187890,6,0,L|114:184,1,85
299,138,188171,1,0,0:0:0:0:
159,260,188311,1,0,0:0:0:0:
439,257,188451,6,0,L|272:297,1,170
117,330,188731,1,0,0:0:0:0:
99,126,188872,1,0,0:0:0:0:
298,189,189012,1,0,0:0:0:0:
79,265,189152,1,0,0:0:0:0:
199,71,189292,1,0,0:0:0:0:
236,299,189432,1,0,0:0:0:0:
423,50,189573,5,0,0:0:0:0:
439,169,189713,1,0,0:0:0:0:
265,1,189853,1,0,0:0:0:0:
124,138,189993,1,0,0:0:0:0:
302,163,190133,1,0,0:0:0:0:
72,2,190274,1,0,0:0:0:0:
118,190,190414,1,0,0:0:0:0:
257,51,190554,1,0,0:0:0:0:
400,136,190694,6,0,P|451:203|459:293,1,170
301,263,190974,1,0,0:0:0:0:
130,125,191115,1,0,0:0:0:0:
110,268,191255,1,0,0:0:0:0:
380,91,191395,1,0,0:0:0:0:
202,106,191535,1,0,0:0:0:0:
487,200,191675,1,0,0:0:0:0:
245,311,191816,5,0,0:0:0:0:
344,63,191956,1,0,0:0:0:0:
415,238,192096,1,0,0:0:0:0:
117,170,192236,1,0,0:0:0:0:
241,300,192376,1,0,0:0:0:0:
248,91,192517,1,0,0:0:0:0:
470,158,192657,1,0,0:0:0:0:
349,334,192797,1,0,0:0:0:0:
349,334,192867,1,0,0:0:0:0:
349,334,192937,6,0,L|375:138,1,170
285,110,193217,1,0,0:0:0:0:
285,110,193358,1,0,0:0:0:0:
261,261,193498,1,0,0:0:0:0:
261,261,193639,1,0,0:0:0:0:
141,164,193778,1,0,0:0:0:0:
141,164,193919,1,0,0:0:0:0:
202,53,194059,6,0,L|72:186,1,170
143,322,194339,1,0,0:0:0:0:
143,322,194479,1,0,0:0:0:0:
230,208,194619,1,0,0:0:0:0:
230,208,194760,1,0,0:0:0:0:
317,322,194900,1,0,0:0:0:0:
317,322,195040,1,0,0:0:0:0:
127,277,195180,6,0,B|82:247|72:196|72:196|81:113,1,170
177,39,195460,1,0,0:0:0:0:
281,329,195601,1,0,0:0:0:0:
239,186,195741,1,0,0:0:0:0:
239,186,195881,1,0,0:0:0:0:
394,204,196021,1,0,0:0:0:0:
394,204,196161,1,0,0:0:0:0:
245,60,196302,6,0,B|147:56|113:160,1,170
152,305,196582,1,0,0:0:0:0:
239,186,196722,2,0,B|260:151|309:138|309:138|329:104|390:73,1,170
427,188,197003,1,0,0:0:0:0:
181,78,197143,1,0,0:0:0:0:
69,271,197283,1,0,0:0:0:0:
69,271,197353,1,0,0:0:0:0:
69,271,197423,6,0,L|260:299,1,170
445,200,197703,1,0,0:0:0:0:
181,78,197844,1,0,0:0:0:0:
312,269,197984,1,0,0:0:0:0:
337,92,198124,1,0,0:0:0:0:
100,172,198264,1,0,0:0:0:0:
175,11,198404,1,0,0:0:0:0:
214,248,198545,5,0,0:0:0:0:
236,90,198685,1,0,0:0:0:0:
289,267,198825,1,0,0:0:0:0:
363,126,198965,1,0,0:0:0:0:
358,308,199105,1,0,0:0:0:0:
476,201,199245,1,0,0:0:0:0:
284,155,199386,1,0,0:0:0:0:
438,310,199526,1,0,0:0:0:0:
249,306,199666,6,0,B|196:283|132:330|66:309,1,170
37,193,199946,1,0,0:0:0:0:
183,89,200087,1,0,0:0:0:0:
166,264,200227,1,0,0:0:0:0:
68,9,200367,1,0,0:0:0:0:
59,163,200507,1,0,0:0:0:0:
273,80,200647,1,0,0:0:0:0:
204,255,200788,5,0,0:0:0:0:
113,94,200928,1,0,0:0:0:0:
329,218,201068,1,0,0:0:0:0:
359,70,201208,1,0,0:0:0:0:
148,170,201348,1,0,0:0:0:0:
332,256,201488,1,0,0:0:0:0:
286,80,201629,1,0,0:0:0:0:
95,252,201769,1,0,0:0:0:0:
92,132,201909,6,0,L|173:296,1,170
381,276,202189,1,0,0:0:0:0:
310,79,202330,1,0,0:0:0:0:
69,267,202470,1,0,0:0:0:0:
343,264,202610,1,0,0:0:0:0:
173,106,202750,1,0,0:0:0:0:
247,329,202890,1,0,0:0:0:0:
359,144,203031,5,0,0:0:0:0:
53,168,203171,1,0,0:0:0:0:
311,332,203311,1,0,0:0:0:0:
291,55,203451,1,0,0:0:0:0:
160,286,203591,1,0,0:0:0:0:
474,60,203731,1,0,0:0:0:0:
216,25,203872,1,0,0:0:0:0:
401,323,204012,1,0,0:0:0:0:
57,224,204152,5,0,0:0:0:0:
504,114,204292,1,0,0:0:0:0:
236,343,204432,1,0,0:0:0:0:
50,87,204573,1,0,0:0:0:0:
490,347,204713,1,0,0:0:0:0:
346,80,204853,1,0,0:0:0:0:
153,332,204993,1,0,0:0:0:0:
256,192,205133,1,0,0:0:0:0:
153,332,205274,5,0,0:0:0:0:
255,17,205414,1,0,0:0:0:0:
358,332,205554,1,0,0:0:0:0:
90,138,205694,1,0,0:0:0:0:
421,138,205834,1,0,0:0:0:0:
153,332,205974,1,0,0:0:0:0:
255,17,206115,1,0,0:0:0:0:
358,332,206255,1,0,0:0:0:0:
