osu file format v14

[General]
AudioFilename: Run Away With Me120.mp3
AudioLeadIn: 0
PreviewTime: 34022
Countdown: 0
SampleSet: Drum
StackLeniency: 0.7
Mode: 3
LetterboxInBreaks: 0
SpecialStyle: 0
WidescreenStoryboard: 0

[Editor]
DistanceSpacing: 0.8
BeatDivisor: 2
GridSize: 32
TimelineZoom: 1

[Metadata]
Title:Run Away With Me
TitleUnicode:Run Away With Me
Artist:Carly Rae Jepsen
ArtistUnicode:Carly Rae Jepsen
Creator:Shoegazer
Version:Escape 1.2x
Source:
Tags:electropop synthpop e mo tion emotion
BeatmapID:2217830
BeatmapSetID:1058981

[Difficulty]
HPDrainRate:8
CircleSize:4
OverallDifficulty:7.5
ApproachRate:5
SliderMultiplier:1.4
SliderTickRate:1

[Events]
//Background and Video events
0,0,"296.jpg",0,0
//Break Periods
//Storyboard Layer 0 (Background)
//Storyboard Layer 1 (Fail)
//Storyboard Layer 2 (Pass)
//Storyboard Layer 3 (Foreground)
//Storyboard Layer 4 (Overlay)
//Storyboard Sound Samples

[TimingPoints]
480,420.168067226891,4,3,0,42,1,0

[HitObjects]
64,192,480,128,0,1740:0:0:0:0:
448,192,1740,128,0,1880:0:0:0:0:
192,192,1880,128,0,2020:0:0:0:0:
320,192,2020,128,0,3421:0:0:0:0:
448,192,3421,128,0,3561:0:0:0:0:
320,192,3561,128,0,3701:0:0:0:0:
192,192,3701,128,0,5101:0:0:0:0:
64,192,5101,128,0,5241:0:0:0:0:
320,192,5241,128,0,5381:0:0:0:0:
192,192,5381,128,0,6712:0:0:0:0:
64,192,7202,1,0,0:0:0:0:
192,192,7202,1,0,0:0:0:0:
320,192,7342,1,0,0:0:0:0:
192,192,7482,1,0,0:0:0:0:
64,192,7622,1,0,0:0:0:0:
448,192,7622,1,0,0:0:0:0:
320,192,7670,1,0,0:0:0:0:
192,192,7762,1,0,0:0:0:0:
448,192,7810,1,0,0:0:0:0:
192,192,7902,1,0,0:0:0:0:
64,192,7950,1,0,0:0:0:0:
320,192,8043,1,0,0:0:0:0:
448,192,8043,1,0,0:0:0:0:
64,192,8090,1,0,0:0:0:0:
192,192,8137,1,0,0:0:0:0:
320,192,8183,1,0,0:0:0:0:
448,192,8230,1,0,0:0:0:0:
192,192,8323,1,0,0:0:0:0:
64,192,8463,1,0,0:0:0:0:
448,192,8463,1,0,0:0:0:0:
192,192,8510,1,0,0:0:0:0:
320,192,8603,1,0,0:0:0:0:
64,192,8650,1,0,0:0:0:0:
320,192,8743,1,0,0:0:0:0:
448,192,8790,1,0,0:0:0:0:
64,192,8883,1,0,0:0:0:0:
192,192,8883,1,0,0:0:0:0:
448,192,8930,1,0,0:0:0:0:
320,192,8977,1,0,0:0:0:0:
192,192,9023,1,0,0:0:0:0:
64,192,9070,1,0,0:0:0:0:
320,192,9163,1,0,0:0:0:0:
64,192,9303,1,0,0:0:0:0:
448,192,9303,1,0,0:0:0:0:
320,192,9350,1,0,0:0:0:0:
192,192,9443,1,0,0:0:0:0:
448,192,9490,1,0,0:0:0:0:
64,192,9583,1,0,0:0:0:0:
192,192,9631,1,0,0:0:0:0:
320,192,9723,1,0,0:0:0:0:
448,192,9723,1,0,0:0:0:0:
64,192,9765,1,0,0:0:0:0:
192,192,9806,1,0,0:0:0:0:
320,192,9847,1,0,0:0:0:0:
448,192,9888,1,0,0:0:0:0:
64,192,9929,1,0,0:0:0:0:
320,192,10003,1,0,0:0:0:0:
64,192,10143,1,0,0:0:0:0:
448,192,10143,1,0,0:0:0:0:
320,192,10185,1,0,0:0:0:0:
192,192,10226,1,0,0:0:0:0:
64,192,10267,1,0,0:0:0:0:
448,192,10308,1,0,0:0:0:0:
192,192,10349,1,0,0:0:0:0:
320,192,10423,1,0,0:0:0:0:
64,192,10564,1,0,0:0:0:0:
192,192,10564,1,0,0:0:0:0:
448,192,10704,1,0,0:0:0:0:
192,192,10844,1,0,0:0:0:0:
64,192,10984,1,0,0:0:0:0:
448,192,10984,1,0,0:0:0:0:
320,192,11031,1,0,0:0:0:0:
192,192,11124,1,0,0:0:0:0:
448,192,11171,1,0,0:0:0:0:
192,192,11264,1,0,0:0:0:0:
64,192,11311,1,0,0:0:0:0:
320,192,11404,1,0,0:0:0:0:
448,192,11404,1,0,0:0:0:0:
64,192,11451,1,0,0:0:0:0:
192,192,11498,1,0,0:0:0:0:
448,192,11544,1,0,0:0:0:0:
320,192,11591,1,0,0:0:0:0:
192,192,11684,1,0,0:0:0:0:
64,192,11824,1,0,0:0:0:0:
448,192,11824,1,0,0:0:0:0:
192,192,11872,1,0,0:0:0:0:
320,192,11964,1,0,0:0:0:0:
64,192,12012,1,0,0:0:0:0:
320,192,12104,1,0,0:0:0:0:
448,192,12152,1,0,0:0:0:0:
64,192,12244,1,0,0:0:0:0:
192,192,12244,1,0,0:0:0:0:
448,192,12292,1,0,0:0:0:0:
320,192,12339,1,0,0:0:0:0:
64,192,12384,1,0,0:0:0:0:
192,192,12432,1,0,0:0:0:0:
320,192,12524,1,0,0:0:0:0:
64,192,12664,1,0,0:0:0:0:
448,192,12664,1,0,0:0:0:0:
320,192,12712,1,0,0:0:0:0:
192,192,12804,1,0,0:0:0:0:
320,192,12852,1,0,0:0:0:0:
192,192,12944,1,0,0:0:0:0:
64,192,12992,1,0,0:0:0:0:
320,192,13085,1,0,0:0:0:0:
448,192,13085,1,0,0:0:0:0:
64,192,13126,1,0,0:0:0:0:
192,192,13167,1,0,0:0:0:0:
448,192,13208,1,0,0:0:0:0:
320,192,13249,1,0,0:0:0:0:
64,192,13289,1,0,0:0:0:0:
320,192,13365,1,0,0:0:0:0:
64,192,13505,1,0,0:0:0:0:
448,192,13505,1,0,0:0:0:0:
320,192,13546,1,0,0:0:0:0:
192,192,13587,1,0,0:0:0:0:
448,192,13628,1,0,0:0:0:0:
64,192,13669,1,0,0:0:0:0:
320,192,13709,1,0,0:0:0:0:
64,192,13785,1,0,0:0:0:0:
320,192,13925,1,0,0:0:0:0:
448,192,13925,1,0,0:0:0:0:
192,192,14065,1,0,0:0:0:0:
320,192,14205,1,0,0:0:0:0:
64,192,14345,1,0,0:0:0:0:
448,192,14345,1,0,0:0:0:0:
192,192,14393,1,0,0:0:0:0:
320,192,14485,1,0,0:0:0:0:
64,192,14533,1,0,0:0:0:0:
448,192,14625,1,0,0:0:0:0:
320,192,14673,1,0,0:0:0:0:
64,192,14765,1,0,0:0:0:0:
192,192,14765,1,0,0:0:0:0:
448,192,14813,1,0,0:0:0:0:
64,192,14859,1,0,0:0:0:0:
320,192,14905,1,0,0:0:0:0:
192,192,14975,1,0,0:0:0:0:
64,192,15045,1,0,0:0:0:0:
320,192,15139,1,0,0:0:0:0:
64,192,15185,1,0,0:0:0:0:
448,192,15185,1,0,0:0:0:0:
320,192,15325,1,0,0:0:0:0:
64,192,15465,1,0,0:0:0:0:
320,192,15606,1,0,0:0:0:0:
448,192,15606,1,0,0:0:0:0:
192,192,15746,1,0,0:0:0:0:
64,192,15793,1,0,0:0:0:0:
320,192,15886,1,0,0:0:0:0:
64,192,16026,1,0,0:0:0:0:
448,192,16026,1,0,0:0:0:0:
192,192,16073,1,0,0:0:0:0:
320,192,16166,1,0,0:0:0:0:
448,192,16213,1,0,0:0:0:0:
64,192,16306,1,0,0:0:0:0:
320,192,16353,1,0,0:0:0:0:
64,192,16446,1,0,0:0:0:0:
192,192,16446,1,0,0:0:0:0:
448,192,16493,1,0,0:0:0:0:
64,192,16540,1,0,0:0:0:0:
320,192,16586,1,0,0:0:0:0:
448,192,16656,1,0,0:0:0:0:
320,192,16726,1,0,0:0:0:0:
192,192,16820,1,0,0:0:0:0:
64,192,16866,1,0,0:0:0:0:
448,192,16866,1,0,0:0:0:0:
320,192,17006,1,0,0:0:0:0:
448,192,17053,1,0,0:0:0:0:
64,192,17146,1,0,0:0:0:0:
320,192,17286,1,0,0:0:0:0:
448,192,17286,1,0,0:0:0:0:
64,192,17333,1,0,0:0:0:0:
192,192,17426,1,0,0:0:0:0:
448,192,17496,1,0,0:0:0:0:
320,192,17566,1,0,0:0:0:0:
192,192,17636,1,0,0:0:0:0:
64,192,17706,1,0,0:0:0:0:
448,192,17706,1,0,0:0:0:0:
192,192,17846,1,0,0:0:0:0:
448,192,17987,1,0,0:0:0:0:
64,192,18127,1,0,0:0:0:0:
192,192,18127,128,0,18174:0:0:0:0:
320,192,18174,128,0,18221:0:0:0:0:
448,192,18221,128,0,18267:0:0:0:0:
64,192,18267,1,0,0:0:0:0:
192,192,18407,1,0,0:0:0:0:
64,192,18547,1,0,0:0:0:0:
448,192,18547,128,0,18687:0:0:0:0:
320,192,18594,1,0,0:0:0:0:
320,192,18687,128,0,18827:0:0:0:0:
64,192,18734,1,0,0:0:0:0:
64,192,18827,128,0,19247:0:0:0:0:
192,192,18874,1,0,0:0:0:0:
320,192,18967,1,0,0:0:0:0:
448,192,18967,1,0,0:0:0:0:
192,192,19107,1,0,0:0:0:0:
320,192,19247,1,0,0:0:0:0:
64,192,19387,1,0,0:0:0:0:
448,192,19387,1,0,0:0:0:0:
320,192,19527,1,0,0:0:0:0:
448,192,19621,1,0,0:0:0:0:
192,192,19667,1,0,0:0:0:0:
64,192,19714,1,0,0:0:0:0:
320,192,19807,1,0,0:0:0:0:
448,192,19807,1,0,0:0:0:0:
64,192,19854,1,0,0:0:0:0:
192,192,19901,1,0,0:0:0:0:
448,192,19947,1,0,0:0:0:0:
64,192,20087,1,0,0:0:0:0:
192,192,20135,1,0,0:0:0:0:
320,192,20182,1,0,0:0:0:0:
64,192,20227,1,0,0:0:0:0:
448,192,20227,1,0,0:0:0:0:
320,192,20367,1,0,0:0:0:0:
192,192,20415,1,0,0:0:0:0:
64,192,20462,1,0,0:0:0:0:
448,192,20508,1,0,0:0:0:0:
64,192,20648,1,0,0:0:0:0:
192,192,20648,1,0,0:0:0:0:
448,192,20695,1,0,0:0:0:0:
320,192,20742,1,0,0:0:0:0:
192,192,20788,1,0,0:0:0:0:
64,192,20835,1,0,0:0:0:0:
448,192,20882,1,0,0:0:0:0:
320,192,20928,1,0,0:0:0:0:
192,192,20975,1,0,0:0:0:0:
64,192,21068,1,0,0:0:0:0:
448,192,21068,1,0,0:0:0:0:
320,192,21138,1,0,0:0:0:0:
64,192,21208,1,0,0:0:0:0:
448,192,21348,1,0,0:0:0:0:
64,192,21395,1,0,0:0:0:0:
192,192,21442,1,0,0:0:0:0:
320,192,21488,1,0,0:0:0:0:
448,192,21488,1,0,0:0:0:0:
64,192,21535,1,0,0:0:0:0:
192,192,21628,1,0,0:0:0:0:
320,192,21768,1,0,0:0:0:0:
64,192,21908,1,0,0:0:0:0:
448,192,21908,1,0,0:0:0:0:
192,192,22048,1,0,0:0:0:0:
448,192,22188,1,0,0:0:0:0:
64,192,22328,1,0,0:0:0:0:
192,192,22328,1,0,0:0:0:0:
320,192,22376,1,0,0:0:0:0:
448,192,22423,1,0,0:0:0:0:
192,192,22468,1,0,0:0:0:0:
448,192,22608,1,0,0:0:0:0:
320,192,22656,1,0,0:0:0:0:
192,192,22703,1,0,0:0:0:0:
64,192,22748,1,0,0:0:0:0:
448,192,22748,1,0,0:0:0:0:
192,192,22888,1,0,0:0:0:0:
320,192,22936,1,0,0:0:0:0:
448,192,22983,1,0,0:0:0:0:
64,192,23029,1,0,0:0:0:0:
320,192,23169,1,0,0:0:0:0:
448,192,23169,1,0,0:0:0:0:
64,192,23216,1,0,0:0:0:0:
320,192,23263,1,0,0:0:0:0:
192,192,23309,1,0,0:0:0:0:
64,192,23449,1,0,0:0:0:0:
320,192,23496,1,0,0:0:0:0:
192,192,23543,1,0,0:0:0:0:
64,192,23589,1,0,0:0:0:0:
448,192,23589,1,0,0:0:0:0:
320,192,23729,1,0,0:0:0:0:
192,192,23799,1,0,0:0:0:0:
448,192,23869,1,0,0:0:0:0:
64,192,24009,1,0,0:0:0:0:
192,192,24009,1,0,0:0:0:0:
448,192,24050,1,0,0:0:0:0:
320,192,24091,1,0,0:0:0:0:
64,192,24132,1,0,0:0:0:0:
448,192,24173,1,0,0:0:0:0:
192,192,24214,1,0,0:0:0:0:
64,192,24254,1,0,0:0:0:0:
320,192,24289,1,0,0:0:0:0:
192,192,24331,1,0,0:0:0:0:
64,192,24429,1,0,0:0:0:0:
448,192,24429,1,0,0:0:0:0:
320,192,24499,1,0,0:0:0:0:
192,192,24569,1,0,0:0:0:0:
448,192,24709,1,0,0:0:0:0:
192,192,24757,1,0,0:0:0:0:
64,192,24803,1,0,0:0:0:0:
320,192,24849,1,0,0:0:0:0:
448,192,24849,1,0,0:0:0:0:
192,192,24897,1,0,0:0:0:0:
64,192,24989,1,0,0:0:0:0:
320,192,25129,1,0,0:0:0:0:
64,192,25269,1,0,0:0:0:0:
448,192,25269,1,0,0:0:0:0:
192,192,25409,1,0,0:0:0:0:
448,192,25550,1,0,0:0:0:0:
320,192,25597,1,0,0:0:0:0:
64,192,25690,1,0,0:0:0:0:
192,192,25690,1,0,0:0:0:0:
320,192,25737,1,0,0:0:0:0:
448,192,25783,1,0,0:0:0:0:
64,192,25830,1,0,0:0:0:0:
448,192,25970,1,0,0:0:0:0:
320,192,26017,1,0,0:0:0:0:
192,192,26063,1,0,0:0:0:0:
64,192,26110,1,0,0:0:0:0:
448,192,26110,1,0,0:0:0:0:
320,192,26250,1,0,0:0:0:0:
448,192,26298,1,0,0:0:0:0:
192,192,26344,1,0,0:0:0:0:
64,192,26390,1,0,0:0:0:0:
320,192,26530,1,0,0:0:0:0:
448,192,26530,1,0,0:0:0:0:
192,192,26578,1,0,0:0:0:0:
448,192,26624,1,0,0:0:0:0:
320,192,26670,1,0,0:0:0:0:
64,192,26810,1,0,0:0:0:0:
192,192,26858,1,0,0:0:0:0:
320,192,26904,1,0,0:0:0:0:
64,192,26950,1,0,0:0:0:0:
448,192,26950,1,0,0:0:0:0:
192,192,27090,1,0,0:0:0:0:
320,192,27160,1,0,0:0:0:0:
448,192,27230,1,0,0:0:0:0:
64,192,27370,1,0,0:0:0:0:
192,192,27370,1,0,0:0:0:0:
320,192,27412,1,0,0:0:0:0:
448,192,27453,1,0,0:0:0:0:
64,192,27493,1,0,0:0:0:0:
192,192,27534,1,0,0:0:0:0:
320,192,27575,1,0,0:0:0:0:
64,192,27615,1,0,0:0:0:0:
448,192,27650,1,0,0:0:0:0:
192,192,27692,1,0,0:0:0:0:
64,192,27790,1,0,0:0:0:0:
448,192,27790,1,0,0:0:0:0:
192,192,27860,1,0,0:0:0:0:
320,192,27930,1,0,0:0:0:0:
448,192,28071,1,0,0:0:0:0:
64,192,28118,1,0,0:0:0:0:
192,192,28164,1,0,0:0:0:0:
320,192,28211,1,0,0:0:0:0:
448,192,28211,1,0,0:0:0:0:
64,192,28258,1,0,0:0:0:0:
192,192,28351,1,0,0:0:0:0:
320,192,28491,1,0,0:0:0:0:
64,192,28631,1,0,0:0:0:0:
448,192,28631,1,0,0:0:0:0:
192,192,28771,1,0,0:0:0:0:
448,192,28911,1,0,0:0:0:0:
64,192,29051,1,0,0:0:0:0:
192,192,29051,1,0,0:0:0:0:
320,192,29099,1,0,0:0:0:0:
448,192,29145,1,0,0:0:0:0:
192,192,29191,1,0,0:0:0:0:
448,192,29331,1,0,0:0:0:0:
320,192,29379,1,0,0:0:0:0:
192,192,29425,1,0,0:0:0:0:
64,192,29471,1,0,0:0:0:0:
448,192,29471,1,0,0:0:0:0:
320,192,29611,1,0,0:0:0:0:
448,192,29659,1,0,0:0:0:0:
192,192,29705,1,0,0:0:0:0:
64,192,29751,1,0,0:0:0:0:
320,192,29891,1,0,0:0:0:0:
448,192,29891,1,0,0:0:0:0:
64,192,29939,1,0,0:0:0:0:
320,192,29985,1,0,0:0:0:0:
192,192,30031,1,0,0:0:0:0:
64,192,30171,1,0,0:0:0:0:
192,192,30219,1,0,0:0:0:0:
320,192,30265,1,0,0:0:0:0:
64,192,30311,1,0,0:0:0:0:
448,192,30311,1,0,0:0:0:0:
320,192,30451,1,0,0:0:0:0:
192,192,30499,1,0,0:0:0:0:
448,192,30592,1,0,0:0:0:0:
64,192,30732,128,0,31992:0:0:0:0:
192,192,30732,1,0,0:0:0:0:
320,192,30779,1,0,0:0:0:0:
448,192,30826,1,0,0:0:0:0:
192,192,30872,1,0,0:0:0:0:
320,192,30919,1,0,0:0:0:0:
448,192,31012,1,0,0:0:0:0:
192,192,31152,1,0,0:0:0:0:
320,192,31152,1,0,0:0:0:0:
448,192,31292,1,0,0:0:0:0:
192,192,31432,1,0,0:0:0:0:
320,192,31572,1,0,0:0:0:0:
448,192,31572,1,0,0:0:0:0:
192,192,31712,1,0,0:0:0:0:
320,192,31852,1,0,0:0:0:0:
448,192,31992,128,0,32132:0:0:0:0:
320,192,32039,1,0,0:0:0:0:
320,192,32132,128,0,32272:0:0:0:0:
64,192,32179,1,0,0:0:0:0:
64,192,32272,128,0,32412:0:0:0:0:
192,192,32319,1,0,0:0:0:0:
320,192,32412,1,0,0:0:0:0:
320,192,32552,1,0,0:0:0:0:
320,192,32692,1,0,0:0:0:0:
192,192,32832,1,0,0:0:0:0:
192,192,32972,1,0,0:0:0:0:
192,192,33113,1,0,0:0:0:0:
320,192,33253,1,0,0:0:0:0:
320,192,33393,1,0,0:0:0:0:
320,192,33533,1,0,0:0:0:0:
64,192,33673,1,0,0:0:0:0:
192,192,33673,1,0,0:0:0:0:
448,192,33673,1,0,0:0:0:0:
64,192,34093,1,0,0:0:0:0:
192,192,34093,1,0,0:0:0:0:
320,192,34140,1,0,0:0:0:0:
192,192,34187,1,0,0:0:0:0:
448,192,34233,1,0,0:0:0:0:
448,192,34373,1,0,0:0:0:0:
192,192,34420,1,0,0:0:0:0:
448,192,34467,1,0,0:0:0:0:
64,192,34513,1,0,0:0:0:0:
320,192,34513,1,0,0:0:0:0:
448,192,34583,1,0,0:0:0:0:
192,192,34653,1,0,0:0:0:0:
192,192,34793,1,0,0:0:0:0:
320,192,34933,1,0,0:0:0:0:
448,192,34933,1,0,0:0:0:0:
64,192,35073,1,0,0:0:0:0:
64,192,35213,1,0,0:0:0:0:
192,192,35353,1,0,0:0:0:0:
448,192,35353,1,0,0:0:0:0:
64,192,35401,1,0,0:0:0:0:
192,192,35448,1,0,0:0:0:0:
320,192,35494,1,0,0:0:0:0:
320,192,35634,1,0,0:0:0:0:
64,192,35774,1,0,0:0:0:0:
192,192,35774,1,0,0:0:0:0:
320,192,35821,1,0,0:0:0:0:
64,192,35868,1,0,0:0:0:0:
448,192,35914,1,0,0:0:0:0:
320,192,36054,1,0,0:0:0:0:
192,192,36101,1,0,0:0:0:0:
320,192,36148,1,0,0:0:0:0:
64,192,36194,1,0,0:0:0:0:
448,192,36194,1,0,0:0:0:0:
192,192,36334,1,0,0:0:0:0:
192,192,36474,1,0,0:0:0:0:
320,192,36614,1,0,0:0:0:0:
448,192,36614,1,0,0:0:0:0:
64,192,36662,1,0,0:0:0:0:
448,192,36709,1,0,0:0:0:0:
192,192,36754,1,0,0:0:0:0:
192,192,36894,1,0,0:0:0:0:
320,192,36942,1,0,0:0:0:0:
192,192,36989,1,0,0:0:0:0:
64,192,37034,1,0,0:0:0:0:
448,192,37034,1,0,0:0:0:0:
320,192,37174,1,0,0:0:0:0:
320,192,37314,1,0,0:0:0:0:
64,192,37454,1,0,0:0:0:0:
192,192,37454,1,0,0:0:0:0:
320,192,37502,1,0,0:0:0:0:
64,192,37549,1,0,0:0:0:0:
448,192,37594,1,0,0:0:0:0:
448,192,37734,1,0,0:0:0:0:
192,192,37782,1,0,0:0:0:0:
448,192,37829,1,0,0:0:0:0:
64,192,37874,1,0,0:0:0:0:
320,192,37874,1,0,0:0:0:0:
448,192,37944,1,0,0:0:0:0:
192,192,38015,1,0,0:0:0:0:
192,192,38155,1,0,0:0:0:0:
320,192,38295,1,0,0:0:0:0:
448,192,38295,1,0,0:0:0:0:
64,192,38435,1,0,0:0:0:0:
64,192,38575,1,0,0:0:0:0:
192,192,38715,1,0,0:0:0:0:
448,192,38715,1,0,0:0:0:0:
64,192,38763,1,0,0:0:0:0:
192,192,38809,1,0,0:0:0:0:
320,192,38855,1,0,0:0:0:0:
320,192,38995,1,0,0:0:0:0:
64,192,39135,1,0,0:0:0:0:
192,192,39135,1,0,0:0:0:0:
448,192,39183,1,0,0:0:0:0:
64,192,39229,1,0,0:0:0:0:
320,192,39275,1,0,0:0:0:0:
320,192,39415,1,0,0:0:0:0:
448,192,39463,1,0,0:0:0:0:
192,192,39509,1,0,0:0:0:0:
64,192,39555,1,0,0:0:0:0:
448,192,39555,1,0,0:0:0:0:
320,192,39625,1,0,0:0:0:0:
192,192,39695,1,0,0:0:0:0:
448,192,39743,1,0,0:0:0:0:
192,192,39835,1,0,0:0:0:0:
320,192,39975,1,0,0:0:0:0:
448,192,39975,1,0,0:0:0:0:
64,192,40017,1,0,0:0:0:0:
192,192,40058,1,0,0:0:0:0:
448,192,40099,1,0,0:0:0:0:
64,192,40139,1,0,0:0:0:0:
192,192,40255,1,0,0:0:0:0:
448,192,40297,1,0,0:0:0:0:
320,192,40338,1,0,0:0:0:0:
64,192,40379,1,0,0:0:0:0:
192,192,40419,1,0,0:0:0:0:
448,192,40419,1,0,0:0:0:0:
320,192,40536,1,0,0:0:0:0:
64,192,40583,1,0,0:0:0:0:
320,192,40629,1,0,0:0:0:0:
448,192,40676,1,0,0:0:0:0:
64,192,40816,1,0,0:0:0:0:
192,192,40816,1,0,0:0:0:0:
320,192,40863,1,0,0:0:0:0:
64,192,40910,1,0,0:0:0:0:
448,192,40956,1,0,0:0:0:0:
448,192,41096,1,0,0:0:0:0:
64,192,41143,1,0,0:0:0:0:
448,192,41190,1,0,0:0:0:0:
192,192,41236,1,0,0:0:0:0:
320,192,41236,1,0,0:0:0:0:
448,192,41306,1,0,0:0:0:0:
64,192,41376,1,0,0:0:0:0:
64,192,41516,1,0,0:0:0:0:
320,192,41656,1,0,0:0:0:0:
448,192,41656,1,0,0:0:0:0:
192,192,41796,1,0,0:0:0:0:
320,192,41936,1,0,0:0:0:0:
64,192,42076,1,0,0:0:0:0:
448,192,42076,1,0,0:0:0:0:
192,192,42123,1,0,0:0:0:0:
64,192,42170,1,0,0:0:0:0:
320,192,42216,1,0,0:0:0:0:
320,192,42356,1,0,0:0:0:0:
64,192,42496,1,0,0:0:0:0:
192,192,42496,1,0,0:0:0:0:
448,192,42543,1,0,0:0:0:0:
64,192,42590,1,0,0:0:0:0:
320,192,42636,1,0,0:0:0:0:
320,192,42776,1,0,0:0:0:0:
192,192,42823,1,0,0:0:0:0:
320,192,42870,1,0,0:0:0:0:
64,192,42916,1,0,0:0:0:0:
448,192,42916,1,0,0:0:0:0:
192,192,43057,1,0,0:0:0:0:
192,192,43197,1,0,0:0:0:0:
320,192,43337,1,0,0:0:0:0:
448,192,43337,1,0,0:0:0:0:
64,192,43384,1,0,0:0:0:0:
448,192,43431,1,0,0:0:0:0:
192,192,43477,1,0,0:0:0:0:
192,192,43617,1,0,0:0:0:0:
64,192,43757,1,0,0:0:0:0:
448,192,43757,1,0,0:0:0:0:
192,192,43804,1,0,0:0:0:0:
448,192,43851,1,0,0:0:0:0:
320,192,43897,1,0,0:0:0:0:
448,192,44037,1,0,0:0:0:0:
192,192,44084,1,0,0:0:0:0:
64,192,44131,1,0,0:0:0:0:
320,192,44177,1,0,0:0:0:0:
448,192,44177,1,0,0:0:0:0:
192,192,44224,1,0,0:0:0:0:
320,192,44271,1,0,0:0:0:0:
64,192,44317,1,0,0:0:0:0:
448,192,44364,1,0,0:0:0:0:
320,192,44411,1,0,0:0:0:0:
192,192,44457,1,0,0:0:0:0:
64,192,44504,1,0,0:0:0:0:
448,192,44551,1,0,0:0:0:0:
192,192,44597,1,0,0:0:0:0:
320,192,44597,1,0,0:0:0:0:
64,192,44644,1,0,0:0:0:0:
192,192,44691,1,0,0:0:0:0:
448,192,44737,128,0,44784:0:0:0:0:
320,192,44772,1,0,0:0:0:0:
320,192,44877,128,0,44924:0:0:0:0:
448,192,44912,1,0,0:0:0:0:
320,192,45017,1,0,0:0:0:0:
448,192,45017,128,0,45065:0:0:0:0:
64,192,45052,1,0,0:0:0:0:
192,192,45087,1,0,0:0:0:0:
320,192,45122,1,0,0:0:0:0:
448,192,45297,128,0,45345:0:0:0:0:
320,192,45332,1,0,0:0:0:0:
192,192,45367,1,0,0:0:0:0:
64,192,45437,1,0,0:0:0:0:
448,192,45437,1,0,0:0:0:0:
320,192,45578,128,0,45625:0:0:0:0:
192,192,45613,1,0,0:0:0:0:
64,192,45648,1,0,0:0:0:0:
320,192,45718,1,0,0:0:0:0:
64,192,45858,1,0,0:0:0:0:
192,192,45858,1,0,0:0:0:0:
448,192,45998,1,0,0:0:0:0:
448,192,46138,1,0,0:0:0:0:
192,192,46278,1,0,0:0:0:0:
320,192,46278,1,0,0:0:0:0:
64,192,46418,128,0,46465:0:0:0:0:
192,192,46453,1,0,0:0:0:0:
192,192,46558,128,0,46605:0:0:0:0:
64,192,46593,1,0,0:0:0:0:
448,192,46698,128,0,46745:0:0:0:0:
320,192,46733,1,0,0:0:0:0:
192,192,46768,1,0,0:0:0:0:
64,192,46838,1,0,0:0:0:0:
448,192,46885,1,0,0:0:0:0:
192,192,46932,1,0,0:0:0:0:
320,192,46978,128,0,47025:0:0:0:0:
64,192,47013,1,0,0:0:0:0:
448,192,47048,1,0,0:0:0:0:
192,192,47118,1,0,0:0:0:0:
320,192,47166,1,0,0:0:0:0:
64,192,47213,1,0,0:0:0:0:
448,192,47258,128,0,47306:0:0:0:0:
320,192,47293,1,0,0:0:0:0:
192,192,47328,1,0,0:0:0:0:
64,192,47398,1,0,0:0:0:0:
448,192,47446,1,0,0:0:0:0:
64,192,47493,1,0,0:0:0:0:
320,192,47538,1,0,0:0:0:0:
448,192,47538,1,0,0:0:0:0:
192,192,47586,1,0,0:0:0:0:
320,192,47633,1,0,0:0:0:0:
64,192,47678,1,0,0:0:0:0:
64,192,47818,1,0,0:0:0:0:
320,192,47866,1,0,0:0:0:0:
64,192,47913,1,0,0:0:0:0:
192,192,47958,1,0,0:0:0:0:
448,192,47958,1,0,0:0:0:0:
64,192,48029,1,0,0:0:0:0:
320,192,48099,1,0,0:0:0:0:
320,192,48239,1,0,0:0:0:0:
64,192,48379,1,0,0:0:0:0:
192,192,48379,1,0,0:0:0:0:
448,192,48519,1,0,0:0:0:0:
448,192,48659,1,0,0:0:0:0:
64,192,48799,1,0,0:0:0:0:
320,192,48799,1,0,0:0:0:0:
448,192,48846,1,0,0:0:0:0:
320,192,48893,1,0,0:0:0:0:
192,192,48939,1,0,0:0:0:0:
192,192,49079,1,0,0:0:0:0:
320,192,49219,1,0,0:0:0:0:
448,192,49219,1,0,0:0:0:0:
192,192,49267,1,0,0:0:0:0:
448,192,49313,1,0,0:0:0:0:
64,192,49359,1,0,0:0:0:0:
192,192,49499,1,0,0:0:0:0:
320,192,49547,1,0,0:0:0:0:
192,192,49593,1,0,0:0:0:0:
64,192,49639,1,0,0:0:0:0:
448,192,49639,1,0,0:0:0:0:
320,192,49779,1,0,0:0:0:0:
320,192,49919,1,0,0:0:0:0:
64,192,50059,1,0,0:0:0:0:
192,192,50059,1,0,0:0:0:0:
448,192,50107,1,0,0:0:0:0:
64,192,50153,1,0,0:0:0:0:
320,192,50199,1,0,0:0:0:0:
320,192,50339,1,0,0:0:0:0:
192,192,50387,1,0,0:0:0:0:
320,192,50433,1,0,0:0:0:0:
64,192,50480,1,0,0:0:0:0:
448,192,50480,1,0,0:0:0:0:
192,192,50620,1,0,0:0:0:0:
192,192,50760,1,0,0:0:0:0:
320,192,50900,1,0,0:0:0:0:
448,192,50900,1,0,0:0:0:0:
192,192,50947,1,0,0:0:0:0:
448,192,50993,1,0,0:0:0:0:
64,192,51040,1,0,0:0:0:0:
64,192,51180,1,0,0:0:0:0:
320,192,51227,1,0,0:0:0:0:
64,192,51274,1,0,0:0:0:0:
192,192,51320,1,0,0:0:0:0:
448,192,51320,1,0,0:0:0:0:
64,192,51390,1,0,0:0:0:0:
320,192,51460,1,0,0:0:0:0:
320,192,51600,1,0,0:0:0:0:
64,192,51740,1,0,0:0:0:0:
192,192,51740,1,0,0:0:0:0:
448,192,51880,1,0,0:0:0:0:
448,192,52020,1,0,0:0:0:0:
64,192,52160,1,0,0:0:0:0:
320,192,52160,1,0,0:0:0:0:
448,192,52208,1,0,0:0:0:0:
320,192,52254,1,0,0:0:0:0:
192,192,52300,1,0,0:0:0:0:
192,192,52440,1,0,0:0:0:0:
320,192,52580,1,0,0:0:0:0:
448,192,52580,1,0,0:0:0:0:
64,192,52628,1,0,0:0:0:0:
448,192,52674,1,0,0:0:0:0:
192,192,52720,1,0,0:0:0:0:
192,192,52860,1,0,0:0:0:0:
64,192,52908,1,0,0:0:0:0:
320,192,52954,1,0,0:0:0:0:
64,192,53001,1,0,0:0:0:0:
448,192,53001,1,0,0:0:0:0:
192,192,53071,1,0,0:0:0:0:
320,192,53141,1,0,0:0:0:0:
64,192,53188,1,0,0:0:0:0:
320,192,53281,1,0,0:0:0:0:
64,192,53421,1,0,0:0:0:0:
192,192,53421,1,0,0:0:0:0:
448,192,53463,1,0,0:0:0:0:
320,192,53503,1,0,0:0:0:0:
64,192,53544,1,0,0:0:0:0:
448,192,53585,1,0,0:0:0:0:
320,192,53701,1,0,0:0:0:0:
64,192,53743,1,0,0:0:0:0:
192,192,53783,1,0,0:0:0:0:
448,192,53824,1,0,0:0:0:0:
64,192,53865,1,0,0:0:0:0:
320,192,53865,1,0,0:0:0:0:
192,192,53981,1,0,0:0:0:0:
448,192,54029,1,0,0:0:0:0:
192,192,54075,1,0,0:0:0:0:
64,192,54121,1,0,0:0:0:0:
320,192,54261,1,0,0:0:0:0:
448,192,54261,1,0,0:0:0:0:
192,192,54309,1,0,0:0:0:0:
448,192,54355,1,0,0:0:0:0:
64,192,54401,1,0,0:0:0:0:
64,192,54541,1,0,0:0:0:0:
448,192,54589,1,0,0:0:0:0:
64,192,54635,1,0,0:0:0:0:
192,192,54681,1,0,0:0:0:0:
320,192,54681,1,0,0:0:0:0:
448,192,54821,1,0,0:0:0:0:
448,192,54961,1,0,0:0:0:0:
64,192,55101,1,0,0:0:0:0:
192,192,55101,1,0,0:0:0:0:
320,192,55241,1,0,0:0:0:0:
192,192,55381,1,0,0:0:0:0:
64,192,55522,1,0,0:0:0:0:
448,192,55522,1,0,0:0:0:0:
320,192,55569,1,0,0:0:0:0:
448,192,55616,1,0,0:0:0:0:
192,192,55662,1,0,0:0:0:0:
192,192,55802,1,0,0:0:0:0:
320,192,55942,1,0,0:0:0:0:
448,192,55942,1,0,0:0:0:0:
64,192,55989,1,0,0:0:0:0:
448,192,56036,1,0,0:0:0:0:
192,192,56082,1,0,0:0:0:0:
192,192,56222,1,0,0:0:0:0:
320,192,56269,1,0,0:0:0:0:
192,192,56316,1,0,0:0:0:0:
64,192,56362,1,0,0:0:0:0:
448,192,56362,1,0,0:0:0:0:
320,192,56502,1,0,0:0:0:0:
320,192,56642,1,0,0:0:0:0:
64,192,56782,1,0,0:0:0:0:
192,192,56782,1,0,0:0:0:0:
448,192,56829,1,0,0:0:0:0:
64,192,56876,1,0,0:0:0:0:
320,192,56922,1,0,0:0:0:0:
320,192,57062,1,0,0:0:0:0:
64,192,57202,1,0,0:0:0:0:
448,192,57202,1,0,0:0:0:0:
320,192,57249,1,0,0:0:0:0:
64,192,57296,1,0,0:0:0:0:
192,192,57342,1,0,0:0:0:0:
448,192,57482,1,0,0:0:0:0:
192,192,57530,1,0,0:0:0:0:
64,192,57577,1,0,0:0:0:0:
320,192,57622,1,0,0:0:0:0:
448,192,57622,1,0,0:0:0:0:
192,192,57670,1,0,0:0:0:0:
320,192,57717,1,0,0:0:0:0:
64,192,57762,1,0,0:0:0:0:
448,192,57810,1,0,0:0:0:0:
320,192,57857,1,0,0:0:0:0:
192,192,57902,1,0,0:0:0:0:
64,192,57950,1,0,0:0:0:0:
448,192,57997,1,0,0:0:0:0:
192,192,58043,1,0,0:0:0:0:
320,192,58043,1,0,0:0:0:0:
64,192,58090,1,0,0:0:0:0:
192,192,58137,1,0,0:0:0:0:
448,192,58183,128,0,58230:0:0:0:0:
320,192,58218,1,0,0:0:0:0:
64,192,58277,1,0,0:0:0:0:
320,192,58323,128,0,58370:0:0:0:0:
448,192,58358,1,0,0:0:0:0:
320,192,58463,1,0,0:0:0:0:
448,192,58463,128,0,58510:0:0:0:0:
64,192,58498,1,0,0:0:0:0:
192,192,58533,1,0,0:0:0:0:
320,192,58568,1,0,0:0:0:0:
64,192,58650,1,0,0:0:0:0:
192,192,58697,1,0,0:0:0:0:
448,192,58743,128,0,58790:0:0:0:0:
320,192,58778,1,0,0:0:0:0:
192,192,58813,1,0,0:0:0:0:
64,192,58883,1,0,0:0:0:0:
448,192,58883,1,0,0:0:0:0:
320,192,59023,128,0,59070:0:0:0:0:
192,192,59058,1,0,0:0:0:0:
64,192,59093,1,0,0:0:0:0:
320,192,59163,1,0,0:0:0:0:
64,192,59303,1,0,0:0:0:0:
192,192,59303,1,0,0:0:0:0:
448,192,59443,1,0,0:0:0:0:
448,192,59583,1,0,0:0:0:0:
192,192,59723,1,0,0:0:0:0:
320,192,59723,1,0,0:0:0:0:
64,192,59863,128,0,59911:0:0:0:0:
192,192,59898,1,0,0:0:0:0:
192,192,60003,128,0,60051:0:0:0:0:
64,192,60038,1,0,0:0:0:0:
64,192,60143,128,0,60191:0:0:0:0:
192,192,60143,1,0,0:0:0:0:
448,192,60178,1,0,0:0:0:0:
320,192,60213,1,0,0:0:0:0:
192,192,60248,1,0,0:0:0:0:
64,192,60423,128,0,60471:0:0:0:0:
192,192,60458,1,0,0:0:0:0:
320,192,60494,1,0,0:0:0:0:
64,192,60564,1,0,0:0:0:0:
448,192,60564,1,0,0:0:0:0:
192,192,60704,128,0,60751:0:0:0:0:
320,192,60739,1,0,0:0:0:0:
448,192,60774,1,0,0:0:0:0:
192,192,60844,1,0,0:0:0:0:
64,192,62664,1,0,0:0:0:0:
192,192,62664,1,0,0:0:0:0:
320,192,62804,1,0,0:0:0:0:
192,192,62944,1,0,0:0:0:0:
64,192,63085,1,0,0:0:0:0:
448,192,63085,1,0,0:0:0:0:
320,192,63132,1,0,0:0:0:0:
192,192,63225,1,0,0:0:0:0:
448,192,63272,1,0,0:0:0:0:
192,192,63365,1,0,0:0:0:0:
64,192,63412,1,0,0:0:0:0:
320,192,63505,1,0,0:0:0:0:
448,192,63505,1,0,0:0:0:0:
64,192,63552,1,0,0:0:0:0:
320,192,63599,1,0,0:0:0:0:
192,192,63645,1,0,0:0:0:0:
448,192,63692,1,0,0:0:0:0:
192,192,63785,1,0,0:0:0:0:
64,192,63925,1,0,0:0:0:0:
448,192,63925,1,0,0:0:0:0:
192,192,63973,1,0,0:0:0:0:
320,192,64065,1,0,0:0:0:0:
64,192,64113,1,0,0:0:0:0:
320,192,64205,1,0,0:0:0:0:
448,192,64253,1,0,0:0:0:0:
64,192,64345,1,0,0:0:0:0:
192,192,64345,1,0,0:0:0:0:
448,192,64393,1,0,0:0:0:0:
192,192,64439,1,0,0:0:0:0:
320,192,64485,1,0,0:0:0:0:
64,192,64533,1,0,0:0:0:0:
320,192,64625,1,0,0:0:0:0:
64,192,64765,1,0,0:0:0:0:
448,192,64765,1,0,0:0:0:0:
320,192,64813,1,0,0:0:0:0:
192,192,64905,1,0,0:0:0:0:
448,192,64953,1,0,0:0:0:0:
64,192,65045,1,0,0:0:0:0:
192,192,65093,1,0,0:0:0:0:
320,192,65185,1,0,0:0:0:0:
448,192,65185,1,0,0:0:0:0:
64,192,65227,1,0,0:0:0:0:
192,192,65268,1,0,0:0:0:0:
448,192,65309,1,0,0:0:0:0:
320,192,65349,1,0,0:0:0:0:
64,192,65390,1,0,0:0:0:0:
192,192,65465,1,0,0:0:0:0:
64,192,65606,1,0,0:0:0:0:
448,192,65606,1,0,0:0:0:0:
320,192,65647,1,0,0:0:0:0:
192,192,65688,1,0,0:0:0:0:
448,192,65729,1,0,0:0:0:0:
64,192,65769,1,0,0:0:0:0:
320,192,65810,1,0,0:0:0:0:
448,192,65886,1,0,0:0:0:0:
64,192,66026,1,0,0:0:0:0:
192,192,66026,1,0,0:0:0:0:
448,192,66166,1,0,0:0:0:0:
192,192,66306,1,0,0:0:0:0:
64,192,66446,1,0,0:0:0:0:
448,192,66446,1,0,0:0:0:0:
320,192,66493,1,0,0:0:0:0:
192,192,66586,1,0,0:0:0:0:
448,192,66633,1,0,0:0:0:0:
192,192,66726,1,0,0:0:0:0:
64,192,66773,1,0,0:0:0:0:
320,192,66866,1,0,0:0:0:0:
448,192,66866,1,0,0:0:0:0:
64,192,66913,1,0,0:0:0:0:
320,192,66960,1,0,0:0:0:0:
192,192,67006,1,0,0:0:0:0:
448,192,67053,1,0,0:0:0:0:
192,192,67146,1,0,0:0:0:0:
64,192,67286,1,0,0:0:0:0:
448,192,67286,1,0,0:0:0:0:
192,192,67333,1,0,0:0:0:0:
320,192,67426,1,0,0:0:0:0:
64,192,67473,1,0,0:0:0:0:
320,192,67566,1,0,0:0:0:0:
448,192,67613,1,0,0:0:0:0:
64,192,67706,1,0,0:0:0:0:
192,192,67706,1,0,0:0:0:0:
448,192,67753,1,0,0:0:0:0:
192,192,67800,1,0,0:0:0:0:
320,192,67846,1,0,0:0:0:0:
64,192,67893,1,0,0:0:0:0:
320,192,67987,1,0,0:0:0:0:
64,192,68127,1,0,0:0:0:0:
448,192,68127,1,0,0:0:0:0:
320,192,68174,1,0,0:0:0:0:
192,192,68267,1,0,0:0:0:0:
320,192,68314,1,0,0:0:0:0:
192,192,68407,1,0,0:0:0:0:
64,192,68454,1,0,0:0:0:0:
320,192,68547,1,0,0:0:0:0:
448,192,68547,1,0,0:0:0:0:
64,192,68589,1,0,0:0:0:0:
192,192,68629,1,0,0:0:0:0:
448,192,68670,1,0,0:0:0:0:
320,192,68711,1,0,0:0:0:0:
192,192,68827,1,0,0:0:0:0:
64,192,68967,1,0,0:0:0:0:
448,192,68967,1,0,0:0:0:0:
320,192,69009,1,0,0:0:0:0:
192,192,69049,1,0,0:0:0:0:
448,192,69090,1,0,0:0:0:0:
64,192,69131,1,0,0:0:0:0:
192,192,69247,1,0,0:0:0:0:
320,192,69387,1,0,0:0:0:0:
448,192,69387,1,0,0:0:0:0:
192,192,69527,1,0,0:0:0:0:
320,192,69667,1,0,0:0:0:0:
64,192,69807,1,0,0:0:0:0:
448,192,69807,1,0,0:0:0:0:
192,192,69854,1,0,0:0:0:0:
320,192,69947,1,0,0:0:0:0:
64,192,69995,1,0,0:0:0:0:
448,192,70087,1,0,0:0:0:0:
320,192,70135,1,0,0:0:0:0:
64,192,70227,1,0,0:0:0:0:
192,192,70227,1,0,0:0:0:0:
448,192,70275,1,0,0:0:0:0:
64,192,70322,1,0,0:0:0:0:
320,192,70367,1,0,0:0:0:0:
448,192,70437,1,0,0:0:0:0:
192,192,70508,1,0,0:0:0:0:
320,192,70602,1,0,0:0:0:0:
64,192,70648,1,0,0:0:0:0:
448,192,70648,1,0,0:0:0:0:
320,192,70788,1,0,0:0:0:0:
64,192,70928,1,0,0:0:0:0:
320,192,71068,1,0,0:0:0:0:
448,192,71068,1,0,0:0:0:0:
192,192,71208,1,0,0:0:0:0:
320,192,71348,1,0,0:0:0:0:
192,192,71383,1,0,0:0:0:0:
64,192,71488,1,0,0:0:0:0:
448,192,71488,1,0,0:0:0:0:
192,192,71523,1,0,0:0:0:0:
320,192,71628,1,0,0:0:0:0:
448,192,71663,1,0,0:0:0:0:
64,192,71768,1,0,0:0:0:0:
320,192,71815,1,0,0:0:0:0:
64,192,71908,1,0,0:0:0:0:
192,192,71908,1,0,0:0:0:0:
448,192,71943,1,0,0:0:0:0:
64,192,72002,1,0,0:0:0:0:
320,192,72048,1,0,0:0:0:0:
448,192,72118,1,0,0:0:0:0:
192,192,72188,1,0,0:0:0:0:
320,192,72223,1,0,0:0:0:0:
64,192,72328,1,0,0:0:0:0:
448,192,72328,1,0,0:0:0:0:
320,192,72468,1,0,0:0:0:0:
448,192,72503,1,0,0:0:0:0:
64,192,72608,1,0,0:0:0:0:
320,192,72748,1,0,0:0:0:0:
448,192,72748,1,0,0:0:0:0:
64,192,72783,1,0,0:0:0:0:
192,192,72888,1,0,0:0:0:0:
448,192,72958,1,0,0:0:0:0:
320,192,73029,1,0,0:0:0:0:
192,192,73099,1,0,0:0:0:0:
64,192,73169,1,0,0:0:0:0:
448,192,73169,1,0,0:0:0:0:
192,192,73309,1,0,0:0:0:0:
448,192,73449,1,0,0:0:0:0:
64,192,73589,1,0,0:0:0:0:
192,192,73589,128,0,73636:0:0:0:0:
320,192,73636,128,0,73683:0:0:0:0:
448,192,73683,128,0,73729:0:0:0:0:
64,192,73729,1,0,0:0:0:0:
192,192,73869,1,0,0:0:0:0:
64,192,74009,1,0,0:0:0:0:
448,192,74009,128,0,74149:0:0:0:0:
320,192,74056,1,0,0:0:0:0:
320,192,74149,128,0,74289:0:0:0:0:
64,192,74197,1,0,0:0:0:0:
64,192,74289,128,0,74709:0:0:0:0:
192,192,74337,1,0,0:0:0:0:
320,192,74429,1,0,0:0:0:0:
448,192,74429,1,0,0:0:0:0:
192,192,74569,1,0,0:0:0:0:
320,192,74709,1,0,0:0:0:0:
64,192,74849,1,0,0:0:0:0:
448,192,74849,1,0,0:0:0:0:
320,192,74989,1,0,0:0:0:0:
448,192,75083,1,0,0:0:0:0:
192,192,75129,1,0,0:0:0:0:
64,192,75177,1,0,0:0:0:0:
320,192,75269,1,0,0:0:0:0:
448,192,75269,1,0,0:0:0:0:
64,192,75317,1,0,0:0:0:0:
192,192,75363,1,0,0:0:0:0:
448,192,75409,1,0,0:0:0:0:
64,192,75550,1,0,0:0:0:0:
192,192,75597,1,0,0:0:0:0:
320,192,75643,1,0,0:0:0:0:
64,192,75690,1,0,0:0:0:0:
448,192,75690,1,0,0:0:0:0:
320,192,75830,1,0,0:0:0:0:
192,192,75877,1,0,0:0:0:0:
64,192,75923,1,0,0:0:0:0:
448,192,75970,1,0,0:0:0:0:
64,192,76110,1,0,0:0:0:0:
192,192,76110,1,0,0:0:0:0:
448,192,76157,1,0,0:0:0:0:
320,192,76203,1,0,0:0:0:0:
192,192,76250,1,0,0:0:0:0:
64,192,76298,1,0,0:0:0:0:
448,192,76344,1,0,0:0:0:0:
320,192,76390,1,0,0:0:0:0:
192,192,76438,1,0,0:0:0:0:
64,192,76530,1,0,0:0:0:0:
448,192,76530,1,0,0:0:0:0:
320,192,76600,1,0,0:0:0:0:
64,192,76670,1,0,0:0:0:0:
448,192,76810,1,0,0:0:0:0:
64,192,76858,1,0,0:0:0:0:
192,192,76904,1,0,0:0:0:0:
320,192,76950,1,0,0:0:0:0:
448,192,76950,1,0,0:0:0:0:
64,192,76998,1,0,0:0:0:0:
192,192,77090,1,0,0:0:0:0:
320,192,77230,1,0,0:0:0:0:
64,192,77370,1,0,0:0:0:0:
448,192,77370,1,0,0:0:0:0:
192,192,77510,1,0,0:0:0:0:
448,192,77650,1,0,0:0:0:0:
64,192,77790,1,0,0:0:0:0:
192,192,77790,1,0,0:0:0:0:
320,192,77838,1,0,0:0:0:0:
448,192,77884,1,0,0:0:0:0:
192,192,77930,1,0,0:0:0:0:
448,192,78071,1,0,0:0:0:0:
320,192,78118,1,0,0:0:0:0:
192,192,78164,1,0,0:0:0:0:
64,192,78211,1,0,0:0:0:0:
448,192,78211,1,0,0:0:0:0:
192,192,78351,1,0,0:0:0:0:
320,192,78399,1,0,0:0:0:0:
448,192,78445,1,0,0:0:0:0:
64,192,78491,1,0,0:0:0:0:
320,192,78631,1,0,0:0:0:0:
448,192,78631,1,0,0:0:0:0:
64,192,78679,1,0,0:0:0:0:
320,192,78725,1,0,0:0:0:0:
192,192,78771,1,0,0:0:0:0:
64,192,78911,1,0,0:0:0:0:
320,192,78959,1,0,0:0:0:0:
192,192,79005,1,0,0:0:0:0:
64,192,79051,1,0,0:0:0:0:
448,192,79051,1,0,0:0:0:0:
320,192,79191,1,0,0:0:0:0:
192,192,79261,1,0,0:0:0:0:
448,192,79331,1,0,0:0:0:0:
64,192,79471,1,0,0:0:0:0:
192,192,79471,1,0,0:0:0:0:
448,192,79513,1,0,0:0:0:0:
320,192,79553,1,0,0:0:0:0:
64,192,79594,1,0,0:0:0:0:
448,192,79635,1,0,0:0:0:0:
192,192,79676,1,0,0:0:0:0:
64,192,79716,1,0,0:0:0:0:
448,192,79751,1,0,0:0:0:0:
320,192,79793,1,0,0:0:0:0:
192,192,79833,1,0,0:0:0:0:
64,192,79891,1,0,0:0:0:0:
448,192,79891,1,0,0:0:0:0:
320,192,79961,1,0,0:0:0:0:
192,192,80031,1,0,0:0:0:0:
448,192,80171,1,0,0:0:0:0:
192,192,80219,1,0,0:0:0:0:
64,192,80265,1,0,0:0:0:0:
320,192,80311,1,0,0:0:0:0:
448,192,80311,1,0,0:0:0:0:
192,192,80359,1,0,0:0:0:0:
320,192,80405,1,0,0:0:0:0:
64,192,80459,1,0,0:0:0:0:
448,192,80505,1,0,0:0:0:0:
192,192,80552,1,0,0:0:0:0:
320,192,80600,1,0,0:0:0:0:
64,192,80732,1,0,0:0:0:0:
448,192,80732,1,0,0:0:0:0:
192,192,80872,1,0,0:0:0:0:
448,192,81012,1,0,0:0:0:0:
320,192,81059,1,0,0:0:0:0:
64,192,81152,1,0,0:0:0:0:
192,192,81152,1,0,0:0:0:0:
320,192,81199,1,0,0:0:0:0:
448,192,81246,1,0,0:0:0:0:
64,192,81292,1,0,0:0:0:0:
448,192,81432,1,0,0:0:0:0:
320,192,81479,1,0,0:0:0:0:
192,192,81526,1,0,0:0:0:0:
64,192,81572,1,0,0:0:0:0:
448,192,81572,1,0,0:0:0:0:
320,192,81712,1,0,0:0:0:0:
448,192,81759,1,0,0:0:0:0:
192,192,81806,1,0,0:0:0:0:
64,192,81852,1,0,0:0:0:0:
320,192,81992,1,0,0:0:0:0:
448,192,81992,1,0,0:0:0:0:
192,192,82039,1,0,0:0:0:0:
448,192,82086,1,0,0:0:0:0:
320,192,82132,1,0,0:0:0:0:
64,192,82272,1,0,0:0:0:0:
192,192,82319,1,0,0:0:0:0:
320,192,82366,1,0,0:0:0:0:
64,192,82412,1,0,0:0:0:0:
448,192,82412,1,0,0:0:0:0:
192,192,82552,1,0,0:0:0:0:
320,192,82622,1,0,0:0:0:0:
448,192,82692,1,0,0:0:0:0:
64,192,82832,1,0,0:0:0:0:
192,192,82832,1,0,0:0:0:0:
320,192,82874,1,0,0:0:0:0:
448,192,82915,1,0,0:0:0:0:
64,192,82956,1,0,0:0:0:0:
192,192,82997,1,0,0:0:0:0:
320,192,83038,1,0,0:0:0:0:
64,192,83078,1,0,0:0:0:0:
448,192,83113,1,0,0:0:0:0:
192,192,83154,1,0,0:0:0:0:
320,192,83195,1,0,0:0:0:0:
64,192,83253,1,0,0:0:0:0:
448,192,83253,1,0,0:0:0:0:
192,192,83323,1,0,0:0:0:0:
320,192,83393,1,0,0:0:0:0:
448,192,83533,1,0,0:0:0:0:
64,192,83580,1,0,0:0:0:0:
192,192,83627,1,0,0:0:0:0:
320,192,83673,1,0,0:0:0:0:
448,192,83673,1,0,0:0:0:0:
64,192,83720,1,0,0:0:0:0:
192,192,83813,1,0,0:0:0:0:
320,192,83953,1,0,0:0:0:0:
64,192,84093,1,0,0:0:0:0:
448,192,84093,1,0,0:0:0:0:
192,192,84233,1,0,0:0:0:0:
448,192,84373,1,0,0:0:0:0:
64,192,84513,1,0,0:0:0:0:
192,192,84513,1,0,0:0:0:0:
320,192,84560,1,0,0:0:0:0:
448,192,84608,1,0,0:0:0:0:
192,192,84653,1,0,0:0:0:0:
448,192,84793,1,0,0:0:0:0:
320,192,84841,1,0,0:0:0:0:
192,192,84888,1,0,0:0:0:0:
64,192,84933,1,0,0:0:0:0:
448,192,84933,1,0,0:0:0:0:
320,192,85073,1,0,0:0:0:0:
448,192,85121,1,0,0:0:0:0:
192,192,85168,1,0,0:0:0:0:
64,192,85213,1,0,0:0:0:0:
320,192,85353,1,0,0:0:0:0:
448,192,85353,1,0,0:0:0:0:
64,192,85388,1,0,0:0:0:0:
320,192,85448,1,0,0:0:0:0:
192,192,85494,1,0,0:0:0:0:
64,192,85634,1,0,0:0:0:0:
192,192,85669,1,0,0:0:0:0:
320,192,85728,1,0,0:0:0:0:
64,192,85774,1,0,0:0:0:0:
448,192,85774,1,0,0:0:0:0:
320,192,85914,1,0,0:0:0:0:
192,192,85949,1,0,0:0:0:0:
448,192,86054,1,0,0:0:0:0:
64,192,86194,128,0,87454:0:0:0:0:
192,192,86194,1,0,0:0:0:0:
320,192,86229,1,0,0:0:0:0:
448,192,86264,1,0,0:0:0:0:
192,192,86334,1,0,0:0:0:0:
320,192,86381,1,0,0:0:0:0:
448,192,86474,1,0,0:0:0:0:
192,192,86614,1,0,0:0:0:0:
320,192,86614,1,0,0:0:0:0:
448,192,86754,1,0,0:0:0:0:
192,192,86894,1,0,0:0:0:0:
320,192,87034,1,0,0:0:0:0:
448,192,87034,1,0,0:0:0:0:
192,192,87174,1,0,0:0:0:0:
320,192,87314,1,0,0:0:0:0:
448,192,87454,128,0,87594:0:0:0:0:
320,192,87502,1,0,0:0:0:0:
320,192,87594,128,0,87734:0:0:0:0:
64,192,87642,1,0,0:0:0:0:
64,192,87734,128,0,90536:0:0:0:0:
192,192,87782,1,0,0:0:0:0:
448,192,89135,128,0,90536:0:0:0:0:
192,192,89275,128,0,90536:0:0:0:0:
320,192,89415,128,0,90536:0:0:0:0:
320,192,90629,128,0,91050:0:0:0:0:
64,192,90816,1,0,0:0:0:0:
192,192,90816,1,0,0:0:0:0:
448,192,90816,1,0,0:0:0:0:
448,192,91050,128,0,91236:0:0:0:0:
64,192,91236,1,0,0:0:0:0:
192,192,91236,1,0,0:0:0:0:
320,192,91271,1,0,0:0:0:0:
192,192,91330,1,0,0:0:0:0:
448,192,91376,1,0,0:0:0:0:
448,192,91516,1,0,0:0:0:0:
192,192,91551,1,0,0:0:0:0:
448,192,91610,1,0,0:0:0:0:
64,192,91656,1,0,0:0:0:0:
320,192,91656,1,0,0:0:0:0:
448,192,91726,1,0,0:0:0:0:
192,192,91796,1,0,0:0:0:0:
192,192,91936,1,0,0:0:0:0:
320,192,92076,1,0,0:0:0:0:
448,192,92076,1,0,0:0:0:0:
64,192,92216,1,0,0:0:0:0:
64,192,92356,1,0,0:0:0:0:
320,192,92391,1,0,0:0:0:0:
192,192,92496,1,0,0:0:0:0:
448,192,92496,1,0,0:0:0:0:
64,192,92531,1,0,0:0:0:0:
192,192,92590,1,0,0:0:0:0:
320,192,92636,1,0,0:0:0:0:
320,192,92776,1,0,0:0:0:0:
64,192,92916,1,0,0:0:0:0:
192,192,92916,1,0,0:0:0:0:
320,192,92964,1,0,0:0:0:0:
64,192,93011,1,0,0:0:0:0:
448,192,93057,1,0,0:0:0:0:
320,192,93197,1,0,0:0:0:0:
192,192,93244,1,0,0:0:0:0:
320,192,93291,1,0,0:0:0:0:
64,192,93337,1,0,0:0:0:0:
448,192,93337,1,0,0:0:0:0:
192,192,93477,1,0,0:0:0:0:
192,192,93617,1,0,0:0:0:0:
320,192,93757,1,0,0:0:0:0:
448,192,93757,1,0,0:0:0:0:
64,192,93792,1,0,0:0:0:0:
448,192,93851,1,0,0:0:0:0:
192,192,93897,1,0,0:0:0:0:
192,192,94037,1,0,0:0:0:0:
320,192,94072,1,0,0:0:0:0:
192,192,94131,1,0,0:0:0:0:
64,192,94177,1,0,0:0:0:0:
448,192,94177,1,0,0:0:0:0:
320,192,94317,1,0,0:0:0:0:
320,192,94457,1,0,0:0:0:0:
64,192,94597,1,0,0:0:0:0:
192,192,94597,1,0,0:0:0:0:
320,192,94644,1,0,0:0:0:0:
64,192,94691,1,0,0:0:0:0:
448,192,94737,1,0,0:0:0:0:
320,192,94877,1,0,0:0:0:0:
192,192,94912,1,0,0:0:0:0:
448,192,94947,1,0,0:0:0:0:
64,192,95017,1,0,0:0:0:0:
320,192,95017,1,0,0:0:0:0:
192,192,95157,1,0,0:0:0:0:
448,192,95192,1,0,0:0:0:0:
320,192,95227,1,0,0:0:0:0:
192,192,95297,1,0,0:0:0:0:
320,192,95437,1,0,0:0:0:0:
448,192,95437,1,0,0:0:0:0:
192,192,95472,1,0,0:0:0:0:
64,192,95508,1,0,0:0:0:0:
320,192,95578,1,0,0:0:0:0:
192,192,95718,1,0,0:0:0:0:
64,192,95753,1,0,0:0:0:0:
320,192,95788,1,0,0:0:0:0:
192,192,95858,128,0,95998:0:0:0:0:
448,192,95858,1,0,0:0:0:0:
320,192,95998,1,0,0:0:0:0:
448,192,96033,1,0,0:0:0:0:
64,192,96068,1,0,0:0:0:0:
320,192,96138,1,0,0:0:0:0:
64,192,96278,1,0,0:0:0:0:
192,192,96278,1,0,0:0:0:0:
448,192,96313,1,0,0:0:0:0:
64,192,96372,1,0,0:0:0:0:
320,192,96418,1,0,0:0:0:0:
320,192,96558,1,0,0:0:0:0:
448,192,96593,1,0,0:0:0:0:
192,192,96652,1,0,0:0:0:0:
64,192,96698,1,0,0:0:0:0:
448,192,96698,1,0,0:0:0:0:
320,192,96768,1,0,0:0:0:0:
192,192,96838,1,0,0:0:0:0:
448,192,96885,1,0,0:0:0:0:
192,192,96978,1,0,0:0:0:0:
320,192,97118,1,0,0:0:0:0:
448,192,97118,1,0,0:0:0:0:
64,192,97160,1,0,0:0:0:0:
192,192,97201,1,0,0:0:0:0:
448,192,97242,1,0,0:0:0:0:
64,192,97283,1,0,0:0:0:0:
192,192,97398,1,0,0:0:0:0:
448,192,97440,1,0,0:0:0:0:
320,192,97481,1,0,0:0:0:0:
64,192,97522,1,0,0:0:0:0:
192,192,97563,1,0,0:0:0:0:
448,192,97563,1,0,0:0:0:0:
320,192,97678,1,0,0:0:0:0:
64,192,97726,1,0,0:0:0:0:
320,192,97773,1,0,0:0:0:0:
448,192,97818,1,0,0:0:0:0:
64,192,97958,1,0,0:0:0:0:
192,192,97958,1,0,0:0:0:0:
320,192,98006,1,0,0:0:0:0:
64,192,98053,1,0,0:0:0:0:
448,192,98099,1,0,0:0:0:0:
448,192,98239,1,0,0:0:0:0:
64,192,98286,1,0,0:0:0:0:
448,192,98333,1,0,0:0:0:0:
192,192,98379,1,0,0:0:0:0:
320,192,98379,1,0,0:0:0:0:
64,192,98519,1,0,0:0:0:0:
64,192,98659,1,0,0:0:0:0:
320,192,98799,1,0,0:0:0:0:
448,192,98799,1,0,0:0:0:0:
192,192,98939,1,0,0:0:0:0:
320,192,99079,1,0,0:0:0:0:
64,192,99219,1,0,0:0:0:0:
448,192,99219,1,0,0:0:0:0:
192,192,99254,1,0,0:0:0:0:
64,192,99313,1,0,0:0:0:0:
320,192,99359,1,0,0:0:0:0:
320,192,99499,1,0,0:0:0:0:
448,192,99534,1,0,0:0:0:0:
64,192,99639,1,0,0:0:0:0:
192,192,99639,1,0,0:0:0:0:
448,192,99674,1,0,0:0:0:0:
64,192,99733,1,0,0:0:0:0:
320,192,99779,1,0,0:0:0:0:
320,192,99919,1,0,0:0:0:0:
192,192,99967,1,0,0:0:0:0:
320,192,100013,1,0,0:0:0:0:
64,192,100059,1,0,0:0:0:0:
448,192,100059,1,0,0:0:0:0:
192,192,100094,1,0,0:0:0:0:
320,192,100199,1,0,0:0:0:0:
192,192,100339,1,0,0:0:0:0:
320,192,100480,1,0,0:0:0:0:
448,192,100480,1,0,0:0:0:0:
64,192,100515,1,0,0:0:0:0:
448,192,100573,1,0,0:0:0:0:
192,192,100620,1,0,0:0:0:0:
192,192,100760,1,0,0:0:0:0:
64,192,100900,1,0,0:0:0:0:
448,192,100900,1,0,0:0:0:0:
192,192,100935,1,0,0:0:0:0:
448,192,100993,1,0,0:0:0:0:
320,192,101040,1,0,0:0:0:0:
448,192,101180,1,0,0:0:0:0:
192,192,101215,1,0,0:0:0:0:
64,192,101274,1,0,0:0:0:0:
320,192,101320,1,0,0:0:0:0:
448,192,101320,1,0,0:0:0:0:
192,192,101368,1,0,0:0:0:0:
320,192,101414,1,0,0:0:0:0:
64,192,101460,1,0,0:0:0:0:
448,192,101508,1,0,0:0:0:0:
320,192,101554,1,0,0:0:0:0:
192,192,101600,1,0,0:0:0:0:
64,192,101648,1,0,0:0:0:0:
448,192,101694,1,0,0:0:0:0:
192,192,101740,1,0,0:0:0:0:
320,192,101740,1,0,0:0:0:0:
64,192,101788,1,0,0:0:0:0:
192,192,101834,1,0,0:0:0:0:
448,192,101880,128,0,101928:0:0:0:0:
320,192,101915,1,0,0:0:0:0:
320,192,102020,128,0,102068:0:0:0:0:
448,192,102055,1,0,0:0:0:0:
320,192,102160,1,0,0:0:0:0:
448,192,102160,128,0,102208:0:0:0:0:
64,192,102195,1,0,0:0:0:0:
192,192,102230,1,0,0:0:0:0:
320,192,102265,1,0,0:0:0:0:
448,192,102440,128,0,102488:0:0:0:0:
320,192,102475,1,0,0:0:0:0:
192,192,102510,1,0,0:0:0:0:
64,192,102580,1,0,0:0:0:0:
448,192,102580,1,0,0:0:0:0:
320,192,102720,128,0,102768:0:0:0:0:
192,192,102755,1,0,0:0:0:0:
64,192,102790,1,0,0:0:0:0:
320,192,102860,1,0,0:0:0:0:
448,192,102895,1,0,0:0:0:0:
64,192,103001,1,0,0:0:0:0:
192,192,103001,1,0,0:0:0:0:
320,192,103036,1,0,0:0:0:0:
448,192,103141,1,0,0:0:0:0:
448,192,103281,1,0,0:0:0:0:
192,192,103421,1,0,0:0:0:0:
320,192,103421,1,0,0:0:0:0:
448,192,103456,1,0,0:0:0:0:
64,192,103561,128,0,103609:0:0:0:0:
192,192,103596,1,0,0:0:0:0:
192,192,103701,128,0,103749:0:0:0:0:
64,192,103736,1,0,0:0:0:0:
448,192,103841,128,0,103889:0:0:0:0:
320,192,103876,1,0,0:0:0:0:
192,192,103911,1,0,0:0:0:0:
64,192,103981,1,0,0:0:0:0:
448,192,104029,1,0,0:0:0:0:
192,192,104075,1,0,0:0:0:0:
320,192,104121,128,0,104169:0:0:0:0:
64,192,104156,1,0,0:0:0:0:
448,192,104191,1,0,0:0:0:0:
192,192,104261,1,0,0:0:0:0:
320,192,104309,1,0,0:0:0:0:
64,192,104355,1,0,0:0:0:0:
448,192,104401,128,0,104449:0:0:0:0:
320,192,104436,1,0,0:0:0:0:
192,192,104471,1,0,0:0:0:0:
64,192,104541,1,0,0:0:0:0:
448,192,104589,1,0,0:0:0:0:
64,192,104635,1,0,0:0:0:0:
320,192,104681,1,0,0:0:0:0:
448,192,104681,1,0,0:0:0:0:
192,192,104729,1,0,0:0:0:0:
320,192,104775,1,0,0:0:0:0:
64,192,104821,1,0,0:0:0:0:
64,192,104961,1,0,0:0:0:0:
320,192,105009,1,0,0:0:0:0:
64,192,105055,1,0,0:0:0:0:
192,192,105101,1,0,0:0:0:0:
448,192,105101,1,0,0:0:0:0:
64,192,105171,1,0,0:0:0:0:
320,192,105241,1,0,0:0:0:0:
320,192,105381,1,0,0:0:0:0:
64,192,105522,1,0,0:0:0:0:
192,192,105522,1,0,0:0:0:0:
448,192,105662,1,0,0:0:0:0:
448,192,105802,1,0,0:0:0:0:
64,192,105942,1,0,0:0:0:0:
320,192,105942,128,0,106082:0:0:0:0:
448,192,105977,1,0,0:0:0:0:
448,192,106082,1,0,0:0:0:0:
192,192,106117,1,0,0:0:0:0:
192,192,106222,1,0,0:0:0:0:
64,192,106257,1,0,0:0:0:0:
320,192,106362,1,0,0:0:0:0:
448,192,106362,1,0,0:0:0:0:
192,192,106409,1,0,0:0:0:0:
448,192,106456,1,0,0:0:0:0:
64,192,106502,1,0,0:0:0:0:
192,192,106642,1,0,0:0:0:0:
320,192,106689,1,0,0:0:0:0:
192,192,106736,1,0,0:0:0:0:
64,192,106782,1,0,0:0:0:0:
448,192,106782,1,0,0:0:0:0:
320,192,106922,1,0,0:0:0:0:
320,192,107062,1,0,0:0:0:0:
64,192,107202,1,0,0:0:0:0:
192,192,107202,1,0,0:0:0:0:
448,192,107249,1,0,0:0:0:0:
64,192,107296,1,0,0:0:0:0:
320,192,107342,1,0,0:0:0:0:
320,192,107482,1,0,0:0:0:0:
192,192,107530,1,0,0:0:0:0:
320,192,107577,1,0,0:0:0:0:
64,192,107622,1,0,0:0:0:0:
448,192,107622,1,0,0:0:0:0:
192,192,107657,1,0,0:0:0:0:
192,192,107762,1,0,0:0:0:0:
320,192,107797,1,0,0:0:0:0:
64,192,107902,1,0,0:0:0:0:
192,192,107937,1,0,0:0:0:0:
320,192,108043,1,0,0:0:0:0:
448,192,108043,1,0,0:0:0:0:
192,192,108090,1,0,0:0:0:0:
448,192,108137,1,0,0:0:0:0:
64,192,108183,1,0,0:0:0:0:
64,192,108323,1,0,0:0:0:0:
320,192,108370,1,0,0:0:0:0:
64,192,108417,1,0,0:0:0:0:
192,192,108463,1,0,0:0:0:0:
448,192,108463,1,0,0:0:0:0:
64,192,108533,1,0,0:0:0:0:
320,192,108603,1,0,0:0:0:0:
320,192,108743,1,0,0:0:0:0:
64,192,108883,1,0,0:0:0:0:
192,192,108883,1,0,0:0:0:0:
448,192,109023,1,0,0:0:0:0:
448,192,109163,1,0,0:0:0:0:
64,192,109303,1,0,0:0:0:0:
320,192,109303,1,0,0:0:0:0:
448,192,109350,1,0,0:0:0:0:
320,192,109397,1,0,0:0:0:0:
192,192,109443,1,0,0:0:0:0:
192,192,109583,1,0,0:0:0:0:
320,192,109723,1,0,0:0:0:0:
448,192,109723,1,0,0:0:0:0:
64,192,109758,1,0,0:0:0:0:
448,192,109818,1,0,0:0:0:0:
192,192,109863,1,0,0:0:0:0:
192,192,110003,1,0,0:0:0:0:
64,192,110038,1,0,0:0:0:0:
320,192,110098,1,0,0:0:0:0:
64,192,110143,1,0,0:0:0:0:
448,192,110143,1,0,0:0:0:0:
192,192,110213,1,0,0:0:0:0:
320,192,110283,1,0,0:0:0:0:
64,192,110318,1,0,0:0:0:0:
320,192,110423,1,0,0:0:0:0:
64,192,110564,1,0,0:0:0:0:
192,192,110564,1,0,0:0:0:0:
448,192,110599,1,0,0:0:0:0:
320,192,110646,1,0,0:0:0:0:
64,192,110687,1,0,0:0:0:0:
448,192,110728,1,0,0:0:0:0:
320,192,110844,1,0,0:0:0:0:
64,192,110879,1,0,0:0:0:0:
192,192,110926,1,0,0:0:0:0:
448,192,110967,1,0,0:0:0:0:
64,192,111008,1,0,0:0:0:0:
320,192,111008,1,0,0:0:0:0:
192,192,111124,1,0,0:0:0:0:
448,192,111159,1,0,0:0:0:0:
192,192,111218,1,0,0:0:0:0:
64,192,111264,1,0,0:0:0:0:
320,192,111404,1,0,0:0:0:0:
448,192,111404,1,0,0:0:0:0:
192,192,111439,1,0,0:0:0:0:
448,192,111498,1,0,0:0:0:0:
64,192,111544,1,0,0:0:0:0:
64,192,111684,1,0,0:0:0:0:
448,192,111719,1,0,0:0:0:0:
64,192,111779,1,0,0:0:0:0:
192,192,111824,1,0,0:0:0:0:
320,192,111824,1,0,0:0:0:0:
448,192,111964,1,0,0:0:0:0:
448,192,112104,1,0,0:0:0:0:
64,192,112244,1,0,0:0:0:0:
192,192,112244,1,0,0:0:0:0:
320,192,112384,1,0,0:0:0:0:
192,192,112524,1,0,0:0:0:0:
64,192,112664,1,0,0:0:0:0:
448,192,112664,1,0,0:0:0:0:
320,192,112712,1,0,0:0:0:0:
448,192,112759,1,0,0:0:0:0:
192,192,112804,1,0,0:0:0:0:
192,192,112944,1,0,0:0:0:0:
320,192,113085,1,0,0:0:0:0:
448,192,113085,1,0,0:0:0:0:
64,192,113120,1,0,0:0:0:0:
448,192,113179,1,0,0:0:0:0:
192,192,113225,1,0,0:0:0:0:
192,192,113365,1,0,0:0:0:0:
320,192,113400,1,0,0:0:0:0:
192,192,113459,1,0,0:0:0:0:
64,192,113505,1,0,0:0:0:0:
448,192,113505,1,0,0:0:0:0:
320,192,113645,1,0,0:0:0:0:
320,192,113785,1,0,0:0:0:0:
64,192,113925,1,0,0:0:0:0:
192,192,113925,1,0,0:0:0:0:
448,192,113960,1,0,0:0:0:0:
64,192,114019,1,0,0:0:0:0:
320,192,114065,1,0,0:0:0:0:
320,192,114205,1,0,0:0:0:0:
64,192,114345,1,0,0:0:0:0:
448,192,114345,1,0,0:0:0:0:
320,192,114380,1,0,0:0:0:0:
64,192,114439,1,0,0:0:0:0:
192,192,114485,1,0,0:0:0:0:
320,192,114625,1,0,0:0:0:0:
192,192,114660,1,0,0:0:0:0:
64,192,114719,1,0,0:0:0:0:
320,192,114765,1,0,0:0:0:0:
448,192,114765,1,0,0:0:0:0:
192,192,114813,1,0,0:0:0:0:
320,192,114859,1,0,0:0:0:0:
64,192,114905,1,0,0:0:0:0:
448,192,114953,1,0,0:0:0:0:
320,192,114999,1,0,0:0:0:0:
192,192,115045,1,0,0:0:0:0:
64,192,115093,1,0,0:0:0:0:
448,192,115139,1,0,0:0:0:0:
192,192,115185,1,0,0:0:0:0:
320,192,115185,1,0,0:0:0:0:
64,192,115233,1,0,0:0:0:0:
192,192,115279,1,0,0:0:0:0:
448,192,115325,128,0,115373:0:0:0:0:
320,192,115360,1,0,0:0:0:0:
64,192,115419,1,0,0:0:0:0:
320,192,115465,128,0,115513:0:0:0:0:
448,192,115501,1,0,0:0:0:0:
320,192,115606,1,0,0:0:0:0:
448,192,115606,128,0,115653:0:0:0:0:
64,192,115641,1,0,0:0:0:0:
192,192,115676,1,0,0:0:0:0:
320,192,115711,1,0,0:0:0:0:
64,192,115793,1,0,0:0:0:0:
192,192,115840,1,0,0:0:0:0:
448,192,115886,128,0,115933:0:0:0:0:
320,192,115921,1,0,0:0:0:0:
192,192,115956,1,0,0:0:0:0:
64,192,116026,1,0,0:0:0:0:
448,192,116026,1,0,0:0:0:0:
320,192,116166,128,0,116213:0:0:0:0:
192,192,116201,1,0,0:0:0:0:
64,192,116236,1,0,0:0:0:0:
320,192,116306,1,0,0:0:0:0:
64,192,116446,1,0,0:0:0:0:
192,192,116446,1,0,0:0:0:0:
192,192,116586,1,0,0:0:0:0:
192,192,116726,1,0,0:0:0:0:
64,192,116866,1,0,0:0:0:0:
448,192,116866,1,0,0:0:0:0:
64,192,117006,128,0,117053:0:0:0:0:
192,192,117041,1,0,0:0:0:0:
192,192,117146,128,0,117193:0:0:0:0:
64,192,117181,1,0,0:0:0:0:
64,192,117286,1,0,0:0:0:0:
448,192,117286,128,0,117333:0:0:0:0:
320,192,117321,1,0,0:0:0:0:
192,192,117356,1,0,0:0:0:0:
64,192,117426,1,0,0:0:0:0:
448,192,117473,1,0,0:0:0:0:
192,192,117520,1,0,0:0:0:0:
320,192,117566,128,0,117613:0:0:0:0:
64,192,117601,1,0,0:0:0:0:
448,192,117636,1,0,0:0:0:0:
192,192,117706,1,0,0:0:0:0:
320,192,117753,1,0,0:0:0:0:
64,192,117800,1,0,0:0:0:0:
448,192,117846,128,0,117893:0:0:0:0:
320,192,117881,1,0,0:0:0:0:
192,192,117916,1,0,0:0:0:0:
64,192,117987,1,0,0:0:0:0:
448,192,118034,1,0,0:0:0:0:
192,192,118081,1,0,0:0:0:0:
320,192,118127,1,0,0:0:0:0:
448,192,118127,1,0,0:0:0:0:
64,192,118174,1,0,0:0:0:0:
320,192,118221,1,0,0:0:0:0:
192,192,118267,1,0,0:0:0:0:
320,192,118337,1,0,0:0:0:0:
192,192,118407,1,0,0:0:0:0:
448,192,118477,1,0,0:0:0:0:
64,192,118547,1,0,0:0:0:0:
320,192,118547,1,0,0:0:0:0:
192,192,118617,1,0,0:0:0:0:
448,192,118687,1,0,0:0:0:0:
64,192,118757,1,0,0:0:0:0:
448,192,118827,1,0,0:0:0:0:
320,192,118897,1,0,0:0:0:0:
64,192,118967,1,0,0:0:0:0:
192,192,118967,1,0,0:0:0:0:
448,192,119037,1,0,0:0:0:0:
320,192,119107,1,0,0:0:0:0:
192,192,119177,1,0,0:0:0:0:
320,192,119247,1,0,0:0:0:0:
64,192,119317,1,0,0:0:0:0:
192,192,119387,1,0,0:0:0:0:
448,192,119387,1,0,0:0:0:0:
320,192,119434,1,0,0:0:0:0:
320,192,119527,1,0,0:0:0:0:
192,192,119574,1,0,0:0:0:0:
448,192,119667,1,0,0:0:0:0:
64,192,119714,1,0,0:0:0:0:
192,192,119761,1,0,0:0:0:0:
320,192,119807,1,0,0:0:0:0:
448,192,119807,1,0,0:0:0:0:
64,192,119854,1,0,0:0:0:0:
192,192,119901,1,0,0:0:0:0:
320,192,119947,1,0,0:0:0:0:
448,192,120017,1,0,0:0:0:0:
64,192,120087,1,0,0:0:0:0:
320,192,120157,1,0,0:0:0:0:
192,192,120227,1,0,0:0:0:0:
448,192,120227,1,0,0:0:0:0:
64,192,120297,1,0,0:0:0:0:
320,192,120367,1,0,0:0:0:0:
192,192,120437,1,0,0:0:0:0:
320,192,120508,1,0,0:0:0:0:
448,192,120578,1,0,0:0:0:0:
64,192,120648,1,0,0:0:0:0:
192,192,120648,1,0,0:0:0:0:
320,192,120718,1,0,0:0:0:0:
448,192,120788,1,0,0:0:0:0:
64,192,120858,1,0,0:0:0:0:
448,192,120928,1,0,0:0:0:0:
192,192,120998,1,0,0:0:0:0:
64,192,121068,1,0,0:0:0:0:
320,192,121068,1,0,0:0:0:0:
192,192,121115,1,0,0:0:0:0:
192,192,121208,1,0,0:0:0:0:
320,192,121255,1,0,0:0:0:0:
64,192,121348,1,0,0:0:0:0:
448,192,121395,1,0,0:0:0:0:
320,192,121442,1,0,0:0:0:0:
64,192,121488,1,0,0:0:0:0:
192,192,121488,1,0,0:0:0:0:
448,192,121535,1,0,0:0:0:0:
320,192,121582,1,0,0:0:0:0:
64,192,121628,1,0,0:0:0:0:
448,192,121698,1,0,0:0:0:0:
64,192,121768,1,0,0:0:0:0:
320,192,121838,1,0,0:0:0:0:
192,192,121908,1,0,0:0:0:0:
448,192,121908,1,0,0:0:0:0:
64,192,121978,1,0,0:0:0:0:
448,192,122048,128,0,122096:0:0:0:0:
320,192,122083,1,0,0:0:0:0:
192,192,122118,1,0,0:0:0:0:
320,192,122188,128,0,122236:0:0:0:0:
448,192,122223,1,0,0:0:0:0:
320,192,122328,1,0,0:0:0:0:
448,192,122328,128,0,122376:0:0:0:0:
64,192,122363,1,0,0:0:0:0:
192,192,122398,1,0,0:0:0:0:
320,192,122433,1,0,0:0:0:0:
64,192,122468,1,0,0:0:0:0:
192,192,122538,1,0,0:0:0:0:
448,192,122608,128,0,122656:0:0:0:0:
320,192,122643,1,0,0:0:0:0:
192,192,122678,1,0,0:0:0:0:
64,192,122748,1,0,0:0:0:0:
448,192,122748,1,0,0:0:0:0:
320,192,122818,1,0,0:0:0:0:
448,192,122888,128,0,122936:0:0:0:0:
192,192,122923,1,0,0:0:0:0:
64,192,122958,1,0,0:0:0:0:
320,192,123029,1,0,0:0:0:0:
448,192,123099,1,0,0:0:0:0:
64,192,123169,1,0,0:0:0:0:
192,192,123169,1,0,0:0:0:0:
320,192,123239,1,0,0:0:0:0:
448,192,123309,1,0,0:0:0:0:
192,192,123379,1,0,0:0:0:0:
448,192,123449,1,0,0:0:0:0:
64,192,123519,1,0,0:0:0:0:
192,192,123589,1,0,0:0:0:0:
320,192,123589,1,0,0:0:0:0:
448,192,123659,1,0,0:0:0:0:
64,192,123729,128,0,123776:0:0:0:0:
192,192,123764,1,0,0:0:0:0:
320,192,123799,1,0,0:0:0:0:
192,192,123869,128,0,123916:0:0:0:0:
64,192,123904,1,0,0:0:0:0:
64,192,124009,128,0,124056:0:0:0:0:
192,192,124009,1,0,0:0:0:0:
448,192,124044,1,0,0:0:0:0:
320,192,124079,1,0,0:0:0:0:
192,192,124114,1,0,0:0:0:0:
448,192,124149,1,0,0:0:0:0:
320,192,124219,1,0,0:0:0:0:
64,192,124289,128,0,124337:0:0:0:0:
192,192,124324,1,0,0:0:0:0:
320,192,124359,1,0,0:0:0:0:
64,192,124429,1,0,0:0:0:0:
448,192,124429,1,0,0:0:0:0:
192,192,124499,1,0,0:0:0:0:
64,192,124569,128,0,124617:0:0:0:0:
320,192,124604,1,0,0:0:0:0:
448,192,124639,1,0,0:0:0:0:
192,192,124709,1,0,0:0:0:0:
64,192,124779,1,0,0:0:0:0:
320,192,124849,1,0,0:0:0:0:
448,192,124849,1,0,0:0:0:0:
64,192,124897,1,0,0:0:0:0:
320,192,124943,1,0,0:0:0:0:
192,192,124989,1,0,0:0:0:0:
320,192,125059,1,0,0:0:0:0:
192,192,125129,1,0,0:0:0:0:
448,192,125199,1,0,0:0:0:0:
64,192,125269,1,0,0:0:0:0:
320,192,125269,1,0,0:0:0:0:
192,192,125339,1,0,0:0:0:0:
448,192,125409,1,0,0:0:0:0:
64,192,125480,1,0,0:0:0:0:
448,192,125550,1,0,0:0:0:0:
320,192,125620,1,0,0:0:0:0:
64,192,125690,1,0,0:0:0:0:
192,192,125690,1,0,0:0:0:0:
448,192,125760,1,0,0:0:0:0:
320,192,125830,1,0,0:0:0:0:
192,192,125900,1,0,0:0:0:0:
320,192,125970,1,0,0:0:0:0:
64,192,126040,1,0,0:0:0:0:
192,192,126110,1,0,0:0:0:0:
448,192,126110,1,0,0:0:0:0:
320,192,126157,1,0,0:0:0:0:
320,192,126250,1,0,0:0:0:0:
192,192,126298,1,0,0:0:0:0:
448,192,126390,1,0,0:0:0:0:
64,192,126438,1,0,0:0:0:0:
192,192,126484,1,0,0:0:0:0:
320,192,126530,1,0,0:0:0:0:
448,192,126530,1,0,0:0:0:0:
64,192,126578,1,0,0:0:0:0:
192,192,126624,1,0,0:0:0:0:
320,192,126670,1,0,0:0:0:0:
448,192,126740,1,0,0:0:0:0:
64,192,126810,1,0,0:0:0:0:
320,192,126880,1,0,0:0:0:0:
192,192,126950,1,0,0:0:0:0:
448,192,126950,1,0,0:0:0:0:
64,192,127020,1,0,0:0:0:0:
320,192,127090,1,0,0:0:0:0:
192,192,127160,1,0,0:0:0:0:
320,192,127230,1,0,0:0:0:0:
448,192,127300,1,0,0:0:0:0:
64,192,127370,1,0,0:0:0:0:
192,192,127370,1,0,0:0:0:0:
320,192,127440,1,0,0:0:0:0:
448,192,127510,1,0,0:0:0:0:
64,192,127580,1,0,0:0:0:0:
448,192,127650,1,0,0:0:0:0:
192,192,127720,1,0,0:0:0:0:
64,192,127790,1,0,0:0:0:0:
320,192,127790,1,0,0:0:0:0:
192,192,127838,1,0,0:0:0:0:
192,192,127930,1,0,0:0:0:0:
320,192,127978,1,0,0:0:0:0:
64,192,128071,1,0,0:0:0:0:
448,192,128118,1,0,0:0:0:0:
320,192,128164,1,0,0:0:0:0:
64,192,128211,1,0,0:0:0:0:
192,192,128211,1,0,0:0:0:0:
448,192,128258,1,0,0:0:0:0:
320,192,128304,1,0,0:0:0:0:
64,192,128351,1,0,0:0:0:0:
448,192,128421,1,0,0:0:0:0:
64,192,128491,1,0,0:0:0:0:
320,192,128561,1,0,0:0:0:0:
192,192,128631,1,0,0:0:0:0:
448,192,128631,1,0,0:0:0:0:
64,192,128701,1,0,0:0:0:0:
448,192,128771,128,0,128819:0:0:0:0:
320,192,128806,1,0,0:0:0:0:
192,192,128841,1,0,0:0:0:0:
320,192,128911,128,0,128959:0:0:0:0:
448,192,128946,1,0,0:0:0:0:
320,192,129051,1,0,0:0:0:0:
448,192,129051,128,0,129099:0:0:0:0:
64,192,129086,1,0,0:0:0:0:
192,192,129121,1,0,0:0:0:0:
320,192,129156,1,0,0:0:0:0:
64,192,129191,1,0,0:0:0:0:
192,192,129261,1,0,0:0:0:0:
448,192,129331,128,0,129379:0:0:0:0:
320,192,129366,1,0,0:0:0:0:
192,192,129401,1,0,0:0:0:0:
64,192,129471,1,0,0:0:0:0:
448,192,129471,1,0,0:0:0:0:
320,192,129541,1,0,0:0:0:0:
448,192,129611,128,0,129659:0:0:0:0:
192,192,129646,1,0,0:0:0:0:
64,192,129681,1,0,0:0:0:0:
320,192,129751,1,0,0:0:0:0:
448,192,129821,1,0,0:0:0:0:
64,192,129891,1,0,0:0:0:0:
192,192,129891,1,0,0:0:0:0:
320,192,129961,1,0,0:0:0:0:
448,192,130031,1,0,0:0:0:0:
192,192,130101,1,0,0:0:0:0:
448,192,130171,1,0,0:0:0:0:
64,192,130241,1,0,0:0:0:0:
192,192,130311,1,0,0:0:0:0:
320,192,130311,1,0,0:0:0:0:
448,192,130381,1,0,0:0:0:0:
64,192,130451,128,0,130499:0:0:0:0:
192,192,130487,1,0,0:0:0:0:
320,192,130522,1,0,0:0:0:0:
192,192,130592,128,0,130639:0:0:0:0:
64,192,130627,1,0,0:0:0:0:
448,192,130732,128,0,130779:0:0:0:0:
320,192,130767,1,0,0:0:0:0:
192,192,130802,1,0,0:0:0:0:
64,192,130872,1,0,0:0:0:0:
448,192,130919,1,0,0:0:0:0:
192,192,130966,1,0,0:0:0:0:
320,192,131012,128,0,131059:0:0:0:0:
64,192,131047,1,0,0:0:0:0:
448,192,131082,1,0,0:0:0:0:
192,192,131152,1,0,0:0:0:0:
320,192,131199,1,0,0:0:0:0:
64,192,131246,1,0,0:0:0:0:
448,192,131292,128,0,131339:0:0:0:0:
320,192,131327,1,0,0:0:0:0:
192,192,131362,1,0,0:0:0:0:
64,192,131432,1,0,0:0:0:0:
448,192,131479,1,0,0:0:0:0:
64,192,131526,1,0,0:0:0:0:
