osu file format v14

[General]
AudioFilename: Carly Rae Jepsen - I Really Like You.mp3
AudioLeadIn: 0
PreviewTime: 39454
Countdown: 0
SampleSet: Soft
StackLeniency: 0.3
Mode: 0
LetterboxInBreaks: 1
EpilepsyWarning: 1
WidescreenStoryboard: 1

[Editor]
Bookmarks: 8226,73145,136095,149866,177037,200152
DistanceSpacing: 0.9
BeatDivisor: 4
GridSize: 4
TimelineZoom: 1.1

[Metadata]
Title:I Really Like You
TitleUnicode:I Really Like You
Artist:Carly Rae Jepsen
ArtistUnicode:Carly Rae Jepsen
Creator:tutuhaha
Version:Shad012ha's Easy
Source:
Tags:Shad0w1and beren
BeatmapID:862001
BeatmapSetID:326748

[Difficulty]
HPDrainRate:2
CircleSize:3
OverallDifficulty:2
ApproachRate:3
SliderMultiplier:1.2
SliderTickRate:1

[Events]
//Background and Video events
0,0,"BG.jpg",0,0
//Break Periods
2,136341,151991
//Storyboard Layer 0 (Background)
//Storyboard Layer 1 (Fail)
//Storyboard Layer 2 (Pass)
//Storyboard Layer 3 (Foreground)
//Storyboard Sound Samples

[TimingPoints]
8227,491.803278688525,4,2,1,60,1,0
39702,-100,4,2,1,60,0,1
47079,-100,4,2,1,60,0,0
47571,-100,4,2,1,60,0,1
54948,-100,4,2,1,60,0,0
55440,-100,4,2,1,60,0,1
62817,-100,4,2,1,60,0,0
63308,-100,4,2,1,60,0,1
70686,-100,4,2,1,60,0,0
104620,-100,4,2,1,60,0,1
111997,-100,4,2,1,60,0,0
112489,-100,4,2,1,60,0,1
119866,-100,4,2,1,60,0,0
120358,-100,4,2,1,60,0,1
127735,-100,4,2,1,60,0,0
128227,-100,4,2,1,60,0,1
135604,-100,4,2,1,60,0,0
153431,491.803278688525,4,2,1,60,1,1
160808,-100,4,2,1,60,0,0
161299,-100,4,2,1,60,0,1
168676,-100,4,2,1,60,0,0
169168,-100,4,2,1,60,0,1
176545,-100,4,2,1,60,0,0
177037,-100,4,2,1,60,0,1
184414,-100,4,2,1,60,0,0
184906,-100,4,2,1,60,0,1
192283,-100,4,2,1,60,0,0
192775,-100,4,2,1,60,0,1
200152,-100,4,2,1,60,0,0

[Colours]
Combo1 : 255,192,0
Combo2 : 255,128,255
Combo3 : 18,124,255
Combo4 : 0,170,170

[HitObjects]
216,293,8226,5,0,0:0:0:0:
112,323,8718,2,0,B|73:313|44:285|44:285|75:221|82:119,1,240,0|0,1:0|1:0,0:0:0:0:
168,193,10194,2,0,P|225:206|293:185,1,120,0|0,0:0|1:0,0:0:0:0:
321,89,11177,2,0,P|382:75|455:105,1,120,0|0,0:0|1:0,0:0:0:0:
498,179,12161,6,0,B|493:273|495:329|495:329|447:333|381:308,1,240,0|0,0:0|0:0,0:0:0:0:
315,259,13636,1,0,1:0:0:0:
223,201,14128,2,0,P|163:186|107:219,1,120,0|0,0:0|1:0,0:0:0:0:
11,175,15112,2,0,P|6:130|-1:45,1,120,0|0,0:0|1:0,0:0:0:0:
106,39,16095,6,0,B|147:61|190:71|190:71|246:26|345:20,1,240,0|0,0:0|0:0,0:0:0:0:
434,44,17571,1,0,1:0:0:0:
412,149,18063,2,0,P|443:201|504:236,1,120,0|0,0:0|1:0,0:0:0:0:
464,336,19046,2,0,P|408:344|332:324,1,120,0|0,0:0|1:0,0:0:0:0:
239,340,20030,6,0,L|263:92,1,240,0|0,0:0|0:0,0:0:0:0:
206,8,21505,1,0,1:0:0:0:
118,70,21997,2,0,B|67:79|67:79|-3:66,1,120,0|0,0:0|1:0,0:0:0:0:
17,173,22981,2,0,L|14:235,2,60,0|0|0,0:0|0:0|1:0,0:0:0:0:
115,216,23964,6,0,B|198:213|276:171|276:171|303:204|345:241,1,240,0|0,0:0|0:0,0:0:0:0:
251,302,25440,1,0,1:0:0:0:
147,331,25931,2,0,P|130:267|107:188,1,120,0|0,0:0|1:0,0:0:0:0:
104,108,26915,2,0,P|160:70|212:64,1,120,0|0,0:0|1:0,0:0:0:0:
308,118,27899,5,0,0:0:0:0:
416,128,28390,2,0,P|451:85|463:13,2,120,0|0|0,1:0|0:0|1:0,0:0:0:0:
308,118,29866,2,0,P|311:178|312:237,1,120,0|0,0:0|1:0,0:0:0:0:
212,277,30849,2,0,L|201:353,2,60,0|0|0,0:0|0:0|1:0,0:0:0:0:
312,237,31833,6,0,P|371:231|440:280,1,120,0|0,0:0|1:0,0:0:0:0:
452,362,32817,2,0,L|533:373,2,60,0|0|0,0:0|0:0|1:0,0:0:0:0:
344,347,33800,2,0,P|283:360|209:361,1,120,0|0,0:0|1:0,0:0:0:0:
133,305,34784,2,0,P|95:307|61:313,2,60,0|0|0,0:0|0:0|1:0,0:0:0:0:
231,260,35767,6,0,P|239:200|230:141,1,120,0|0,0:0|1:0,0:0:0:0:
123,122,36751,2,0,P|96:137|63:149,2,60,0|0|0,0:0|0:0|1:0,0:0:0:0:
123,122,39702,6,0,P|184:117|245:101,1,120,4|0,0:0|1:0,0:0:0:0:
324,171,40686,2,0,L|398:172,2,60,0|0|0,0:0|0:0|1:0,0:0:0:0:
227,220,41669,2,0,P|199:272|223:345,1,120,0|0,0:0|1:0,0:0:0:0:
311,368,42653,2,0,P|361:358|452:345,1,120,0|0,0:0|1:0,0:0:0:0:
510,276,43636,6,0,P|503:219|459:171,1,120,0|0,0:0|1:0,0:0:0:0:
356,194,44620,1,0,0:0:0:0:
250,169,45112,1,0,1:0:0:0:
142,181,45604,2,0,L|159:41,1,120,0|0,0:0|1:0,0:0:0:0:
59,110,46587,2,0,L|-11:75,2,60,0|0|0,0:0|0:0|1:0,0:0:0:0:
142,181,47571,6,0,P|192:186|270:169,1,120,4|0,0:0|1:0,0:0:0:0:
347,236,48554,2,0,L|343:302,2,60,0|0|0,0:0|0:0|1:0,0:0:0:0:
451,207,49538,2,0,L|442:87,1,120,0|0,0:0|1:0,0:0:0:0:
346,35,50522,2,0,P|266:52|245:82,1,120,0|0,0:0|1:0,0:0:0:0:
146,122,51505,6,0,P|86:103|9:88,1,120,0|0,0:0|1:0,0:0:0:0:
30,199,52489,1,0,0:0:0:0:
8,304,52981,1,0,1:0:0:0:
86,377,53472,2,0,P|138:361|207:355,1,120,0|0,0:0|1:0,0:0:0:0:
289,290,54456,2,0,L|363:293,2,60,0|0|0,0:0|0:0|1:0,0:0:0:0:
188,248,55440,6,0,B|169:172|136:108|136:108|171:83|225:77,1,240,4|0,0:0|0:0,0:0:0:0:
300,150,56915,1,0,1:0:0:0:
407,162,57407,2,0,P|449:117|450:34,1,120,0|0,0:0|1:0,0:0:0:0:
349,66,58390,2,0,P|291:54|223:44,1,120,0|0,0:0|1:0,0:0:0:0:
133,91,59374,6,0,P|108:150|129:214,1,120,0|0,0:0|1:0,0:0:0:0:
213,258,60358,2,0,P|228:317|194:389,1,120,0|0,0:0|1:0,0:0:0:0:
119,311,61341,2,0,B|59:316,2,60,0|0|0,0:0|0:0|1:0,0:0:0:0:
209,371,62325,2,0,P|260:355|344:344,1,120,0|0,0:0|1:0,0:0:0:0:
433,349,63308,6,0,P|467:302|460:218,1,120,4|0,0:0|1:0,0:0:0:0:
378,183,64292,2,0,L|368:120,2,60,0|0|0,0:0|0:0|1:0,0:0:0:0:
285,240,65276,2,0,P|223:247|166:227,1,120,0|0,0:0|1:0,0:0:0:0:
67,264,66259,2,0,P|69:326|80:394,1,120,0|0,0:0|1:0,0:0:0:0:
178,345,67243,6,0,P|233:356|301:359,1,120,0|0,0:0|1:0,0:0:0:0:
378,287,68227,1,0,0:0:0:0:
359,180,68718,1,0,1:0:0:0:
450,122,69210,2,0,P|468:68|446:-2,1,120,0|0,0:0|1:0,0:0:0:0:
361,61,70194,2,0,L|287:46,2,60,0|0|0,0:0|0:0|1:0,0:0:0:0:
361,61,73145,6,0,P|353:124|350:183,1,120
268,251,74128,2,0,P|211:270|155:252,1,120,0|0,0:0|0:0,0:0:0:0:
48,268,75112,2,0,P|71:190|108:28,1,240,0|0,0:0|0:0,0:0:0:0:
214,37,76587,1,0,0:0:0:0:
285,118,77079,6,0,P|343:125|400:106,1,120,0|0,0:0|1:0,0:0:0:0:
480,178,78063,1,0,0:0:0:0:
479,285,78554,1,0,1:0:0:0:
385,338,79046,2,0,P|321:326|247:322,1,120,0|0,0:0|1:0,0:0:0:0:
170,272,80030,2,0,P|159:220|197:149,1,120,0|0,0:0|1:0,0:0:0:0:
292,171,81013,5,0,0:0:0:0:
389,124,81505,1,0,1:0:0:0:
297,66,81997,2,0,P|264:63|220:60,2,60,0|0|0,0:0|0:0|1:0,0:0:0:0:
396,23,82981,2,0,P|427:20|467:12,2,60,0|0|0,0:0|0:0|1:0,0:0:0:0:
408,132,83964,2,0,P|443:204|483:220,1,120,0|0,0:0|1:0,0:0:0:0:
436,318,84948,6,0,P|394:348|317:335,1,120,0|0,0:0|1:0,0:0:0:0:
220,356,85931,1,0,0:0:0:0:
112,340,86423,1,0,1:0:0:0:
60,244,86915,2,0,P|32:214|37:133,1,120,0|0,0:0|1:0,0:0:0:0:
136,168,87899,2,0,L|149:98,2,60,0|0|0,0:0|0:0|1:0,0:0:0:0:
200,256,88882,5,0,0:0:0:0:
292,312,89374,2,0,B|375:323|454:293|454:293|412:285|384:255,1,240,0|0,1:0|1:0,0:0:0:0:
468,184,90849,2,0,B|492:129|498:74|498:74|453:92|426:86,2,180,0|0|0,0:0|0:0|1:0,0:0:0:0:
364,160,92817,5,0,0:0:0:0:
272,220,93308,2,0,B|203:202|117:224|117:224|158:231|197:269,1,240,0|0,1:0|1:0,0:0:0:0:
96,320,94784,2,0,B|57:317|57:317|2:266|23:177,2,180,0|0|0,0:0|0:0|1:0,0:0:0:0:
200,344,96751,6,0,P|250:328|325:323,1,120,0|0,0:0|1:0,0:0:0:0:
384,236,97735,1,0,0:0:0:0:
308,160,98227,1,0,1:0:0:0:
388,84,98718,2,0,P|432:44|496:24,2,120,0|0|0,0:0|1:0|0:0,0:0:0:0:
437,182,100194,1,0,1:0:0:0:
354,251,100686,6,0,B|250:241|185:212|185:212|184:256|209:290,1,240
282,344,102161,1,0,1:0:0:0:
244,360,104620,6,0,P|298:342|388:332,1,120,4|0,0:0|1:0,0:0:0:0:
432,253,105604,2,0,L|502:257,2,60,0|0|0,0:0|0:0|1:0,0:0:0:0:
325,235,106587,2,0,P|296:169|312:102,1,120,0|0,0:0|1:0,0:0:0:0:
405,92,107571,2,0,L|405:33,2,60,0|0|0,0:0|0:0|1:0,0:0:0:0:
505,129,108554,5,0,0:0:0:0:
450,221,109046,1,0,1:0:0:0:
343,203,109538,2,0,P|280:189|219:191,1,120,0|0,0:0|1:0,0:0:0:0:
133,247,110522,1,0,0:0:0:0:
29,215,111013,1,0,1:0:0:0:
7,109,111505,2,0,L|29:30,2,60,0|0|0,0:0|0:0|1:0,0:0:0:0:
110,139,112489,6,0,P|163:133|210:73,1,120,4|0,0:0|1:0,0:0:0:0:
314,84,113472,2,0,L|379:67,2,60,0|0|0,0:0|0:0|1:0,0:0:0:0:
272,184,114456,2,0,P|271:247|281:304,1,120,0|0,0:0|1:0,0:0:0:0:
384,272,115440,2,0,L|458:282,2,60,0|0|0,0:0|0:0|1:0,0:0:0:0:
280,302,116423,5,0,0:0:0:0:
188,244,116915,2,0,P|129:227|60:244,1,120,0|0,1:0|0:0,0:0:0:0:
8,150,117899,1,0,1:0:0:0:
42,47,118390,2,0,P|94:83|112:148,1,120,0|0,0:0|1:0,0:0:0:0:
72,237,119374,2,0,P|41:259|11:276,2,60,0|0|0,0:0|0:0|1:0,0:0:0:0:
129,328,120358,6,0,B|211:358|289:360|289:360|259:328|246:284,1,240,4|0,0:0|0:0,0:0:0:0:
355,271,121833,1,0,1:0:0:0:
455,310,122325,1,0,0:0:0:0:
480,204,122817,2,0,P|465:77|350:59,1,240,0|0,1:0|1:0,0:0:0:0:
264,56,124292,5,0,0:0:0:0:
205,148,124784,2,0,P|228:248|253:384,1,240,0|0,1:0|1:0,0:0:0:0:
359,365,126259,2,0,P|409:326|424:272,1,120,0|0,0:0|1:0,0:0:0:0:
376,178,127243,2,0,L|299:174,2,60,0|0|0,0:0|0:0|1:0,0:0:0:0:
444,94,128227,5,4,0:0:0:0:
352,40,128718,2,0,B|257:38|183:23|183:23|197:61|200:100,1,240,0|0,1:0|1:0,0:0:0:0:
128,172,130194,1,0,0:0:0:0:
41,230,130686,2,0,P|39:289|47:363,1,120,0|0,1:0|0:0,0:0:0:0:
152,364,131669,1,0,1:0:0:0:
204,268,132161,6,0,P|251:262|338:277,1,120,0|0,0:0|1:0,0:0:0:0:
424,308,133145,1,0,0:0:0:0:
404,204,133636,1,0,1:0:0:0:
376,100,134128,2,0,L|243:91,1,120,0|0,0:0|1:0,0:0:0:0:
168,156,135112,2,0,P|120:136|100:112,2,60,0|0|0,0:0|0:0|1:0,0:0:0:0:
480,256,153431,6,0,P|388:256|344:272,1,120,4|0,0:0|1:0,0:0:0:0:
264,308,154414,2,0,L|252:376,2,60,0|0|0,0:0|0:0|1:0,0:0:0:0:
180,240,155398,2,0,P|120:176|104:128,1,120,0|0,0:0|1:0,0:0:0:0:
80,44,156381,2,0,L|20:76,2,60,0|0|0,0:0|0:0|1:0,0:0:0:0:
188,24,157365,5,0,0:0:0:0:
264,100,157857,1,0,1:0:0:0:
356,44,158349,2,0,P|416:28|488:40,1,120,0|0,0:0|1:0,0:0:0:0:
496,140,159332,1,0,0:0:0:0:
388,144,159824,1,0,1:0:0:0:
320,228,160316,2,0,L|312:296,2,60,0|0|0,0:0|0:0|1:0,0:0:0:0:
212,216,161299,6,0,P|176:176|164:96,1,120,4|0,0:0|1:0,0:0:0:0:
224,24,162283,2,0,L|296:40,2,60,0|0|0,0:0|0:0|1:0,0:0:0:0:
116,16,163267,1,0,0:0:0:0:
56,108,163758,1,0,1:0:0:0:
112,200,164250,2,0,L|96:272,2,60,0|0|0,0:0|0:0|1:0,0:0:0:0:
200,140,165234,6,0,P|272:108|332:120,1,120,0|0,0:0|1:0,0:0:0:0:
360,208,166217,1,0,0:0:0:0:
264,256,166709,1,0,1:0:0:0:
336,336,167201,2,0,P|393:353|449:335,1,120,0|0,0:0|1:0,0:0:0:0:
468,228,168185,2,0,B|408:228,2,60,0|0|0,0:0|0:0|1:0,0:0:0:0:
480,120,169168,6,0,B|482:70|449:35|449:35|371:29|309:87,1,240,4|0,0:0|0:0,0:0:0:0:
276,184,170644,1,0,1:0:0:0:
173,155,171135,2,0,P|131:110|130:27,1,120,0|0,0:0|1:0,0:0:0:0:
230,61,172119,2,0,P|289:52|352:32,1,120,0|0,0:0|1:0,0:0:0:0:
454,59,173103,6,0,P|479:118|458:182,1,120,0|0,0:0|1:0,0:0:0:0:
373,225,174086,2,0,P|358:284|392:356,1,120,0|0,0:0|1:0,0:0:0:0:
272,360,175070,2,0,B|184:348,2,60,0|0|0,0:0|0:0|1:0,0:0:0:0:
261,254,176053,2,0,P|210:238|128:228,1,120,0|0,0:0|1:0,0:0:0:0:
42,264,177037,6,0,P|38:214|35:137,1,120,4|0,0:0|1:0,0:0:0:0:
130,93,178021,2,0,L|155:23,2,60,0|0|0,0:0|0:0|1:0,0:0:0:0:
189,183,179004,2,0,P|251:196|324:161,1,120,0|0,0:0|1:0,0:0:0:0:
354,82,179988,2,0,P|294:67|234:89,1,120,0|0,0:0|1:0,0:0:0:0:
189,183,180971,6,0,P|165:245|143:303,1,120,0|0,0:0|1:0,0:0:0:0:
221,372,181955,1,0,0:0:0:0:
322,333,182447,1,0,1:0:0:0:
312,224,182939,2,0,P|369:209|426:225,1,120,0|0,0:0|1:0,0:0:0:0:
476,320,183922,2,0,L|473:394,2,60,0|0|0,0:0|0:0|1:0,0:0:0:0:
368,340,184906,5,4,0:0:0:0:
260,352,185398,1,0,1:0:0:0:
156,320,185890,2,0,P|166:261|145:206,1,120,0|0,0:0|1:0,0:0:0:0:
52,150,186873,2,0,P|41:91|62:36,1,120,0|0,0:0|1:0,0:0:0:0:
150,99,187857,2,0,L|269:88,1,120,0|0,0:0|1:0,0:0:0:0:
348,161,188840,6,0,P|374:107|357:23,1,120,0|0,0:0|1:0,0:0:0:0:
472,16,189824,2,0,P|500:75|504:139,1,120,0|0,0:0|1:0,0:0:0:0:
492,236,190808,2,0,B|491:316,2,60,0|0|0,0:0|0:0|1:0,0:0:0:0:
384,248,191791,2,0,P|320:235|244:244,1,120,0|0,0:0|1:0,0:0:0:0:
206,330,192775,6,0,P|156:335|78:318,1,120,4|0,0:0|1:0,0:0:0:0:
25,228,193758,2,0,L|10:168,2,60,0|0|0,0:0|0:0|1:0,0:0:0:0:
125,188,194742,2,0,L|259:178,1,120,0|0,0:0|1:0,0:0:0:0:
276,284,195726,2,0,L|395:299,1,120,0|0,0:0|1:0,0:0:0:0:
472,224,196709,6,0,P|480:161|448:97,1,120,0|0,0:0|1:0,0:0:0:0:
356,148,197693,1,0,0:0:0:0:
252,116,198185,1,0,1:0:0:0:
180,196,198676,2,0,P|126:212|56:192,1,120,0|0,0:0|1:0,0:0:0:0:
120,104,199660,2,0,L|118:34,2,60,0|0|0,0:0|0:0|1:0,0:0:0:0:
