osu file format v14

[General]
AudioFilename: Carly Rae Jepsen - I Really Like You.mp3
AudioLeadIn: 0
PreviewTime: 39454
Countdown: 0
SampleSet: Soft
StackLeniency: 0.7
Mode: 0
LetterboxInBreaks: 1
EpilepsyWarning: 1
WidescreenStoryboard: 1

[Editor]
DistanceSpacing: 1.8
BeatDivisor: 4
GridSize: 4
TimelineZoom: 1.7

[Metadata]
Title:I Really Like You
TitleUnicode:I Really Like You
Artist:Carly Rae Jepsen
ArtistUnicode:Carly Rae Jepsen
Creator:tutuhaha
Version:Insane
Source:
Tags:Shad0w1and beren
BeatmapID:725412
BeatmapSetID:326748

[Difficulty]
HPDrainRate:7
CircleSize:4
OverallDifficulty:8
ApproachRate:8.5
SliderMultiplier:1.7
SliderTickRate:1

[Events]
//Background and Video events
0,0,"BG.jpg",0,0
//Break Periods
2,37770,39027
2,73143,75666
2,102688,103945
2,136341,149437
//Storyboard Layer 0 (Background)
//Storyboard Layer 1 (Fail)
//Storyboard Layer 2 (Pass)
//Storyboard Layer 3 (Foreground)
//Storyboard Sound Samples

[TimingPoints]
8227,491.803278688525,4,2,1,50,1,0
39702,-83.3333333333333,4,2,1,60,0,1
47079,-83.3333333333333,4,2,1,60,0,0
47571,-83.3333333333333,4,2,1,60,0,1
54948,-83.3333333333333,4,2,1,60,0,0
55440,-83.3333333333333,4,2,1,60,0,1
62817,-83.3333333333333,4,2,1,60,0,0
63308,-83.3333333333333,4,2,1,60,0,1
70686,-83.3333333333333,4,2,1,60,0,0
76341,-100,4,2,1,50,0,0
104620,-83.3333333333333,4,2,1,60,0,1
111997,-83.3333333333333,4,2,1,60,0,0
112489,-83.3333333333333,4,2,1,60,0,1
119866,-83.3333333333333,4,2,1,60,0,0
120358,-83.3333333333333,4,2,1,60,0,1
127735,-83.3333333333333,4,2,1,60,0,0
128227,-83.3333333333333,4,2,1,60,0,1
135604,-83.3333333333333,4,2,1,60,0,0
150112,-83.3333333333333,4,2,1,5,0,0
152940,-133.333333333333,4,2,1,30,0,0
153431,491.803278688525,4,2,1,60,1,1
153431,-83.3333333333333,4,2,1,60,0,1
160808,-83.3333333333333,4,2,1,60,0,0
161299,-83.3333333333333,4,2,1,60,0,1
168676,-83.3333333333333,4,2,1,60,0,0
169168,-83.3333333333333,4,2,1,60,0,1
176545,-83.3333333333333,4,2,1,60,0,0
177037,-83.3333333333333,4,2,1,60,0,1
184414,-83.3333333333333,4,2,1,60,0,0
184906,-83.3333333333333,4,2,1,60,0,1
185029,-83.3333333333333,4,2,1,5,0,1
189332,-83.3333333333333,4,2,1,60,0,1
192283,-83.3333333333333,4,2,1,60,0,0
192775,-83.3333333333333,4,2,1,60,0,1
200152,-83.3333333333333,4,2,1,60,0,0
200521,-83.3333333333333,4,2,1,40,0,0

[Colours]
Combo1 : 255,192,0
Combo2 : 255,128,255
Combo3 : 18,124,255
Combo4 : 0,170,170

[HitObjects]
92,60,8226,5,0,0:0:0:0:
96,64,8718,1,0,1:0:0:0:
96,64,8964,2,0,L|96:128,1,42.5
60,172,9210,6,0,P|92:192|104:248,1,85
96,376,9702,1,0,1:0:0:0:
96,376,9948,2,0,L|144:352,1,42.5
176,292,10194,6,0,P|216:260|216:212,1,85
172,84,10686,1,0,1:0:0:0:
172,84,10931,1,0,0:0:0:0:
312,20,11177,6,0,L|296:64,2,42.5
464,20,11669,1,0,1:0:0:0:
280,156,11915,1,0,0:0:0:0:
392,260,12161,6,0,P|420:290|438:329,2,85,0|0|0,0:0|0:0|1:0,0:0:0:0:
280,156,12899,2,0,L|264:96,1,42.5
208,68,13145,6,0,P|160:88|104:76,1,85
64,44,13513,1,0,0:0:0:0:
56,72,13636,2,0,L|40:124,1,42.5,0|0,1:0|0:0,0:0:0:0:
104,160,13882,2,0,L|120:212,1,42.5
164,312,14128,6,0,P|172:264|192:224,2,85,0|0|0,0:0|0:0|1:0,0:0:0:0:
164,312,14866,1,0,0:0:0:0:
316,328,15112,6,0,L|376:320,1,42.5
388,316,15358,1,0,0:0:0:0:
268,224,15604,2,0,L|208:216,1,42.5,0|0,1:0|0:0,0:0:0:0:
196,212,15849,1,0,0:0:0:0:
324,132,16095,6,0,L|424:120,1,85
284,32,16587,2,0,L|199:21,1,85,0|0,1:0|0:0,0:0:0:0:
124,40,16956,1,0,0:0:0:0:
108,64,17079,6,0,P|92:92|88:108,1,42.5
36,156,17325,2,0,P|52:184|56:200,1,42.5
124,232,17571,2,0,L|168:196,1,42.5,0|0,1:0|0:0,0:0:0:0:
212,260,17817,2,0,L|204:304,1,42.5
152,356,18063,5,0,0:0:0:0:
152,356,18308,1,0,0:0:0:0:
204,168,18554,1,0,1:0:0:0:
260,348,18800,1,0,0:0:0:0:
76,292,19046,6,0,P|60:304|44:324,1,42.5
80,264,19292,2,0,L|88:168,1,85,0|0,0:0|1:0,0:0:0:0:
100,28,19784,1,0,0:0:0:0:
100,28,20030,5,0,0:0:0:0:
228,108,20276,1,0,0:0:0:0:
228,108,20399,1,0,0:0:0:0:
228,108,20522,1,0,1:0:0:0:
76,120,20767,1,0,0:0:0:0:
192,20,21013,5,0,0:0:0:0:
152,168,21259,1,0,0:0:0:0:
212,308,21505,1,0,1:0:0:0:
228,108,21751,1,0,0:0:0:0:
52,272,21997,6,0,P|112:268|164:248,1,85
311,118,22489,2,0,P|269:107|227:107,1,85,0|0,1:0|0:0,0:0:0:0:
228,108,22981,6,0,L|208:56,1,42.5
204,40,23227,1,0,0:0:0:0:
140,156,23472,1,0,1:0:0:0:
148,184,23596,2,0,L|164:224,1,42.5
284,344,23964,6,0,P|240:340|184:348,1,85,4|0,0:1|0:0,0:0:0:0:
48,372,24456,1,0,1:0:0:0:
164,224,24702,1,0,0:0:0:0:
120,72,24948,6,0,P|160:48|192:0,1,85
260,24,25317,1,0,0:0:0:0:
288,28,25440,2,0,P|340:36|376:64,1,85,0|0,1:0|0:0,1:0:0:0:
436,180,25931,5,0,0:0:0:0:
296,144,26177,1,0,0:0:0:0:
460,28,26423,1,0,1:0:0:0:
504,248,26669,1,0,0:0:0:0:
256,220,26915,6,0,P|232:200|220:180,1,42.5
208,164,27161,1,0,0:0:0:0:
328,36,27407,1,0,1:0:0:0:
448,148,27653,2,0,P|432:176|428:200,1,42.5
384,308,27899,6,0,P|364:256|360:212,1,85
255,59,28390,2,0,P|248:101|232:140,1,85,0|0,1:0|0:0,0:0:0:0:
96,216,28882,5,0,0:0:0:0:
120,372,29128,2,0,P|96:372|64:380,1,42.5
20,324,29374,2,0,P|68:300|124:300,1,85,0|0,1:0|0:0,0:0:0:0:
376,344,29866,5,0,0:0:0:0:
376,344,30112,2,0,L|304:340,1,42.5
292,276,30358,2,0,P|340:248|376:208,1,85,0|0,1:0|0:0,0:0:0:0:
292,56,30849,6,0,P|284:88|280:120,1,42.5
280,128,31095,1,0,0:0:0:0:
168,328,31341,1,0,1:0:0:0:
136,104,31587,1,0,0:0:0:0:
136,104,31710,1,0,0:0:0:0:
136,104,31833,5,0,0:0:0:0:
16,164,32079,1,0,0:0:0:0:
236,212,32325,1,0,1:0:0:0:
100,312,32571,1,0,0:0:0:0:
96,64,32817,5,0,0:0:0:0:
260,128,33063,1,0,0:0:0:0:
392,32,33308,1,0,1:0:0:0:
236,212,33554,1,0,0:0:0:0:
262,44,33800,5,0,0:0:0:0:
176,272,34046,1,0,0:0:0:0:
340,108,34292,1,0,1:0:0:0:
168,168,34538,1,0,0:0:0:0:
360,288,34784,6,0,P|328:280|292:292,1,42.5
288,284,35030,1,0,0:0:0:0:
104,201,35276,2,0,P|135:191|160:163,1,42.5,0|0,1:0|0:0,0:0:0:0:
168,168,35522,1,0,0:0:0:0:
312,16,35767,5,0,0:0:0:0:
312,16,36013,1,0,0:0:0:0:
361,200,36259,1,0,1:0:0:0:
361,200,36505,1,0,0:0:0:0:
403,38,36751,5,0,0:0:0:0:
269,175,36997,1,0,0:0:0:0:
428,131,37243,1,0,1:0:0:0:
243,81,37489,2,0,L|216:48,1,28.3333333333333
128,32,39702,6,0,P|176:68|196:120,1,101.999996887207,4|0,0:0|0:0,0:0:0:0:
184,288,40194,1,0,1:0:0:0:
184,288,40440,6,0,P|188:252|204:224,1,50.9999984436036
272,188,40686,2,0,P|280:156|272:120,1,50.9999984436036
248,52,40931,5,0,0:0:0:0:
248,52,41177,1,0,1:0:0:0:
320,268,41423,1,0,0:0:0:0:
500,136,41669,6,0,L|448:156,1,50.9999984436036
388,88,41915,2,0,L|440:68,1,50.9999984436036
368,172,42161,1,0,1:0:0:0:
368,172,42407,6,0,P|328:152|312:124,1,50.9999984436036
248,52,42653,2,0,L|244:120,1,50.9999984436036
138,171,42899,2,0,L|156:124,1,50.9999984436036
144,32,43145,1,0,1:0:0:0:
228,208,43390,1,0,0:0:0:0:
20,136,43636,6,0,P|72:128|140:140,1,101.999996887207
212,152,44005,1,0,0:0:0:0:
240,128,44128,2,0,P|276:96|348:80,1,101.999996887207,0|0,1:0|0:0,0:0:0:0:
408,48,44497,1,0,0:0:0:0:
444,72,44620,6,0,L|424:188,1,101.999996887207
426,172,45112,1,0,1:0:0:0:
424,356,45358,2,0,P|408:320|388:304,1,50.9999984436036
332,252,45604,6,0,P|300:212|300:152,1,101.999996887207
316,72,45972,1,0,0:0:0:0:
296,44,46095,2,0,P|264:32|236:32,1,50.9999984436036,0|0,1:0|0:0,0:0:0:0:
176,136,46341,2,0,P|212:124|240:104,1,50.9999984436036
96,56,46587,5,0,0:0:0:0:
80,88,46710,1,0,0:0:0:0:
80,124,46833,1,0,0:0:0:0:
296,332,47079,2,0,L|360:356,1,50.9999984436036,0|0,1:0|0:0,0:0:0:0:
400,276,47325,2,0,L|468:276,1,50.9999984436036
244,196,47571,6,0,P|224:264|228:312,1,101.999996887207,4|0,0:0|0:0,0:0:0:0:
56,372,48063,1,0,1:0:0:0:
56,372,48308,6,0,L|36:300,1,50.9999984436036
104,256,48554,2,0,L|124:184,1,50.9999984436036
136,116,48800,5,0,0:0:0:0:
136,116,49046,1,0,1:0:0:0:
148,344,49292,1,0,0:0:0:0:
292,176,49538,6,0,P|308:156|348:140,1,50.9999984436036
412,184,49784,2,0,P|396:204|356:220,1,50.9999984436036
408,96,50030,1,0,1:0:0:0:
408,96,50276,6,0,L|388:16,1,50.9999984436036
288,8,50522,2,0,P|292:44|320:80,1,50.9999984436036
204,144,50767,2,0,P|208:108|236:72,1,50.9999984436036
168,16,51013,1,0,1:0:0:0:
292,176,51259,1,0,0:0:0:0:
16,104,51505,6,0,P|72:104|136:128,1,101.999996887207
204,144,51874,1,0,0:0:0:0:
228,116,51997,2,0,P|264:100|344:116,1,101.999996887207,0|0,1:0|0:0,0:0:0:0:
408,164,52366,1,0,0:0:0:0:
400,200,52489,6,0,L|364:304,1,101.999996887207
366,296,52981,1,0,1:0:0:0:
112,200,53227,2,0,L|136:272,1,50.9999984436036
172,328,53472,6,0,P|208:284|204:224,1,101.999996887207
196,148,53841,1,0,0:0:0:0:
192,112,53964,2,0,P|192:76|216:40,1,50.9999984436036,0|0,1:0|0:0,0:0:0:0:
292,104,54210,2,0,P|310:72|348:53,1,50.9999984436036
464,116,54456,5,0,0:0:0:0:
432,130,54579,1,0,0:0:0:0:
396,132,54702,1,0,0:0:0:0:
112,32,54948,2,0,L|104:88,1,50.9999984436036,0|0,1:0|0:0,0:0:0:0:
42,171,55194,2,0,L|24:124,1,50.9999984436036
212,24,55440,6,0,P|204:84|172:140,1,101.999996887207,4|0,0:0|0:0,0:0:0:0:
132,196,55808,1,0,0:0:0:0:
124,232,55931,2,0,P|132:272|152:296,1,50.9999984436036,0|0,1:0|0:0,0:0:0:0:
220,304,56177,2,0,P|224:280|208:232,1,50.9999984436036
252,172,56423,6,0,L|316:148,1,50.9999984436036
364,208,56669,1,0,0:0:0:0:
160,136,56915,1,0,1:0:0:0:
388,56,57161,1,0,0:0:0:0:
317,320,57407,6,0,P|257:300|197:312,1,101.999996887207
144,348,57776,2,0,L|76:364,1,50.9999984436036,0|0,0:0|1:0,0:0:0:0:
140,336,58145,6,0,L|72:352,1,50.9999984436036
60,268,58390,2,0,P|56:244|60:208,1,50.9999984436036
150,146,58636,2,0,P|151:171|144:196,1,50.9999984436036
232,208,58882,2,0,L|304:192,1,50.9999984436036,0|0,1:0|0:0,0:0:0:0:
276,300,59128,2,0,L|346:322,1,50.9999984436036
420,216,59374,6,0,P|408:272|424:336,1,101.999996887207
504,212,59743,2,0,L|516:152,1,50.9999984436036,0|0,0:0|1:0,0:0:0:0:
492,208,60112,6,0,L|504:148,1,50.9999984436036
420,112,60358,2,0,P|404:104|376:68,1,50.9999984436036
452,20,60604,2,0,P|468:28|496:64,1,50.9999984436036
356,168,60849,2,0,P|308:172|280:156,1,50.9999984436036,0|0,1:0|0:0,0:0:0:0:
228,220,61095,2,0,P|184:199|168:171,1,50.9999984436036
52,320,61341,6,0,P|112:320|160:356,1,101.999996887207
283,308,61710,2,0,L|232:308,1,50.9999984436036,0|0,0:0|1:0,0:0:0:0:
280,296,62079,6,0,L|229:296,1,50.9999984436036
136,180,62325,1,0,0:0:0:0:
180,204,62448,1,0,0:0:0:0:
232,208,62571,1,0,0:0:0:0:
472,28,62817,2,0,P|380:32|372:152,1,203.999993774414,0|4,1:0|0:0,0:0:0:0:
464,360,63554,5,0,0:0:0:0:
288,348,63800,1,0,1:0:0:0:
220,176,64046,2,0,L|200:112,1,50.9999984436036
144,60,64292,6,0,P|124:88|116:120,1,50.9999984436036
120,196,64538,1,0,0:0:0:0:
320,156,64784,1,0,1:0:0:0:
120,16,65030,2,0,P|116:48|100:80,1,50.9999984436036
8,152,65276,6,0,L|68:132,1,50.9999984436036
171,196,65522,2,0,L|120:196,1,50.9999984436036
192,104,65767,1,0,1:0:0:0:
192,104,66013,6,0,P|224:92|252:56,1,50.9999984436036
356,36,66259,2,0,L|324:100,1,50.9999984436036
442,119,66505,2,0,L|400:148,1,50.9999984436036
328,204,66751,1,0,1:0:0:0:
256,20,66997,1,0,0:0:0:0:
467,31,67243,6,0,L|487:139,2,101.999996887207,0|0|0,0:0|0:0|1:0,0:0:0:0:
400,328,67981,2,0,L|408:256,1,50.9999984436036
416,184,68227,5,0,0:0:0:0:
300,364,68472,1,0,0:0:0:0:
496,304,68718,1,0,1:0:0:0:
316,132,68964,2,0,L|312:208,1,50.9999984436036
308,276,69210,5,0,0:0:0:0:
492,156,69456,2,0,P|484:136|456:112,1,50.9999984436036
380,72,69702,2,0,P|336:108|288:116,1,101.999996887207,0|0,1:0|0:0,0:0:0:0:
204,96,70071,1,0,0:0:0:0:
188,64,70194,6,0,L|232:24,1,50.9999984436036
232,184,70440,2,0,L|216:248,1,50.9999984436036,0|0,0:0|0:0,0:0:0:0:
336,332,70686,2,0,L|320:264,2,50.9999984436036,0|0|0,1:0|0:0|0:0,0:0:0:0:
408,56,76341,5,8,3:0:0:0:
324,184,76587,1,8,3:0:0:0:
324,184,76710,1,8,3:0:0:0:
324,184,76833,1,8,3:0:0:0:
200,84,77079,5,0,0:0:0:0:
200,84,77571,2,0,P|204:132|244:184,1,85,0|0,1:0|0:0,0:0:0:0:
300,296,78063,5,0,0:0:0:0:
300,296,78308,2,0,L|356:304,1,42.5
412,332,78554,2,0,L|308:348,1,85,0|0,1:0|0:0,0:0:0:0:
180,380,79046,5,0,0:0:0:0:
180,380,79292,2,0,L|148:328,1,42.5
112,284,79538,1,0,1:0:0:0:
112,284,79784,1,0,0:0:0:0:
44,148,80030,5,0,0:0:0:0:
72,160,80153,1,0,0:0:0:0:
100,168,80276,1,0,0:0:0:0:
252,164,80522,1,0,1:0:0:0:
112,284,80767,1,0,0:0:0:0:
176,80,81013,5,0,0:0:0:0:
176,80,81505,1,0,1:0:0:0:
328,104,81751,2,0,L|392:120,1,42.5
392,188,81997,6,0,L|440:172,1,42.5
492,128,82243,2,0,P|472:112|440:96,1,42.5
408,44,82489,1,0,1:0:0:0:
408,44,82735,1,0,0:0:0:0:
480,240,82981,6,0,P|420:272|400:308,1,85
360,344,83349,1,0,0:0:0:0:
332,352,83472,2,0,L|280:368,1,42.5,0|0,1:0|0:0,0:0:0:0:
232,316,83718,2,0,L|191:328,1,42.5
120,352,83964,5,0,0:0:0:0:
92,344,84087,1,0,0:0:0:0:
64,336,84210,1,0,0:0:0:0:
24,188,84456,1,0,1:0:0:0:
172,232,84702,2,0,L|232:220,1,42.5
288,208,84948,6,0,P|228:196|192:164,1,85
384,48,85440,2,0,L|496:44,1,85,0|0,1:0|0:0,0:0:0:0:
404,208,85931,6,0,P|376:200|340:204,1,42.5
288,208,86177,2,0,L|304:304,1,85,0|0,0:0|1:0,0:0:0:0:
301,291,86669,1,0,0:0:0:0:
56,384,86915,6,0,P|88:352|96:296,1,85
372,195,87407,2,0,L|264:211,1,85,0|0,1:0|0:0,0:0:0:0:
48,76,87899,5,0,0:0:0:0:
76,84,88022,1,0,0:0:0:0:
104,88,88145,2,0,L|116:136,1,42.5
160,224,88390,1,0,1:0:0:0:
160,224,88513,2,0,P|192:168|244:128,1,127.5
384,244,89128,1,0,0:0:0:0:
456,108,89374,1,0,1:0:0:0:
296,264,89620,1,0,0:0:0:0:
296,56,89866,6,0,L|288:8,2,42.5
296,264,90358,1,0,1:0:0:0:
456,108,90604,1,0,0:0:0:0:
220,116,90849,6,0,P|200:68|208:20,1,85
416,248,91341,2,0,P|416:290|398:328,1,85,0|0,1:0|0:0,0:0:0:0:
196,196,91833,6,0,P|236:196|260:188,2,42.5
112,68,92325,1,0,1:0:0:0:
264,52,92571,1,0,0:0:0:0:
216,288,92817,6,0,P|160:280|112:248,1,85
68,228,93186,1,0,0:0:0:0:
48,204,93308,2,0,L|32:112,1,85,0|0,1:0|0:0,0:0:0:0:
228,208,93800,5,0,0:0:0:0:
224,236,93923,1,0,0:0:0:0:
220,264,94046,1,0,0:0:0:0:
384,136,94292,2,0,L|368:52,1,85,0|0,1:0|0:0,0:0:0:0:
216,72,94784,5,0,0:0:0:0:
384,136,95030,2,0,L|432:116,1,42.5
421,41,95276,2,0,P|458:20|500:16,1,85,0|0,1:0|0:0,0:0:0:0:
460,208,95767,5,0,0:0:0:0:
444,232,95890,1,0,0:0:0:0:
420,252,96013,1,0,0:0:0:0:
284,105,96259,2,0,L|276:64,1,42.5,0|0,1:0|0:0,0:0:0:0:
200,64,96505,2,0,L|208:8,1,42.5
348,32,96751,5,0,0:0:0:0:
304,232,96997,2,0,L|296:288,1,42.5
280,348,97243,1,0,1:0:0:0:
408,208,97489,1,0,0:0:0:0:
200,216,97735,6,0,L|192:160,1,42.5
176,100,97981,1,0,0:0:0:0:
116,280,98227,1,0,1:0:0:0:
304,232,98472,1,0,0:0:0:0:
140,16,98718,6,0,P|136:84|120:116,1,85
84,160,99087,1,0,0:0:0:0:
72,188,99210,2,0,L|56:240,1,42.5,0|0,1:0|0:0,0:0:0:0:
116,280,99456,2,0,L|156:224,1,42.5
164,360,99702,6,0,L|112:360,1,42.5
216,288,99948,2,0,P|272:304|324:300,1,85,0|0,0:0|1:0,0:0:0:0:
298,304,100440,1,0,0:0:0:0:
484,92,100686,6,0,P|420:112|396:152,1,85
360,184,101054,1,0,0:0:0:0:
332,188,101177,2,0,P|280:168|232:172,1,85,0|0,1:0|0:0,0:0:0:0:
176,148,101546,1,0,0:0:0:0:
168,120,101669,6,0,L|156:56,1,42.5
100,28,101915,2,0,P|88:48|80:80,1,42.5
24,120,102161,2,0,P|40:164|40:192,1,42.5,0|0,1:0|0:0,0:0:0:0:
78,251,102407,2,0,L|84:224,1,28.3333333333333
408,48,104620,5,4,0:0:0:0:
496,308,104866,1,0,0:0:0:0:
348,196,105112,2,0,P|320:184|268:172,1,50.9999984436036,0|0,1:0|0:0,0:0:0:0:
212,204,105358,2,0,P|204:184|196:136,1,50.9999984436036
264,92,105604,5,0,0:0:0:0:
264,92,105849,1,0,0:0:0:0:
284,276,106095,1,0,1:0:0:0:
120,192,106341,2,0,P|112:160|112:120,1,50.9999984436036
162,26,106587,6,0,L|175:75,1,50.9999984436036
264,92,106833,2,0,L|288:32,1,50.9999984436036
376,28,107079,1,0,1:0:0:0:
376,28,107325,2,0,P|384:64|384:96,1,50.9999984436036
416,164,107571,6,0,P|436:152|460:124,1,50.9999984436036
328,152,107817,2,0,P|328:175|340:210,1,50.9999984436036
408,260,108063,1,0,1:0:0:0:
468,48,108308,1,0,0:0:0:0:
232,176,108554,6,0,P|160:176|112:144,1,101.999996887207
72,96,108923,1,0,0:0:0:0:
44,76,109046,2,0,L|24:192,1,101.999996887207,0|0,1:0|0:0,0:0:0:0:
44,264,109415,1,0,0:0:0:0:
60,288,109538,5,0,0:0:0:0:
268,264,109784,1,0,0:0:0:0:
156,72,110030,1,0,1:0:0:0:
208,328,110276,2,0,P|188:340|152:344,1,50.9999984436036
60,215,110522,1,0,0:0:0:0:
280,144,110767,1,0,0:0:0:0:
60,215,111013,1,0,1:0:0:0:
62,41,111259,2,0,P|75:63|79:88,1,50.9999984436036
12,248,111505,5,0,0:0:0:0:
48,252,111628,1,0,0:0:0:0:
84,248,111751,2,0,L|148:216,1,50.9999984436036
204,168,111997,1,0,1:0:0:0:
272,340,112243,1,0,0:0:0:0:
332,108,112489,5,4,0:0:0:0:
272,340,112735,2,0,P|236:328|196:328,1,50.9999984436036
132,340,112981,1,0,1:0:0:0:
64,168,113227,1,0,0:0:0:0:
8,344,113472,6,0,P|36:316|48:288,1,50.9999984436036
112,244,113718,2,0,P|140:240|176:256,1,50.9999984436036
240,296,113964,1,0,1:0:0:0:
240,296,114210,1,0,0:0:0:0:
192,120,114456,6,0,P|160:120|116:136,1,50.9999984436036
88,48,114702,2,0,L|152:28,1,50.9999984436036
228,32,114948,1,0,1:0:0:0:
200,212,115194,1,0,0:0:0:0:
380,176,115440,6,0,B|360:156|324:140|324:144,1,50.9999984436036
440,108,115686,2,0,L|492:112,1,50.9999984436036
376,44,115931,1,0,1:0:0:0:
472,208,116177,1,0,0:0:0:0:
248,160,116423,6,0,P|192:144|156:104,1,101.999996887207
72,100,116792,1,0,0:0:0:0:
72,136,116915,2,0,L|68:196,1,50.9999984436036,0|0,1:0|0:0,0:0:0:0:
155,278,117161,2,0,L|152:228,1,50.9999984436036
247,86,117407,6,0,L|236:188,2,101.999996887207,0|0|0,0:0|0:0|1:0,0:0:0:0:
432,88,118145,2,0,L|445:38,1,50.9999984436036
504,184,118390,6,0,P|488:196|392:196,2,101.999996887207,0|0|0,0:0|0:0|1:0,0:0:0:0:
312,8,119128,2,0,L|299:58,1,50.9999984436036
352,124,119374,5,0,0:0:0:0:
320,139,119497,1,0,0:0:0:0:
284,143,119620,1,0,0:0:0:0:
28,88,119866,2,0,P|48:112|60:144,1,50.9999984436036,0|0,1:0|0:0,0:0:0:0:
185,166,120112,2,0,P|160:167|136:176,1,50.9999984436036
12,277,120358,6,0,P|62:285|108:264,1,101.999996887207,4|0,0:0|0:0,0:0:0:0:
157,190,120727,1,0,0:0:0:0:
185,166,120849,2,0,P|233:138|297:142,2,101.999996887207,0|0|0,1:0|0:0|0:0,0:0:0:0:
104,120,121464,5,0,0:0:0:0:
72,104,121587,2,0,P|56:92|8:84,1,50.9999984436036
136,40,121833,2,0,L|192:24,1,50.9999984436036,0|0,1:0|0:0,0:0:0:0:
236,104,122079,2,0,L|292:88,1,50.9999984436036
376,68,122325,5,0,0:0:0:0:
444,240,122571,2,0,P|456:268|480:296,1,50.9999984436036
492,312,122817,1,0,1:0:0:0:
492,156,123063,2,0,P|463:144|426:141,1,50.9999984436036
372,200,123308,6,0,P|355:219|335:234,1,50.9999984436036
244,240,123554,2,0,P|215:228|178:225,1,50.9999984436036
93,304,123800,2,0,L|144:300,1,50.9999984436036,0|0,1:0|0:0,0:0:0:0:
200,372,124046,2,0,L|250:367,1,50.9999984436036
344,364,124292,5,0,0:0:0:0:
404,180,124538,1,0,0:0:0:0:
404,180,124661,1,0,0:0:0:0:
404,180,124784,1,0,1:0:0:0:
244,88,125030,1,0,0:0:0:0:
504,48,125276,6,0,P|500:80|484:112,1,50.9999984436036
408,60,125522,2,0,P|399:36|397:10,1,50.9999984436036
308,40,125767,2,0,P|304:72|288:104,1,50.9999984436036,0|0,1:0|0:0,0:0:0:0:
212,52,126013,2,0,P|203:28|201:2,1,50.9999984436036
128,92,126259,6,0,L|104:204,2,101.999996887207,0|0|0,0:0|0:0|1:0,0:0:0:0:
308,40,126997,2,0,L|340:0,1,50.9999984436036
380,100,127243,5,0,0:0:0:0:
376,136,127366,1,0,0:0:0:0:
364,168,127489,2,0,L|360:228,1,50.9999984436036
352,344,127735,2,0,P|284:288|196:352,1,203.999993774414,0|4,1:0|0:0,0:0:0:0:
72,120,128472,5,0,0:0:0:0:
168,276,128718,1,0,1:0:0:0:
240,108,128964,2,0,P|240:76|260:40,1,50.9999984436036
324,108,129210,6,0,P|320:148|304:176,1,50.9999984436036
264,232,129456,1,0,0:0:0:0:
436,168,129702,1,0,1:0:0:0:
264,232,129948,1,0,0:0:0:0:
104,144,130194,6,0,P|84:128|32:124,1,50.9999984436036
112,44,130440,2,0,L|188:32,1,50.9999984436036
252,16,130686,1,0,1:0:0:0:
252,16,130931,2,0,L|260:88,1,50.9999984436036
308,144,131177,6,0,P|336:140|364:120,1,50.9999984436036
397,17,131423,2,0,P|372:21|352:36,1,50.9999984436036
448,104,131669,1,0,1:0:0:0:
296,244,131915,1,0,0:0:0:0:
252,16,132161,6,0,P|240:76|192:124,1,101.999996887207
97,69,132530,2,0,P|119:56|144:52,1,50.9999984436036,0|0,0:0|1:0,0:0:0:0:
144,51,132899,6,0,L|140:120,1,50.9999984436036
140,196,133145,1,0,0:0:0:0:
240,348,133390,1,0,0:0:0:0:
76,268,133636,1,0,1:0:0:0:
232,168,133882,6,0,P|264:148|288:144,1,50.9999984436036
368,136,134128,1,0,0:0:0:0:
344,320,134374,1,0,0:0:0:0:
176,244,134620,1,0,1:0:0:0:
212,64,134866,6,0,P|196:44|160:32,1,50.9999984436036
120,112,135112,1,0,0:0:0:0:
88,132,135235,1,0,0:0:0:0:
52,144,135358,2,0,L|48:208,1,50.9999984436036
148,304,135604,2,0,P|96:288|32:300,1,101.999996887207,0|0,1:0|0:0,0:0:0:0:
256,192,150112,12,0,151710,0:0:0:0:
316,32,152940,6,0,P|352:84|400:92,1,95.6250036478044,0|0,1:0|0:0,0:0:0:0:
476,56,153431,6,0,L|456:124,1,50.9999984436036,4|0,0:0|0:0,0:0:0:0:
472,196,153676,2,0,P|452:196|408:176,1,50.9999984436036
340,140,153922,1,0,1:0:0:0:
264,308,154168,2,0,P|232:308|192:332,1,50.9999984436036
124,328,154414,6,0,L|136:248,1,50.9999984436036
29,210,154660,2,0,L|40:260,1,50.9999984436036
120,176,154906,1,0,1:0:0:0:
212,16,155152,1,0,0:0:0:0:
332,152,155398,6,0,P|296:164|256:156,1,50.9999984436036
163,90,155644,2,0,P|185:102|204:120,1,50.9999984436036
208,212,155890,2,0,L|224:336,1,101.999996887207,0|0,1:0|0:0,0:0:0:0:
304,352,156258,1,0,0:0:0:0:
332,332,156381,6,0,P|348:296|352:264,1,50.9999984436036
249,196,156627,2,0,P|256:221|268:244,1,50.9999984436036
432,240,156873,1,0,1:0:0:0:
221,313,157119,1,0,0:0:0:0:
328,120,157365,6,0,L|340:16,1,101.999996887207
424,56,157734,1,0,0:0:0:0:
428,92,157857,2,0,P|444:156|500:192,1,101.999996887207,0|0,1:0|0:0,0:0:0:0:
480,272,158226,1,0,0:0:0:0:
444,280,158349,6,0,P|404:288|384:300,1,50.9999984436036
320,344,158594,2,0,P|280:336|260:324,1,50.9999984436036
196,280,158840,1,0,1:0:0:0:
196,280,159086,6,0,L|200:204,1,50.9999984436036
110,129,159332,2,0,L|120:180,1,50.9999984436036
200,116,159578,2,0,L|209:65,1,50.9999984436036
276,4,159824,1,0,1:0:0:0:
276,4,160070,6,0,L|292:68,1,50.9999984436036
332,136,160316,2,0,P|368:136|392:120,1,50.9999984436036
240,132,160562,2,0,P|221:163|223:191,1,50.9999984436036
304,328,160808,2,0,P|264:280|204:280,1,101.999996887207,0|0,1:0|0:0,0:0:0:0:
140,304,161176,1,0,0:0:0:0:
104,304,161299,6,0,L|53:314,1,50.9999984436036,4|0,0:0|0:0,0:0:0:0:
25,208,161545,2,0,L|76:216,1,50.9999984436036
168,224,161791,1,0,1:0:0:0:
300,96,162037,2,0,P|288:64|264:36,1,50.9999984436036
200,100,162283,6,0,P|180:96|140:68,1,50.9999984436036
278,50,162529,2,0,L|352:28,1,50.9999984436036
392,160,162775,2,0,L|272:148,1,101.999996887207,0|0,1:0|0:0,0:0:0:0:
220,208,163144,1,0,0:0:0:0:
204,240,163267,6,0,P|192:280|176:304,1,50.9999984436036
120,348,163512,2,0,P|109:324|103:300,1,50.9999984436036
80,212,163758,1,0,1:0:0:0:
144,40,164004,2,0,L|152:92,1,50.9999984436036
236,132,164250,6,0,P|280:136|312:120,1,50.9999984436036
324,48,164496,2,0,P|280:44|248:60,1,50.9999984436036
380,128,164742,1,0,1:0:0:0:
416,308,164988,1,0,0:0:0:0:
460,68,165234,5,0,0:0:0:0:
236,132,165480,2,0,P|200:120|180:100,2,50.9999984436036,0|0|0,0:0|0:0|1:0,0:0:0:0:
424,216,165971,2,0,P|384:220|348:240,1,50.9999984436036
253,277,166217,6,0,P|278:283|304:284,1,50.9999984436036
374,223,166463,2,0,L|388:96,2,101.999996887207,0|0|0,0:0|1:0|0:0,0:0:0:0:
364,316,167078,1,0,0:0:0:0:
284,360,167201,6,0,P|244:368|208:356,1,50.9999984436036
124,283,167447,2,0,P|149:288|172:300,1,50.9999984436036
253,277,167693,2,0,L|283:143,2,101.999996887207,0|0|0,1:0|0:0|0:0,0:0:0:0:
160,364,168308,5,0,0:0:0:0:
74,352,168431,2,0,L|24:360,1,50.9999984436036
40,272,168676,2,0,P|60:212|24:148,1,101.999996887207,0|0,1:0|0:0,0:0:0:0:
300,40,169168,6,0,P|240:60|224:128,1,101.999996887207,4|0,0:0|0:0,0:0:0:0:
208,184,169537,1,0,0:0:0:0:
224,216,169660,2,0,P|248:240|272:248,1,50.9999984436036,0|0,1:0|0:0,0:0:0:0:
376,169,169906,2,0,P|350:168|328:180,1,50.9999984436036
368,264,170152,6,0,P|356:284|316:304,1,50.9999984436036
227,355,170398,2,0,L|276:372,1,50.9999984436036
208,264,170644,2,0,L|140:256,1,50.9999984436036,0|0,1:0|0:0,0:0:0:0:
53,186,170890,2,0,L|104:180,1,50.9999984436036
124,92,171135,5,0,0:0:0:0:
340,180,171381,1,0,0:0:0:0:
376,180,171504,1,0,0:0:0:0:
412,172,171627,1,0,1:0:0:0:
252,48,171873,1,0,0:0:0:0:
226,73,171996,1,0,0:0:0:0:
206,104,172119,6,0,P|216:128|216:160,1,50.9999984436036
116,252,172365,2,0,P|118:227|128:203,1,50.9999984436036
196,320,172611,2,0,P|186:344|163:366,1,50.9999984436036,0|0,1:0|0:0,0:0:0:0:
27,362,172857,2,0,P|45:345|69:335,1,50.9999984436036
200,220,173103,6,0,P|164:172|88:164,1,101.999996887207
68,76,173471,1,0,0:0:0:0:
104,68,173594,2,0,P|148:64|184:76,1,50.9999984436036,0|0,1:0|0:0,0:0:0:0:
244,84,173840,2,0,P|272:96|300:128,1,50.9999984436036
412,228,174086,6,0,P|352:208|284:216,1,101.999996887207
264,280,174455,1,0,0:0:0:0:
232,296,174578,2,0,P|212:312|172:328,1,50.9999984436036,0|0,1:0|0:0,0:0:0:0:
121,204,174824,2,0,P|144:216|164:232,1,50.9999984436036
36,236,175070,6,0,L|16:104,1,101.999996887207
104,92,175439,1,0,0:0:0:0:
136,108,175562,2,0,P|168:124|196:120,1,50.9999984436036,0|0,1:0|0:0,0:0:0:0:
266,24,175808,2,0,P|241:26|220:40,1,50.9999984436036
252,196,176053,6,0,L|312:204,1,50.9999984436036
340,32,176299,2,0,L|289:38,1,50.9999984436036
444,140,176545,2,0,P|496:196|420:292,1,203.999993774414,0|4,1:0|0:0,0:0:0:0:
116,364,177283,6,0,L|120:288,1,50.9999984436036
19,180,177529,2,0,P|14:230|36:276,1,101.999996887207,0|0,1:0|0:0,0:0:0:0:
104,212,177898,1,0,0:0:0:0:
108,176,178021,6,0,P|100:136|76:116,1,50.9999984436036
16,28,178267,2,0,P|38:39|64:40,1,50.9999984436036
189,106,178512,2,0,P|139:105|94:128,1,101.999996887207,0|0,1:0|0:0,0:0:0:0:
256,276,179004,6,0,P|275:293|288:316,1,50.9999984436036
304,196,179250,2,0,P|312:163|341:132,1,50.9999984436036
226,34,179496,2,0,P|241:82|232:132,1,101.999996887207,0|0,1:0|0:0,0:0:0:0:
156,184,179865,1,0,0:0:0:0:
136,212,179988,6,0,P|124:248|128:288,1,50.9999984436036
220,352,180234,2,0,P|217:327|208:304,1,50.9999984436036
44,232,180480,2,0,P|44:292|88:344,1,101.999996887207,0|0,1:0|0:0,0:0:0:0:
284,232,180971,6,0,P|332:192|396:196,1,101.999996887207
436,124,181340,1,0,0:0:0:0:
408,104,181463,2,0,P|368:68|352:16,1,101.999996887207,0|0,1:0|0:0,0:0:0:0:
268,64,181832,1,0,0:0:0:0:
232,72,181955,6,0,L|168:64,1,50.9999984436036
136,144,182201,2,0,L|186:150,1,50.9999984436036
64,88,182447,2,0,P|44:148|64:200,1,101.999996887207,0|0,1:0|0:0,0:0:0:0:
108,260,182816,1,0,0:0:0:0:
144,256,182939,6,0,L|208:248,1,50.9999984436036
240,328,183185,2,0,L|189:334,1,50.9999984436036
312,272,183431,2,0,P|332:332|312:384,1,101.999996887207,0|0,1:0|0:0,0:0:0:0:
240,328,183799,1,0,0:0:0:0:
228,292,183922,6,0,P|224:256|240:224,1,50.9999984436036
396,248,184168,2,0,P|400:284|384:316,1,50.9999984436036
312,172,184414,2,0,L|364:108,1,50.9999984436036,0|0,1:0|0:0,0:0:0:0:
400,60,184660,1,0,0:0:0:0:
400,60,184783,1,0,0:0:0:0:
480,28,184906,5,4,0:0:0:0:
256,192,185029,12,0,189332,1:0:0:0:
356,288,189578,6,0,L|300:272,1,50.9999984436036
188,316,189824,2,0,P|232:328|264:356,1,50.9999984436036
132,244,190070,2,0,P|100:292|104:348,2,101.999996887207,0|0|0,0:0|1:0|0:0,0:0:0:0:
192,172,190685,1,0,0:0:0:0:
184,136,190808,6,0,L|178:85,1,50.9999984436036
291,90,191053,2,0,L|280:140,1,50.9999984436036
364,176,191299,2,0,L|391:133,1,50.9999984436036,0|0,1:0|0:0,0:0:0:0:
472,209,191545,2,0,L|432:240,1,50.9999984436036
408,367,191791,6,0,P|428:352|444:332,1,50.9999984436036
304,272,192037,2,0,L|316:384,1,101.999996887207,0|0,0:0|1:0,0:0:0:0:
288,176,192529,1,0,0:0:0:0:
288,176,192775,6,0,P|236:152|204:96,1,101.999996887207,4|0,0:0|0:0,0:0:0:0:
40,48,193267,1,0,1:0:0:0:
40,48,193512,6,0,L|44:112,1,50.9999984436036
116,156,193758,2,0,L|104:216,1,50.9999984436036
84,296,194004,1,0,0:0:0:0:
264,340,194250,1,0,1:0:0:0:
200,168,194496,2,0,P|192:116|176:100,1,50.9999984436036
208,28,194742,6,0,L|288:32,1,50.9999984436036
346,113,194988,2,0,L|296:116,1,50.9999984436036
392,32,195234,1,0,1:0:0:0:
392,32,195480,6,0,P|420:60|448:68,1,50.9999984436036
498,177,195726,2,0,L|452:156,1,50.9999984436036
346,112,195971,2,0,L|393:91,1,50.9999984436036
376,204,196217,1,0,1:0:0:0:
256,344,196463,1,0,0:0:0:0:
252,92,196709,6,0,P|204:64|152:68,1,101.999996887207
76,108,197078,1,0,0:0:0:0:
56,140,197201,2,0,L|60:196,1,50.9999984436036,0|0,1:0|0:0,0:0:0:0:
140,282,197447,2,0,L|144:232,1,50.9999984436036
168,144,197693,6,0,P|224:120|256:88,1,101.999996887207
253,91,198185,1,0,1:0:0:0:
420,168,198431,2,0,L|412:236,1,50.9999984436036
368,296,198676,6,0,P|320:268|288:224,1,101.999996887207
291,231,199168,1,0,1:0:0:0:
176,88,199414,2,0,P|176:56|148:16,1,50.9999984436036
86,146,199660,6,0,L|64:206,1,50.9999984436036
163,276,199906,2,0,L|154:226,1,50.9999984436036
232,165,200152,6,0,B|254:158|266:138|266:138|202:138|169:78,1,152.999995330811,0|0,1:0|0:0,0:0:0:0:
